osu file format v14

[General]
AudioFilename: audio.mp3
AudioLeadIn: 0
PreviewTime: -1
Countdown: 0
SampleSet: None
StackLeniency: 0.7
Mode: 0
LetterboxInBreaks: 0
WidescreenStoryboard: 0

[Editor]
DistanceSpacing: 1.25
BeatDivisor: 4
GridSize: 4
TimelineZoom: 2.899999

[Metadata]
Title:Pixel game
TitleUnicode:Pixel game
Artist:koding school
ArtistUnicode:koding school
Creator:foodcat_cat
Version:Starter Pixel Pro Max
Source:koding school
Tags:electronic
BeatmapID:5301956
BeatmapSetID:2433170

[Difficulty]
HPDrainRate:4
CircleSize:4
OverallDifficulty:5
ApproachRate:6
SliderMultiplier:1.7
SliderTickRate:1

[Events]
//Background and Video events
0,0,"螢幕擷取畫面 2025-09-06 190907.png",0,0
//Break Periods
//Storyboard Layer 0 (Background)
//Storyboard Layer 1 (Fail)
//Storyboard Layer 2 (Pass)
//Storyboard Layer 3 (Foreground)
//Storyboard Layer 4 (Overlay)
//Storyboard Sound Samples

[TimingPoints]
35.1334386103433,400,4,1,0,100,1,0
135,-100,4,1,0,100,0,1
12235,-100,4,1,0,100,0,0

[HitObjects]
331,115,31,6,0,L|306:267,1,120
302,301,535,2,0,L|257:293,3,42.5
192,204,935,1,0,0:0:0:0:
178,116,1135,2,0,L|239:101,2,42.5
89,129,1535,1,0,0:0:0:0:
69,212,1780,5,0,0:0:0:0:
145,245,1978,1,0,0:0:0:0:
215,295,2177,1,0,0:0:0:0:
310,253,2376,6,0,L|311:209,2,42.5
215,295,2773,1,0,0:0:0:0:
212,206,2972,6,0,L|210:113,2,85
271,250,3568,1,0,0:0:0:0:
344,248,3766,1,0,0:0:0:0:
306,175,3965,2,0,L|301:77,1,85
102,67,4535,5,0,0:0:0:0:
102,67,4735,1,0,0:0:0:0:
147,181,4935,1,0,0:0:0:0:
147,181,5135,1,0,0:0:0:0:
139,276,5335,6,0,L|101:357,1,85
191,368,5735,2,0,L|231:278,1,85
296,221,6150,1,0,0:0:0:0:
296,221,6335,2,0,P|321:147|261:167,1,170
210,167,6935,1,0,0:0:0:0:
210,167,7135,2,0,P|179:240|246:229,1,170
239,89,7735,5,0,0:0:0:0:
239,89,7935,1,0,0:0:0:0:
151,136,8135,2,0,L|112:177,1,42.5
173,217,8435,2,0,L|216:170,1,42.5
261,244,8733,2,0,L|229:277,2,42.5
333,204,9135,1,0,0:0:0:0:
280,123,9335,6,0,L|181:69,1,85
179,148,9735,2,0,L|107:105,1,42.5
110,115,9935,2,0,L|163:227,1,85
231,251,10535,2,0,L|348:232,1,85
424,168,11035,2,0,L|430:120,1,42.5
391,119,11235,2,0,L|379:189,1,42.5
277,135,11535,1,0,0:0:0:0:
277,135,11735,2,0,P|209:129|205:88,1,85
105,103,12535,5,0,0:0:0:0:
126,189,12735,2,0,L|156:280,1,85
181,341,13135,1,0,0:0:0:0:
267,308,13335,2,0,L|341:258,2,85
390,212,13935,1,0,0:0:0:0:
353,130,14135,2,0,P|327:71|288:77,1,85
250,81,14535,2,0,P|241:131|278:133,1,85
147,143,14892,2,0,P|105:178|113:213,1,85
172,257,15335,1,0,0:0:0:0:
172,257,15535,1,0,0:0:0:0:
364,255,15735,6,0,B|309:234|399:236|374:199|426:308|372:111,3,170
282,272,17335,5,0,0:0:0:0:
282,272,17535,2,0,B|191:276|245:203|156:202|153:172,1,170
193,56,18135,2,0,B|353:74|144:125|295:122|312:71|352:48,1,170
375,132,18735,5,0,0:0:0:0:
375,132,18935,1,0,0:0:0:0:
375,132,19135,1,0,0:0:0:0:
355,225,19262,2,0,L|309:303,1,85
258,257,19659,2,0,L|305:185,1,85
222,164,20056,1,0,0:0:0:0:
261,97,20235,6,0,P|262:42|219:45,3,85
177,83,21035,5,0,0:0:0:0:
346,63,21235,1,0,0:0:0:0:
271,170,21435,1,0,0:0:0:0:
276,190,21635,1,0,0:0:0:0:
188,197,21835,1,0,0:0:0:0:
191,219,22035,1,0,0:0:0:0:
187,297,22235,6,0,L|288:297,1,85
273,369,22635,2,0,L|160:368,1,85
188,217,23035,2,0,L|279:219,1,85
280,55,23435,2,0,L|186:54,1,85
168,136,23835,2,0,L|221:135,3,42.5
310,134,24435,2,0,L|259:135,3,42.5
252,209,24835,5,0,0:0:0:0:
254,279,25035,1,0,0:0:0:0:
255,350,25235,1,0,0:0:0:0:
355,350,25435,6,0,L|356:260,3,85
355,265,26235,1,0,0:0:0:0:
256,190,26435,1,0,0:0:0:0:
311,133,26635,1,0,0:0:0:0:
198,242,26835,1,0,0:0:0:0:
195,130,27035,1,0,0:0:0:0:
316,247,27235,1,0,0:0:0:0:
316,247,27435,6,0,L|220:276,3,85
202,177,28235,1,0,0:0:0:0:
171,90,28435,1,0,0:0:0:0:
171,90,28635,2,0,L|265:55,3,85
248,176,29435,5,0,0:0:0:0:
272,243,29635,1,0,0:0:0:0:
333,214,29835,1,0,0:0:0:0:
305,154,30035,1,0,0:0:0:0:
372,159,30235,5,0,0:0:0:0:
330,281,30435,1,0,0:0:0:0:
204,232,30635,1,0,0:0:0:0:
252,110,30835,1,0,0:0:0:0:
179,84,31035,6,0,P|146:93|119:220,1,170
111,209,31535,1,0,0:0:0:0:
128,248,31635,5,0,0:0:0:0:
160,307,31835,1,0,0:0:0:0:
204,311,32035,1,0,0:0:0:0:
245,313,32235,1,0,0:0:0:0:
383,288,32435,5,0,0:0:0:0:
391,248,32635,1,0,0:0:0:0:
399,205,32835,1,0,0:0:0:0:
409,166,33035,1,0,0:0:0:0:
405,63,33235,5,0,0:0:0:0:
361,62,33435,1,0,0:0:0:0:
321,59,33635,1,0,0:0:0:0:
280,55,33835,1,0,0:0:0:0:
146,116,34035,6,0,L|166:79,6,42.5
83,92,34835,1,0,0:0:0:0:
204,149,35035,1,0,0:0:0:0:
204,149,35235,1,0,0:0:0:0:
204,149,35435,1,0,0:0:0:0:
190,99,35635,2,0,P|263:140|157:157,1,255
116,104,36435,5,0,0:0:0:0:
291,266,36635,2,0,L|196:210,1,85
363,156,37035,2,0,L|277:106,1,85
256,167,37435,2,0,L|430:280,1,170
460,297,38235,5,0,0:0:0:0:
426,274,38435,1,0,0:0:0:0:
395,247,38635,1,0,0:0:0:0:
365,220,38835,1,0,0:0:0:0:
340,239,39035,1,0,0:0:0:0:
314,258,39235,1,0,0:0:0:0:
288,277,39435,1,0,0:0:0:0:
258,298,39635,1,0,0:0:0:0:
161,347,39835,6,0,P|91:321|88:295,1,85
151,135,40235,2,0,P|205:143|224:185,1,85
69,244,40635,2,0,P|69:182|102:169,1,85
245,235,41035,2,0,P|245:283|211:305,1,85
324,274,41435,6,0,L|365:293,3,42.5
383,233,41835,2,0,L|338:211,3,42.5
364,158,42235,2,0,L|416:185,3,42.5
427,122,42635,2,0,L|370:94,3,42.5
294,98,43035,5,0,0:0:0:0:
294,98,43235,2,0,L|152:163,1,127.5
119,184,43735,1,0,0:0:0:0:
164,265,43935,1,0,0:0:0:0:
237,207,44135,1,0,0:0:0:0:
292,274,44335,6,0,P|247:318|258:341,1,85
326,364,44735,2,0,P|367:323|354:288,1,85
363,152,45135,2,0,P|314:213|325:242,1,85
402,245,45535,2,0,P|433:214|425:173,1,85
418,71,45935,1,0,0:0:0:0:
330,80,46135,1,0,0:0:0:0:
246,90,46335,1,0,0:0:0:0:
256,195,46535,1,0,0:0:0:0:
260,293,46735,2,0,P|226:334|199:308,1,85
167,271,47135,2,0,P|221:230|237:240,1,85
299,239,47535,5,0,0:0:0:0:
269,159,47735,2,0,L|232:75,2,85
341,131,48335,2,0,L|300:51,2,85
330,205,48935,1,0,0:0:0:0:
370,282,49135,1,0,0:0:0:0:
407,361,49335,1,0,0:0:0:0:
472,297,49535,2,0,L|423:189,1,85
406,152,49935,2,0,L|327:68,1,85
347,90,50235,2,0,L|267:104,5,42.5
