osu file format v14

[General]
AudioFilename: audio.mp3
AudioLeadIn: 0
PreviewTime: -1
Countdown: 0
SampleSet: None
StackLeniency: 0.7
Mode: 0
LetterboxInBreaks: 0
WidescreenStoryboard: 1

[Editor]
DistanceSpacing: 1.25
BeatDivisor: 4
GridSize: 4
TimelineZoom: 2.899999

[Metadata]
Title:Pixel game
TitleUnicode:Pixel game
Artist:koding school
ArtistUnicode:koding school
Creator:foodcat_cat
Version:God Pixel Pro Max
Source:koding school
Tags:electronic
BeatmapID:5301950
BeatmapSetID:2433170

[Difficulty]
HPDrainRate:5
CircleSize:4
OverallDifficulty:6
ApproachRate:7
SliderMultiplier:1.7
SliderTickRate:1

[Events]
//Background and Video events
0,0,"螢幕擷取畫面 2025-09-06 190907.png",0,0
//Break Periods
//Storyboard Layer 0 (Background)
//Storyboard Layer 1 (Fail)
//Storyboard Layer 2 (Pass)
//Storyboard Layer 3 (Foreground)
//Storyboard Layer 4 (Overlay)
//Storyboard Sound Samples

[TimingPoints]
35.1334386103433,400,4,1,0,100,1,0
135,-100,4,1,0,100,0,1
1335,-100,4,1,0,100,0,1
12435,-100,4,1,0,100,0,0
13935,-50,4,1,0,100,0,0
15735,-10,4,1,0,100,0,0
17335,-50,4,1,0,100,0,0
18735,-100,4,1,0,100,0,0
20235,-10,4,1,0,100,0,0
20835,-100,4,1,0,100,0,0
22235,-66.6666666666667,4,1,0,100,0,0
25435,-10,4,1,0,100,0,0
27335,-100,4,1,0,100,0,0
27435,-50,4,1,0,100,0,0
31035,-100,4,1,0,100,0,0
34035,-50,4,1,0,100,0,0
39835,-100,4,1,0,100,0,0
41435,-50,4,1,0,100,0,0
43035,-100,4,1,0,100,0,0

[HitObjects]
444,159,35,6,0,L|452:113,1,42.5
306,95,235,2,0,L|295:155,1,42.5
413,235,435,1,0,0:0:0:0:
363,285,535,1,0,0:0:0:0:
306,326,635,1,0,0:0:0:0:
241,350,735,1,0,0:0:0:0:
174,372,835,1,0,0:0:0:0:
131,339,935,1,0,0:0:0:0:
138,293,1035,1,0,0:0:0:0:
174,264,1135,1,0,0:0:0:0:
237,233,1235,1,0,0:0:0:0:
292,191,1335,1,0,0:0:0:0:
335,135,1435,1,0,0:0:0:0:
302,102,1535,1,0,0:0:0:0:
257,108,1635,1,0,0:0:0:0:
103,92,1735,5,0,0:0:0:0:
118,125,1835,1,0,0:0:0:0:
141,160,1935,1,0,0:0:0:0:
122,200,2035,1,0,0:0:0:0:
101,236,2135,1,0,0:0:0:0:
126,266,2235,1,0,0:0:0:0:
189,295,2335,1,0,0:0:0:0:
260,298,2435,1,0,0:0:0:0:
328,278,2535,1,0,0:0:0:0:
367,222,2635,1,0,0:0:0:0:
386,163,2735,1,0,0:0:0:0:
351,132,2835,1,0,0:0:0:0:
412,345,2935,6,0,P|460:293|490:311,2,85
412,345,3435,1,0,0:0:0:0:
271,317,3535,1,0,0:0:0:0:
271,250,3635,1,0,0:0:0:0:
348,318,3735,1,0,0:0:0:0:
344,248,3835,1,0,0:0:0:0:
306,175,3935,2,0,L|306:243,4,42.5
307,106,4435,1,0,0:0:0:0:
95,31,4535,5,0,0:0:0:0:
136,32,4635,1,0,0:0:0:0:
173,40,4735,1,0,0:0:0:0:
158,83,4835,1,0,0:0:0:0:
142,120,4935,1,0,0:0:0:0:
109,150,5035,1,0,0:0:0:0:
116,192,5135,1,0,0:0:0:0:
139,276,5235,5,0,0:0:0:0:
139,276,5335,2,0,L|101:357,1,85
343,107,5635,1,0,0:0:0:0:
343,107,5735,2,0,L|383:17,1,85
91,188,6035,1,0,0:0:0:0:
102,199,6135,1,0,0:0:0:0:
102,199,6235,1,0,0:0:0:0:
102,199,6335,2,0,P|127:125|85:132,1,127.5
88,293,6735,1,0,0:0:0:0:
451,188,6835,1,0,0:0:0:0:
463,201,6935,1,0,0:0:0:0:
463,201,7035,1,0,0:0:0:0:
463,201,7135,2,0,P|432:274|460:274,1,127.5
472,101,7535,1,0,0:0:0:0:
88,293,7635,1,0,0:0:0:0:
88,293,7735,5,0,0:0:0:0:
472,101,7835,1,0,0:0:0:0:
472,101,7935,1,0,0:0:0:0:
256,191,8035,1,0,0:0:0:0:
66,36,8135,2,0,L|27:77,1,42.5
480,328,8335,2,0,L|428:382,1,42.5
35,351,8535,2,0,L|78:304,1,42.5
477,20,8733,2,0,L|445:53,2,42.5
0,191,9035,1,0,0:0:0:0:
512,193,9135,1,0,0:0:0:0:
255,192,9235,1,0,0:0:0:0:
255,192,9335,6,0,L|156:138,1,85
255,192,9635,1,0,0:0:0:0:
255,192,9735,2,0,L|254:112,1,42.5
255,192,9935,2,0,L|354:188,1,85
255,192,10235,1,0,0:0:0:0:
255,192,10335,2,0,L|294:228,1,42.5
255,192,10535,2,0,L|255:286,1,85
255,192,10835,1,0,0:0:0:0:
255,192,10935,1,0,0:0:0:0:
255,192,11035,2,0,L|195:234,1,42.5
255,192,11235,2,0,L|177:192,1,42.5
255,192,11435,1,0,0:0:0:0:
255,192,11535,1,0,0:0:0:0:
255,192,11635,1,0,0:0:0:0:
255,192,11735,2,0,P|256:173|255:98,1,85
255,192,12035,1,0,0:0:0:0:
255,192,12135,2,0,P|344:164|360:157,1,85
207,24,12435,5,0,0:0:0:0:
154,75,12535,1,0,0:0:0:0:
103,124,12635,1,0,0:0:0:0:
126,189,12735,2,0,L|156:280,1,85
176,337,13035,1,0,0:0:0:0:
252,331,13135,1,0,0:0:0:0:
351,91,13235,1,0,0:0:0:0:
503,138,13335,1,0,0:0:0:0:
226,82,13435,1,0,0:0:0:0:
401,338,13535,1,0,0:0:0:0:
477,288,13635,1,0,0:0:0:0:
195,173,13735,1,0,0:0:0:0:
252,295,13835,1,0,0:0:0:0:
492,36,13935,2,0,P|378:-1|330:20,1,170
336,15,14135,1,0,0:0:0:0:
270,57,14235,1,0,0:0:0:0:
331,153,14335,2,0,P|337:206|438:209,1,170
435,212,14535,1,0,0:0:0:0:
451,137,14635,1,0,0:0:0:0:
148,81,14735,2,0,P|101:115|-19:61,1,170
5,91,14935,1,0,0:0:0:0:
46,30,15035,1,0,0:0:0:0:
120,284,15135,1,0,0:0:0:0:
162,348,15235,1,0,0:0:0:0:
225,380,15335,1,0,0:0:0:0:
278,333,15435,1,0,0:0:0:0:
323,286,15535,1,0,0:0:0:0:
348,203,15635,5,0,0:0:0:0:
348,203,15735,2,0,B|-48:214|361:158|341:117|360:35|175:10|6:214,14,425
138,303,17235,5,0,0:0:0:0:
108,363,17335,1,0,0:0:0:0:
179,358,17435,1,0,0:0:0:0:
245,314,17535,2,0,B|191:276|245:203|116:329|268:133,1,170
166,166,17835,1,0,0:0:0:0:
102,139,17935,2,0,P|109:70|142:72,1,85
179,76,18135,2,0,B|353:73|144:124|295:121|312:70|350:7,1,170
376,42,18435,1,0,0:0:0:0:
438,41,18535,2,0,P|517:73|495:114,1,85
500,120,18735,5,0,0:0:0:0:
360,166,18835,1,0,0:0:0:0:
433,141,18935,1,0,0:0:0:0:
291,191,19035,1,0,0:0:0:0:
414,252,19135,2,0,L|368:330,1,85
370,325,19335,1,0,0:0:0:0:
341,263,19435,1,0,0:0:0:0:
263,264,19535,2,0,L|310:192,1,85
309,192,19735,1,0,0:0:0:0:
252,151,19835,1,0,0:0:0:0:
48,160,19935,1,0,0:0:0:0:
175,245,20035,1,0,0:0:0:0:
113,199,20135,1,0,0:0:0:0:
181,66,20235,6,0,B|395:-15|481:135|358:334|517:-37,6,425
181,66,20935,1,0,0:0:0:0:
254,227,21035,5,0,0:0:0:0:
200,300,21135,1,0,0:0:0:0:
298,299,21235,1,0,0:0:0:0:
300,244,21335,1,0,0:0:0:0:
207,246,21435,1,0,0:0:0:0:
255,312,21535,1,0,0:0:0:0:
301,186,21635,1,0,0:0:0:0:
159,267,21735,1,0,0:0:0:0:
301,345,21835,1,0,0:0:0:0:
323,153,21935,1,0,0:0:0:0:
122,262,22035,1,0,0:0:0:0:
323,382,22135,1,0,0:0:0:0:
456,56,22235,5,2,0:0:0:0:
407,103,22335,1,0,0:0:0:0:
371,160,22435,1,0,0:0:0:0:
347,225,22535,1,0,0:0:0:0:
334,294,22635,1,0,0:0:0:0:
299,325,22735,1,0,0:0:0:0:
259,314,22835,1,0,0:0:0:0:
244,270,22935,1,0,0:0:0:0:
237,200,23035,1,0,0:0:0:0:
234,133,23135,1,0,0:0:0:0:
214,92,23235,1,0,0:0:0:0:
172,80,23335,1,0,0:0:0:0:
137,90,23435,1,0,0:0:0:0:
135,157,23535,1,0,0:0:0:0:
133,223,23635,1,0,0:0:0:0:
197,224,23735,1,14,0:0:0:0:
131,288,23835,1,0,0:0:0:0:
129,351,23935,1,0,0:0:0:0:
89,366,24035,1,0,0:0:0:0:
52,342,24135,1,0,0:0:0:0:
49,275,24235,1,0,0:0:0:0:
51,209,24335,1,0,0:0:0:0:
54,145,24435,1,0,0:0:0:0:
56,78,24535,1,0,0:0:0:0:
110,33,24635,1,8,0:0:0:0:
176,38,24735,1,8,0:0:0:0:
244,42,24835,1,8,0:0:0:0:
313,46,24935,1,8,0:0:0:0:
382,54,25035,1,4,0:0:0:0:
87,274,25135,1,0,0:0:0:0:
44,329,25235,1,0,0:0:0:0:
0,384,25335,1,0,0:0:0:0:
389,348,25435,6,0,B|116:182|245:303|505:-39,7,425
416,256,26235,1,0,0:0:0:0:
413,222,26335,1,0,0:0:0:0:
410,193,26435,1,0,0:0:0:0:
411,162,26535,1,0,0:0:0:0:
503,2,26635,1,0,0:0:0:0:
237,123,26735,1,0,0:0:0:0:
431,3,26835,1,0,0:0:0:0:
294,70,26935,1,0,0:0:0:0:
465,64,27035,1,0,0:0:0:0:
306,138,27135,1,0,0:0:0:0:
445,143,27235,1,0,0:0:0:0:
372,193,27335,1,0,0:0:0:0:
81,352,27435,6,0,L|-15:381,4,85
81,352,27935,1,0,0:0:0:0:
505,189,28035,1,0,0:0:0:0:
385,192,28135,1,0,0:0:0:0:
0,191,28235,1,0,0:0:0:0:
123,191,28335,1,0,0:0:0:0:
255,189,28435,1,0,0:0:0:0:
255,189,28535,1,0,0:0:0:0:
427,30,28635,2,0,L|521:-5,4,85
427,30,29135,1,0,0:0:0:0:
288,196,29235,5,0,0:0:0:0:
288,196,29335,1,0,0:0:0:0:
228,165,29435,1,0,0:0:0:0:
228,165,29535,1,0,0:0:0:0:
360,221,29635,1,0,0:0:0:0:
360,221,29735,1,0,0:0:0:0:
255,264,29835,1,0,0:0:0:0:
255,264,29935,1,0,0:0:0:0:
318,134,30035,1,0,0:0:0:0:
318,134,30135,1,0,0:0:0:0:
218,322,30235,5,0,0:0:0:0:
218,322,30335,1,0,0:0:0:0:
350,73,30435,1,0,0:0:0:0:
350,73,30535,1,0,0:0:0:0:
424,251,30635,1,0,0:0:0:0:
424,251,30735,1,0,0:0:0:0:
170,123,30835,1,0,0:0:0:0:
170,123,30935,1,0,0:0:0:0:
145,48,31035,6,0,P|112:57|85:184,1,170
111,209,31535,1,0,0:0:0:0:
152,262,31635,1,0,0:0:0:0:
218,217,31735,1,0,0:0:0:0:
256,151,31835,5,0,0:0:0:0:
256,223,31935,1,0,0:0:0:0:
256,83,32035,1,0,0:0:0:0:
256,291,32135,1,0,0:0:0:0:
317,191,32235,5,0,0:0:0:0:
195,187,32335,1,0,0:0:0:0:
389,190,32435,1,0,0:0:0:0:
125,191,32535,1,0,0:0:0:0:
321,120,32635,5,0,0:0:0:0:
194,256,32735,1,0,0:0:0:0:
367,66,32835,1,0,0:0:0:0:
145,307,32935,1,0,0:0:0:0:
194,117,33035,5,0,0:0:0:0:
321,260,33135,1,0,0:0:0:0:
146,64,33235,1,0,0:0:0:0:
371,310,33335,1,0,0:0:0:0:
256,191,33435,5,0,0:0:0:0:
306,141,33535,1,0,0:0:0:0:
204,240,33635,1,0,0:0:0:0:
307,239,33735,2,0,L|356:281,1,42.5
203,144,33835,2,0,L|164:113,1,42.5
260,103,34035,6,0,L|280:66,12,42.5
260,103,34735,1,0,0:0:0:0:
306,49,34835,1,0,0:0:0:0:
378,29,34935,1,0,0:0:0:0:
417,87,35035,1,0,0:0:0:0:
336,270,35135,1,0,0:0:0:0:
95,215,35235,1,0,0:0:0:0:
94,114,35335,1,0,0:0:0:0:
47,165,35435,1,0,0:0:0:0:
190,99,35535,1,0,0:0:0:0:
190,99,35635,2,0,B|435:97|321:319|144:39,1,340
128,66,36135,1,0,0:0:0:0:
392,199,36235,1,0,0:0:0:0:
392,199,36335,1,0,0:0:0:0:
509,297,36435,5,0,0:0:0:0:
509,297,36535,1,0,0:0:0:0:
505,35,36635,2,0,P|386:33|387:-67,1,170
371,8,36835,1,0,0:0:0:0:
300,29,36935,1,0,0:0:0:0:
97,384,37035,2,0,P|31:280|-47:306,1,170
7,278,37235,1,0,0:0:0:0:
25,209,37335,1,0,0:0:0:0:
256,167,37435,2,0,L|408:274,3,170
395,264,38135,1,0,0:0:0:0:
256,226,38235,5,0,0:0:0:0:
257,150,38335,1,0,0:0:0:0:
255,296,38435,1,0,0:0:0:0:
258,81,38535,1,0,0:0:0:0:
256,226,38635,1,0,0:0:0:0:
257,150,38735,1,0,0:0:0:0:
256,226,38835,1,0,0:0:0:0:
258,81,38935,1,0,0:0:0:0:
255,296,39035,1,0,0:0:0:0:
197,182,39135,1,0,0:0:0:0:
314,183,39235,1,0,0:0:0:0:
130,186,39335,1,0,0:0:0:0:
383,183,39435,1,0,0:0:0:0:
197,182,39535,1,0,0:0:0:0:
314,183,39635,1,0,0:0:0:0:
257,181,39735,1,0,0:0:0:0:
72,26,39835,6,0,P|2:0|-1:-26,1,85
124,72,40135,1,0,0:0:0:0:
443,343,40235,2,0,P|497:351|516:393,1,85
384,283,40535,1,0,0:0:0:0:
0,384,40635,2,0,P|0:322|33:309,1,85
80,357,40935,1,0,0:0:0:0:
508,0,41035,2,0,P|508:48|474:70,1,85
409,30,41335,1,0,0:0:0:0:
128,290,41435,6,0,L|219:332,3,85
206,96,41835,2,0,L|127:125,1,85
408,135,42035,2,0,L|324:94,1,85
343,319,42235,2,0,L|422:282,3,85
275,229,42635,2,0,L|277:144,3,85
294,98,43035,5,0,0:0:0:0:
294,98,43135,1,0,0:0:0:0:
294,98,43235,2,0,L|112:179,1,170
303,197,43735,1,0,0:0:0:0:
227,303,43835,1,0,0:0:0:0:
359,306,43935,1,0,0:0:0:0:
231,93,44035,1,0,0:0:0:0:
162,200,44135,1,0,0:0:0:0:
303,197,44235,1,0,0:0:0:0:
481,324,44335,6,0,P|436:368|447:391,1,85
368,282,44635,1,0,0:0:0:0:
3,62,44735,2,0,P|44:21|31:-14,1,85
106,87,45035,1,0,0:0:0:0:
54,325,45135,2,0,P|5:386|16:415,1,85
125,260,45435,1,0,0:0:0:0:
447,68,45535,2,0,P|478:37|470:-4,1,85
387,20,45835,1,0,0:0:0:0:
383,94,45935,1,0,0:0:0:0:
383,194,46035,1,0,0:0:0:0:
383,315,46135,1,0,0:0:0:0:
251,316,46235,1,0,0:0:0:0:
134,313,46335,1,0,0:0:0:0:
137,205,46435,1,0,0:0:0:0:
139,94,46535,1,0,0:0:0:0:
256,94,46635,1,0,0:0:0:0:
505,194,46735,2,0,P|471:235|444:209,1,85
410,167,47035,1,0,0:0:0:0:
5,191,47135,2,0,P|59:150|75:160,1,85
125,196,47435,1,0,0:0:0:0:
184,149,47535,5,0,0:0:0:0:
320,75,47635,1,0,0:0:0:0:
220,280,47735,1,0,0:0:0:0:
182,46,47835,1,0,0:0:0:0:
117,279,47935,1,0,0:0:0:0:
383,156,48035,1,0,0:0:0:0:
196,289,48135,1,0,0:0:0:0:
284,37,48235,1,0,0:0:0:0:
376,317,48335,1,0,0:0:0:0:
142,119,48435,1,0,0:0:0:0:
394,70,48535,1,0,0:0:0:0:
179,282,48635,1,0,0:0:0:0:
420,222,48735,1,0,0:0:0:0:
130,98,48835,1,0,0:0:0:0:
319,321,48935,1,0,0:0:0:0:
227,55,49035,1,0,0:0:0:0:
163,305,49135,1,0,0:0:0:0:
349,77,49235,1,0,0:0:0:0:
111,198,49335,1,0,0:0:0:0:
253,306,49435,1,0,0:0:0:0:
314,24,49535,1,0,0:0:0:0:
83,205,49635,1,0,0:0:0:0:
406,158,49735,1,0,0:0:0:0:
191,30,49835,1,0,0:0:0:0:
210,323,49935,1,0,0:0:0:0:
411,79,50035,1,0,0:0:0:0:
74,50,50135,1,0,0:0:0:0:
74,50,50235,5,0,0:0:0:0:
366,286,50335,1,0,0:0:0:0:
109,300,50435,1,0,0:0:0:0:
358,26,50535,1,0,0:0:0:0:
88,185,50635,1,0,0:0:0:0:
375,167,50735,1,0,0:0:0:0:
237,177,50835,1,0,0:0:0:0:
