osu file format v14

[General]
AudioFilename: audio.mp3
AudioLeadIn: 0
PreviewTime: -1
Countdown: 0
SampleSet: Normal
StackLeniency: 0.9
Mode: 0
LetterboxInBreaks: 0
WidescreenStoryboard: 0

[Editor]
Bookmarks: 87433,103043,118165
DistanceSpacing: 1.6
BeatDivisor: 4
GridSize: 4
TimelineZoom: 2.3

[Metadata]
Title:Fiction
TitleUnicode:フィクション
Artist:kobasolo & harutya
ArtistUnicode:コバソロ & 春茶
Creator:Alsty-
Version:Tsukuribanashi
Source:
Tags:
BeatmapID:1873574
BeatmapSetID:896731

[Difficulty]
HPDrainRate:6
CircleSize:4
OverallDifficulty:8
ApproachRate:9
SliderMultiplier:1.4
SliderTickRate:1

[Events]
//Background and Video events
0,0,"_4k_uhd__sundae_beach_by_assassinwarrior-dafbph5.jpg",0,0
//Break Periods
//Storyboard Layer 0 (Background)
//Storyboard Layer 1 (Fail)
//Storyboard Layer 2 (Pass)
//Storyboard Layer 3 (Foreground)
//Storyboard Sound Samples

[TimingPoints]
2312,487.80487804878,4,1,0,100,1,0
3287,-66.6666666666667,4,1,0,100,0,0
4629,-50,4,1,0,100,0,0
4690,-66.6666666666667,4,1,0,100,0,0
18409,-83.3333333333333,4,1,0,100,0,0
48653,-50,4,1,0,100,0,0
49019,-83.3333333333333,4,1,0,100,0,0
52677,-50,4,1,0,100,0,0
52921,-83.3333333333333,4,1,0,100,0,0

[Colours]
Combo1 : 0,128,255
Combo2 : 255,0,255

[HitObjects]
327,97,1580,6,0,L|327:129,3,17.5
390,161,1824,2,0,L|390:205,1,35
278,261,2190,1,0,0:0:0:0:
207,198,2312,2,0,P|268:172|294:181,1,70
254,84,2799,2,0,L|224:86,3,23.3333333333333
196,195,3287,6,0,P|123:172|80:183,1,105.000004005432
262,269,3653,2,0,P|317:239|380:238,1,105.000004005432
270,141,4019,2,0,B|210:100|210:100|263:44|302:43|338:105,1,210.000008010865
461,143,4629,2,0,L|420:166,1,35
405,217,4751,1,0,0:0:0:0:
339,293,4872,1,0,0:0:0:0:
322,290,5116,5,0,0:0:0:0:
196,202,5238,2,0,P|174:280|122:297,1,105.000004005432
69,186,5726,2,0,P|92:102|139:77,1,105.000004005432
181,129,6214,1,0,0:0:0:0:
232,43,6458,2,0,P|290:81|301:134,1,105.000004005432
397,164,6824,1,0,0:0:0:0:
305,220,6946,1,0,0:0:0:0:
203,212,7190,6,0,B|150:171|150:171|172:133,1,105.000004005432
392,137,7555,2,0,B|418:194|418:194|384:235,1,105.000004005432
298,313,7921,2,0,B|234:336|209:281|209:281|139:291|139:291|100:261,1,210.000008010865
33,140,8653,2,0,P|63:189|117:181,1,105.000004005432
173,64,9141,5,0,0:0:0:0:
289,83,9303,1,0,0:0:0:0:
385,129,9466,1,0,0:0:0:0:
454,200,9629,2,0,B|464:280|422:319|422:319|343:261,1,210.000008010865
247,205,10360,6,0,P|243:264|192:297,1,105.000004005432
82,269,10685,2,0,P|110:297|131:298,1,35.0000013351441
157,302,10848,1,0,0:0:0:0:
186,54,11092,2,0,P|248:57|281:90,1,105.000004005432
408,200,11458,2,0,P|378:263|323:301,1,105.000004005432
173,312,11824,2,0,B|116:302|133:233|133:233|52:205|52:205|89:160,1,210.000008010865
96,81,12433,6,0,L|121:108,1,26.2500010013581
186,108,12555,1,0,0:0:0:0:
319,192,12677,1,0,0:0:0:0:
319,192,12921,1,0,0:0:0:0:
385,68,13043,2,0,P|438:124|451:178,1,105.000004005432
484,256,13531,2,0,P|388:254|338:276,1,105.000004005432
434,325,14019,6,0,L|357:328,1,52.5000020027161
255,259,14263,2,0,L|316:258,1,52.5000020027161
375,186,14507,1,0,0:0:0:0:
375,186,14629,1,0,0:0:0:0:
375,186,14751,1,0,0:0:0:0:
297,79,14994,6,0,L|220:158,1,105.000004005432
76,103,15360,2,0,L|148:199,1,105.000004005432
281,245,15726,2,0,B|197:312|197:312|109:255,1,210.000008010865
180,80,16458,2,0,B|299:81|299:81|332:154,1,157.500006008148
413,170,16946,2,0,L|392:278,1,105.000004005432
316,198,17433,2,0,L|349:58,1,105.000004005432
474,226,17921,2,0,L|444:336,1,105.000004005432
296,286,18409,6,0,P|223:292|190:277,1,83.9999974365235
241,212,18897,2,0,P|172:213|147:227,1,83.9999974365235
67,243,19385,1,0,0:0:0:0:
67,243,19629,2,0,P|58:172|65:140,1,83.9999974365235
125,61,20116,1,0,0:0:0:0:
232,94,20360,5,0,0:0:0:0:
232,94,20604,2,0,P|292:59|341:71,1,83.9999974365235
352,207,21092,1,0,0:0:0:0:
448,154,21214,2,0,L|443:126,2,20.9999993591309
437,263,21458,1,0,0:0:0:0:
359,318,21580,1,0,0:0:0:0:
259,322,21702,1,0,0:0:0:0:
165,286,21824,6,0,L|82:246,1,83.9999974365235
83,141,22311,2,0,L|161:182,1,83.9999974365235
208,83,22677,1,0,0:0:0:0:
209,78,22799,2,0,P|289:51|302:52,2,83.9999974365235
368,104,23531,1,0,0:0:0:0:
444,199,23653,1,0,0:0:0:0:
444,199,23775,6,0,L|397:260,1,41.9999987182618
304,271,24019,2,0,L|345:305,1,41.9999987182618
345,194,24263,6,0,P|269:181|225:192,1,83.9999974365235
190,304,24751,2,0,P|122:258|108:224,1,83.9999974365235
207,213,25116,2,0,P|166:163|120:142,1,83.9999974365235
53,175,25482,1,0,0:0:0:0:
86,73,25604,1,0,0:0:0:0:
86,73,25726,2,0,P|141:54|182:63,1,83.9999974365235
345,67,26214,6,0,P|289:61|254:72,1,83.9999974365235
310,147,26580,1,0,0:0:0:0:
310,147,26702,2,0,P|374:152|404:140,1,83.9999974365235
454,95,27190,2,0,P|467:167|453:208,1,83.9999974365235
449,276,27555,1,0,0:0:0:0:
449,276,27677,2,0,P|376:275|349:259,1,83.9999974365235
212,238,28165,6,0,P|190:299|212:340,1,83.9999974365235
291,272,28531,1,0,0:0:0:0:
291,272,28653,2,0,P|301:196|296:174,1,83.9999974365235
209,149,29019,1,0,0:0:0:0:
285,86,29141,2,0,P|234:68|215:74,1,41.9999987182618
138,65,29385,1,0,0:0:0:0:
75,147,29507,5,0,0:0:0:0:
75,147,29629,2,0,P|70:197|72:234,1,83.9999974365235
140,330,30116,2,0,P|143:268|133:226,1,83.9999974365235
220,187,30482,1,0,0:0:0:0:
220,187,30604,2,0,P|285:193|308:190,1,83.9999974365235
220,187,31092,6,0,P|285:193|308:190,1,83.9999974365235
408,187,31458,1,0,0:0:0:0:
408,187,31580,1,0,0:0:0:0:
313,298,31824,1,0,0:0:0:0:
193,226,32068,2,0,P|184:181|206:128,1,83.9999974365235
330,64,32433,1,0,0:0:0:0:
330,64,32555,6,0,P|284:74|275:94,1,41.9999987182618
393,140,32799,1,0,0:0:0:0:
393,140,32921,2,0,P|432:127|448:114,1,41.9999987182618
304,165,33165,1,0,0:0:0:0:
304,165,33287,2,0,P|322:209|319:224,1,41.9999987182618
409,290,33531,6,0,P|345:308|300:301,1,83.9999974365235
216,315,34019,2,0,P|159:290|128:263,1,83.9999974365235
133,143,34385,1,0,0:0:0:0:
133,143,34507,2,0,P|185:201|190:220,1,83.9999974365235
51,220,34994,2,0,P|32:161|42:129,1,83.9999974365235
124,47,35360,1,0,0:0:0:0:
124,47,35482,6,0,P|174:67|194:112,1,83.9999974365235
296,191,35970,2,0,L|256:113,1,83.9999974365235
256,303,36458,2,0,L|211:216,1,83.9999974365235
338,271,36824,1,0,0:0:0:0:
338,271,36946,2,0,P|387:282|433:272,1,83.9999974365235
384,181,37311,1,0,0:0:0:0:
384,181,37433,5,0,0:0:0:0:
292,100,37677,1,0,0:0:0:0:
205,181,37921,2,0,P|219:238|247:269,1,83.9999974365235
297,192,38287,1,0,0:0:0:0:
297,192,38409,2,0,P|351:169|388:165,1,83.9999974365235
478,109,38897,2,0,P|425:91|392:84,1,83.9999974365235
453,193,39263,1,0,0:0:0:0:
453,193,39385,2,0,P|455:246|429:284,1,83.9999974365235
344,222,39872,6,0,P|287:217|278:220,1,41.9999987182618
265,297,40116,2,0,P|207:298|174:274,1,83.9999974365235
88,227,40482,1,0,0:0:0:0:
88,227,40604,2,0,P|80:167|102:137,1,83.9999974365235
36,79,40970,2,0,P|76:52|92:52,1,41.9999987182618
168,56,41214,1,0,0:0:0:0:
168,56,41336,2,0,P|224:90|231:115,1,83.9999974365235
183,182,41824,6,0,P|242:201|279:195,1,83.9999974365235
319,78,42190,1,0,0:0:0:0:
319,78,42311,2,0,P|369:109|377:154,2,83.9999974365235
436,220,42921,1,0,0:0:0:0:
436,220,43043,2,0,P|408:258|383:271,1,41.9999987182618
355,306,43287,2,0,P|308:301|298:292,1,41.9999987182618
333,185,43531,2,0,P|268:205|253:227,1,83.9999974365235
239,300,43897,5,0,0:0:0:0:
239,300,44019,2,0,P|173:254|155:219,1,83.9999974365235
142,136,44385,1,0,0:0:0:0:
142,136,44507,2,0,P|191:167|218:191,1,83.9999974365235
60,89,44994,1,0,0:0:0:0:
60,89,45116,5,0,0:0:0:0:
60,89,45238,2,0,P|126:52|168:53,1,83.9999974365235
296,112,45726,2,0,P|225:87|199:80,1,83.9999974365235
145,247,46092,1,0,0:0:0:0:
145,247,46214,2,0,P|191:215|217:204,1,83.9999974365235
377,278,46702,2,0,P|315:240|287:234,1,83.9999974365235
277,141,47068,5,0,0:0:0:0:
277,141,47190,2,0,P|329:119|358:129,1,83.9999974365235
491,224,47677,2,0,P|431:194|404:191,1,83.9999974365235
281,282,48043,1,0,0:0:0:0:
281,282,48165,2,0,P|337:261|383:264,1,83.9999974365235
189,216,48653,5,0,0:0:0:0:
189,216,48775,2,0,P|146:285|84:318,1,140
82,163,49141,5,0,0:0:0:0:
303,56,49385,1,0,0:0:0:0:
269,231,49629,2,0,L|235:182,2,41.9999987182618
426,294,50116,5,0,0:0:0:0:
317,74,50360,1,0,0:0:0:0:
455,188,50604,2,0,L|403:180,2,41.9999987182618
298,115,51092,5,0,0:0:0:0:
141,300,51336,1,0,0:0:0:0:
74,135,51580,2,0,L|110:102,2,41.9999987182618
243,80,52068,5,0,0:0:0:0:
332,306,52311,1,0,0:0:0:0:
162,263,52555,1,0,0:0:0:0:
162,263,52677,2,0,P|231:211|316:207,1,140
253,291,53043,5,0,0:0:0:0:
136,78,53287,1,0,0:0:0:0:
68,243,53531,2,0,L|117:217,2,41.9999987182618
219,147,54019,5,0,0:0:0:0:
414,292,54263,1,0,0:0:0:0:
418,95,54507,2,0,L|396:126,3,27.9999991455078
215,99,54994,2,0,L|262:204,1,83.9999974365235
245,321,55360,2,0,L|200:237,1,83.9999974365235
123,212,55726,6,0,P|85:175|86:167,1,41.9999987182618
86,85,55970,2,0,P|122:106|123:112,1,41.9999987182618
199,157,56214,2,0,P|240:142|247:136,1,41.9999987182618
361,60,56458,2,0,P|298:56|259:67,1,83.9999974365235
446,121,56824,1,0,0:0:0:0:
446,121,56946,6,0,P|395:155|329:167,1,125.999996154785
334,246,57433,2,0,P|393:241|466:203,1,125.999996154785
465,303,57921,2,0,P|361:332|304:327,1,146.999995513916
162,284,58775,6,0,L|129:239,1,41.9999987182618
153,142,59019,2,0,L|180:189,1,41.9999987182618
180,276,59263,6,0,L|147:231,1,41.9999987182618
171,134,59507,2,0,L|198:181,1,41.9999987182618
377,130,59872,1,0,0:0:0:0:
377,130,59994,1,0,0:0:0:0:
377,130,60116,2,0,P|415:188|415:217,1,83.9999974365235
383,313,60604,2,0,P|340:297|337:291,1,41.9999987182618
375,128,60848,2,0,P|402:161|405:172,1,41.9999987182618
318,221,61092,6,0,P|234:210|202:191,2,83.9999974365235
276,131,61702,2,0,P|232:123|224:124,1,41.9999987182618
135,209,62068,1,0,0:0:0:0:
73,118,62311,2,0,P|48:180|54:210,1,83.9999974365235
135,209,62677,2,0,P|134:250|131:258,1,41.9999987182618
231,228,63043,5,0,0:0:0:0:
293,319,63287,2,0,P|318:257|312:227,1,83.9999974365235
231,228,63653,2,0,P|232:187|235:179,1,41.9999987182618
305,69,64019,2,0,P|356:81|377:113,1,83.9999974365235
310,155,64507,2,0,P|343:189|389:199,1,83.9999974365235
454,234,64994,2,0,P|413:293|377:297,1,83.9999974365235
290,321,65482,5,0,0:0:0:0:
207,262,65726,2,0,L|181:226,1,41.9999987182618
313,211,65970,2,0,L|336:173,1,41.9999987182618
154,137,66214,2,0,L|105:50,1,83.9999974365235
239,87,66580,6,0,L|259:50,1,41.9999987182618
275,158,66824,2,0,L|250:191,1,41.9999987182618
257,95,67068,6,0,L|277:58,1,41.9999987182618
293,166,67312,2,0,L|268:199,1,41.9999987182618
260,285,67677,2,0,P|230:318|226:317,1,41.9999987182618
155,300,67921,6,0,P|97:262|76:230,1,83.9999974365235
122,142,68409,2,0,P|170:164|171:169,1,41.9999987182618
155,300,68653,2,0,P|127:263|126:254,1,41.9999987182618
219,214,68897,2,0,P|270:223|309:221,2,83.9999974365235
286,140,69507,2,0,P|336:135|341:136,1,41.9999987182618
377,209,69872,1,0,0:0:0:0:
441,122,70116,2,0,P|464:193|456:221,1,83.9999974365235
377,209,70482,2,0,P|381:267|396:280,1,41.9999987182618
281,228,70847,5,0,0:0:0:0:
216,318,71092,2,0,P|203:254|209:220,1,83.9999974365235
281,228,71458,2,0,P|280:175|274:166,1,41.9999987182618
198,143,71824,2,0,P|216:79|232:55,2,83.9999974365235
65,136,72555,2,0,P|77:202|95:235,1,83.9999974365235
157,173,72921,5,0,0:0:0:0:
244,172,73043,2,0,P|231:219|204:249,1,83.9999974365235
119,284,73409,1,0,0:0:0:0:
199,332,73531,2,0,P|242:312|285:319,1,83.9999974365235
369,280,73897,6,0,L|332:244,1,41.9999987182618
335,148,74141,2,0,L|371:188,1,41.9999987182618
261,193,74385,1,0,0:0:0:0:
153,267,74507,1,0,0:0:0:0:
182,58,74751,1,0,0:0:0:0:
182,58,74994,5,0,0:0:0:0:
350,268,75238,1,0,0:0:0:0:
123,169,75482,1,0,0:0:0:0:
123,169,75726,1,0,0:0:0:0:
392,166,75970,1,0,0:0:0:0:
173,288,76214,1,0,0:0:0:0:
173,288,76458,5,0,0:0:0:0:
300,70,76702,1,0,0:0:0:0:
382,308,76946,1,0,0:0:0:0:
382,308,77190,1,0,0:0:0:0:
190,121,77433,1,0,0:0:0:0:
440,86,77677,1,0,0:0:0:0:
440,86,77921,5,0,0:0:0:0:
237,262,78165,1,0,0:0:0:0:
339,78,78409,1,0,0:0:0:0:
423,271,78653,1,0,0:0:0:0:
252,149,78897,1,0,0:0:0:0:
462,151,79141,1,0,0:0:0:0:
315,297,79385,2,0,P|259:309|221:287,1,83.9999974365235
214,54,79872,6,0,P|276:53|312:73,1,83.9999974365235
228,147,80360,2,0,P|173:148|159:139,1,41.9999987182618
102,80,80604,2,0,P|86:137|93:179,1,83.9999974365235
76,244,81092,2,0,P|120:224|175:224,1,83.9999974365235
143,308,81458,1,0,0:0:0:0:
143,308,81580,6,0,P|212:292|239:264,1,83.9999974365235
235,141,82068,2,0,P|293:182|306:228,1,83.9999974365235
309,306,82433,1,0,0:0:0:0:
309,306,82555,2,0,P|259:258|247:223,1,83.9999974365235
338,81,83043,2,0,P|368:121|369:128,1,41.9999987182618
303,162,83287,2,0,P|329:198|336:202,1,41.9999987182618
451,188,83531,5,0,0:0:0:0:
496,257,83775,2,0,P|459:275|451:271,1,41.9999987182618
361,298,84019,2,0,P|343:232|358:190,1,83.9999974365235
420,114,84507,2,0,B|359:118|357:120|332:145,1,83.9999974365235
166,85,84994,2,0,P|178:126|195:142,1,41.9999987182618
313,113,85238,2,0,P|305:155|303:158,1,41.9999987182618
228,246,85482,6,0,P|188:188|190:145,1,83.9999974365235
454,174,85970,2,0,P|457:232|435:271,1,83.9999974365235
303,212,86336,1,0,0:0:0:0:
296,91,86458,1,0,0:0:0:0:
270,79,86539,1,0,0:0:0:0:
243,73,86620,1,0,0:0:0:0:
215,72,86701,1,0,0:0:0:0:
187,76,86783,1,0,0:0:0:0:
161,84,86864,1,0,0:0:0:0:
134,97,86946,2,0,L|119:120,4,20.9999993591309
