osu file format v14

[General]
AudioFilename: audio.mp3
AudioLeadIn: 0
PreviewTime: -1
Countdown: 1
SampleSet: Soft
StackLeniency: 0.3
Mode: 0
LetterboxInBreaks: 0
WidescreenStoryboard: 1

[Editor]
Bookmarks: 50039,77381,113267,113837,141178,165482,180672,212571
DistanceSpacing: 1.5
BeatDivisor: 4
GridSize: 4
TimelineZoom: 2.1

[Metadata]
Title:Koi
TitleUnicode:恋
Artist:kobasolo & asako
ArtistUnicode:kobasolo & 杏沙子
Creator:Dark and Hard
Version:Dark and Hard
Source:逃げるは耻だが役に立つ
Tags:oohily kabasolo asako nigeru ha hajidaga yaku ni tatsu hoshino gen
BeatmapID:1159293
BeatmapSetID:547263

[Difficulty]
HPDrainRate:7
CircleSize:4.3
OverallDifficulty:7.5
ApproachRate:9
SliderMultiplier:1.6
SliderTickRate:1

[Events]
//Background and Video events
0,0,"bgbg.jpg",0,0
//Break Periods
//Storyboard Layer 0 (Background)
//Storyboard Layer 1 (Fail)
//Storyboard Layer 2 (Pass)
//Storyboard Layer 3 (Foreground)
//Storyboard Sound Samples

[TimingPoints]
1432,379.746835443038,4,2,1,40,1,0
2001,-66.6666666666667,4,2,1,40,0,0
2950,-100,4,2,1,40,0,0
3520,-66.6666666666667,4,2,1,40,0,0
4469,-100,4,2,1,40,0,0
5039,-66.6666666666667,4,2,1,40,0,0
5988,-100,4,2,1,40,0,0
6558,-66.6666666666667,4,2,1,40,0,0
7507,-100,4,2,1,40,0,0
8077,-66.6666666666667,4,2,1,40,0,0
9026,-100,4,2,1,40,0,0
9596,-66.6666666666667,4,2,1,40,0,0
11305,-100,4,2,1,40,0,0
14343,-83.3333333333333,4,2,1,40,0,0
17571,-100,4,2,1,40,0,0
17950,-83.3333333333333,4,2,1,40,0,0
24216,-133.333333333333,4,2,1,40,0,0
24976,-83.3333333333333,4,2,1,40,0,0
27824,-133.333333333333,4,2,1,40,0,0
28204,-83.3333333333333,4,2,1,40,0,0
36368,-133.333333333333,4,2,1,40,0,0
36748,-83.3333333333333,4,2,1,40,0,0
37318,-200,4,2,1,40,0,0
37887,-100,4,2,1,40,0,0
50039,-83.3333333333333,4,2,1,40,0,1
76242,-71.4285714285714,4,2,1,40,0,0
76621,-62.5,4,2,1,40,0,0
77001,-55.5555555555556,4,2,1,40,0,0
77381,-100,4,2,1,40,0,0
77950,-66.6666666666667,4,2,1,40,0,0
78900,-100,4,2,1,40,0,0
79469,-66.6666666666667,4,2,1,40,0,0
80419,-100,4,2,1,40,0,0
81178,-66.6666666666667,4,2,1,40,0,0
81938,-100,4,2,1,40,0,0
82507,-66.6666666666667,4,2,1,40,0,0
83457,-100,4,2,1,40,0,0
84026,-66.6666666666667,4,2,1,40,0,0
84976,-100,4,2,1,40,0,0
101115,-200,4,2,1,40,0,0
101685,-100,4,2,1,40,0,0
113837,-83.3333333333333,4,2,1,40,0,1
139659,-50,4,2,1,40,0,0
140039,-66.6666666666667,4,2,1,40,0,0
140419,-100,4,2,1,40,0,0
140799,-200,4,2,1,40,0,0
141178,-100,4,2,1,40,0,0
165482,-133.333333333333,4,2,1,40,0,0
179153,-100,4,2,1,40,0,1
179153,-100,4,2,1,40,0,1
183710,-83.3333333333333,4,2,1,40,0,1
206495,-83.3333333333333,4,2,1,40,0,0

[HitObjects]
104,316,1432,6,0,P|92:256|144:132,1,200,4|0,0:0|0:0,0:0:0:0:
196,232,2001,6,0,B|232:216|232:216|268:232,1,60.0000022888184
356,296,2191,2,0,B|320:312|320:312|284:296,1,60.0000022888184,4|0,0:0|0:0,0:0:0:0:
352,168,2381,6,0,L|364:104,1,60.0000022888184
464,188,2571,2,0,L|448:264,2,60.0000022888184
484,52,2856,1,0,0:0:0:0:
484,52,2950,6,0,P|420:36|280:68,1,200,4|0,0:0|0:0,0:0:0:0:
196,96,3520,6,0,P|184:48|172:24,1,60.0000022888184
256,224,3710,2,0,P|268:176|280:152,1,60.0000022888184,4|0,0:0|0:0,0:0:0:0:
320,328,3900,6,0,B|284:344|284:344|216:312,1,60.0000022888184
144,336,4090,2,0,P|76:332|60:344,3,60.0000022888184
16,260,4469,6,0,P|12:184|68:40,1,200,4|0,0:0|0:0,0:0:0:0:
168,16,5039,6,0,L|176:80,1,60.0000022888184
216,200,5229,2,0,L|236:128,1,60.0000022888184,4|0,0:0|0:0,0:0:0:0:
336,72,5419,6,0,L|400:80,1,60.0000022888184
324,188,5609,2,0,L|404:200,3,60.0000022888184
472,128,5988,6,0,P|480:240|428:308,1,200,4|0,0:0|0:0,0:0:0:0:
312,344,6558,6,0,L|236:332,1,60.0000022888184
120,284,6748,2,0,L|196:272,1,60.0000022888184,4|0,0:0|0:0,0:0:0:0:
24,348,6938,1,0,0:0:0:0:
24,348,7033,1,0,0:0:0:0:
24,348,7128,1,8,0:0:0:0:
48,180,7318,1,0,0:0:0:0:
252,334,7507,6,0,P|252:270|316:146,1,200,12|0,0:0|0:0,0:0:0:0:
196,164,8077,6,0,B|160:152|160:152|120:160,1,60.0000022888184
60,248,8267,2,0,B|96:264|96:264|136:252,1,60.0000022888184,8|0,0:0|0:0,0:0:0:0:
32,100,8457,6,0,L|40:28,1,60.0000022888184
140,64,8647,2,0,L|148:-8,1,60.0000022888184,8|0,0:0|0:0,0:0:0:0:
256,96,8837,1,0,0:0:0:0:
256,96,8932,1,0,0:0:0:0:
256,96,9026,6,0,P|336:80|448:128,1,200,8|0,0:0|0:0,0:0:0:0:
492,224,9596,6,0,B|500:256|500:256|484:324,1,60.0000022888184
464,352,9786,1,0,0:0:0:0:
360,224,9976,1,0,0:0:0:0:
360,224,10071,1,0,0:0:0:0:
360,224,10166,1,8,0:0:0:0:
508,120,10356,1,0,0:0:0:0:
168,64,10545,5,8,0:0:0:0:
100,216,10735,1,0,0:0:0:0:
72,28,10925,1,8,0:0:0:0:
212,260,11115,1,0,0:0:0:0:
216,168,11305,6,0,P|264:112|352:136,1,160,8|0,0:0|0:0,0:0:0:0:
432,56,11875,6,0,L|424:12,1,26.6666666666667,8|0,0:0|0:0,0:0:0:0:
460,188,12254,2,0,L|452:144,1,26.6666666666667,8|0,0:0|0:0,0:0:0:0:
488,316,12634,2,0,L|480:272,1,26.6666666666667,8|0,0:0|0:0,0:0:0:0:
248,196,13014,5,8,0:0:0:0:
104,292,13204,2,0,L|96:224,3,40,8|8|8|8,0:0|0:0|0:0|0:0,0:0:0:0:
92,168,13583,1,12,0:0:0:0:
96,128,13963,6,0,B|100:192|132:216|132:216|152:176,1,120,8|0,0:0|0:0,0:0:0:0:
220,136,14343,6,0,P|220:84|200:48,1,47.9999985351563
300,232,14533,2,0,P|300:180|320:144,1,47.9999985351563
352,336,14723,6,0,L|296:336,1,47.9999985351563,8|0,0:0|0:0,0:0:0:0:
200,336,14913,2,0,L|144:336,1,47.9999985351563
44,336,15102,1,0,0:0:0:0:
136,176,15292,5,0,0:0:0:0:
136,176,15387,1,0,0:0:0:0:
136,176,15482,2,0,L|140:120,1,47.9999985351563,8|0,0:0|0:0,0:0:0:0:
248,36,15672,2,0,L|244:92,1,47.9999985351563
240,240,15862,6,0,B|176:268|176:268|236:312,1,143.999995605469
316,304,16242,6,0,L|384:308,1,47.9999985351563,8|0,0:0|0:0,0:0:0:0:
460,312,16432,2,0,L|528:316,1,47.9999985351563
352,200,16621,6,0,P|344:148|348:132,1,47.9999985351563
444,56,16811,2,0,P|452:108|448:124,1,47.9999985351563
280,36,17001,6,0,L|228:44,1,47.9999985351563,8|0,0:0|0:0,0:0:0:0:
96,112,17191,2,0,L|176:120,2,47.9999985351563
4,44,17571,6,0,B|-8:104|-8:104|8:180,1,120,4|0,0:0|0:0,0:0:0:0:
36,244,17950,6,0,P|96:212|140:264,1,143.999995605469
192,360,18330,6,0,L|200:292,1,47.9999985351563
356,316,18520,2,0,L|316:348,1,47.9999985351563,8|0,0:0|0:0,0:0:0:0:
264,260,18710,2,0,P|260:200|276:140,2,95.9999970703126
432,332,19280,6,0,L|484:328,2,47.9999985351563,8|0|0,0:0|0:0|0:0,0:0:0:0:
432,332,19659,1,0,0:0:0:0:
472,184,19849,5,0,0:0:0:0:
352,304,20039,2,0,L|344:248,1,47.9999985351563,8|0,0:0|0:0,0:0:0:0:
384,96,20229,2,0,L|380:164,1,47.9999985351563
264,240,20419,6,0,L|208:240,1,47.9999985351563
104,280,20609,2,0,P|116:216|96:132,1,143.999995605469
80,56,20988,6,0,P|168:44|240:92,1,143.999995605469,4|0,0:0|0:0,0:0:0:0:
304,140,21368,6,0,L|324:68,1,47.9999985351563
216,240,21558,2,0,L|196:168,1,47.9999985351563,8|0,0:0|0:0,0:0:0:0:
304,328,21748,2,0,P|360:288|460:348,1,191.999994140625,4|0,0:0|0:0,0:0:0:0:
200,364,22318,6,0,L|144:360,1,47.9999985351563,8|0,0:0|0:0,0:0:0:0:
48,360,22507,2,0,L|-16:356,1,47.9999985351563
152,120,22697,6,0,L|149:167,1,47.9999985351563
72,280,22887,2,0,L|65:232,1,47.9999985351563
212,268,23077,6,0,P|240:260|276:264,1,47.9999985351563,8|0,0:0|0:0,0:0:0:0:
368,284,23267,2,0,P|400:300|428:328,1,47.9999985351563
312,152,23457,5,0,0:0:0:0:
296,352,23647,1,0,0:0:0:0:
456,216,23837,1,8,0:0:0:0:
156,288,24026,1,0,0:0:0:0:
156,288,24121,1,0,0:0:0:0:
156,288,24216,2,0,P|144:236|168:156,1,120.000004577637,0|8,0:0|0:0,0:0:0:0:
300,348,24786,6,8,L|256:332,1,30.0000011444092
156,288,24976,1,8,0:0:0:0:
352,248,25166,2,0,P|364:184|336:104,1,143.999995605469,4|0,0:0|0:0,0:0:0:0:
268,52,25545,2,0,L|336:44,1,47.9999985351563
468,36,25735,1,4,0:0:0:0:
216,208,25925,6,0,L|204:160,1,47.9999985351563
184,84,26115,2,0,B|128:116|128:116|52:72,1,143.999995605469,8|0,0:0|0:0,0:0:0:0:
40,168,26495,6,0,L|92:200,1,47.9999985351563
20,268,26685,2,0,L|76:296,1,47.9999985351563
184,340,26875,6,0,P|180:292|184:264,1,47.9999985351563,8|0,0:0|0:0,0:0:0:0:
280,224,27064,2,0,P|284:272|280:300,1,47.9999985351563
204,161,27254,1,0,0:0:0:0:
420,336,27444,6,0,L|432:268,1,47.9999985351563
456,164,27634,1,8,0:0:0:0:
284,272,27824,2,0,P|280:200|272:176,1,90.0000034332277,4|0,0:0|0:0,0:0:0:0:
224,120,28204,6,0,L|160:124,1,47.9999985351563
92,136,28394,2,0,P|92:68|148:56,1,95.9999970703126,8|0,0:0|0:0,0:0:0:0:
160,232,28678,1,0,0:0:0:0:
160,232,28773,6,0,L|172:292,1,47.9999985351563
284,272,28963,2,0,L|264:344,1,47.9999985351563
224,116,29153,6,0,L|236:56,1,47.9999985351563,8|0,0:0|0:0,0:0:0:0:
352,72,29343,2,0,L|332:0,2,47.9999985351563
392,244,29723,6,0,P|444:212|468:288,1,143.999995605469,4|0,0:0|0:0,0:0:0:0:
412,360,30102,2,0,B|344:380|344:380|264:368,1,143.999995605469
252,280,30482,2,0,L|196:272,1,47.9999985351563
96,264,30672,2,0,L|32:260,1,47.9999985351563
160,360,30862,6,0,P|156:280|136:208,1,143.999995605469,4|0,0:0|0:0,0:0:0:0:
76,132,31242,2,0,L|152:124,1,47.9999985351563
268,112,31432,1,8,0:0:0:0:
384,296,31621,6,8,L|400:344,1,47.9999985351563
460,264,31811,2,0,B|480:212|480:212|472:144,1,95.9999970703126,8|0,0:0|0:0,0:0:0:0:
456,64,32191,1,8,0:0:0:0:
312,196,32381,6,0,L|368:188,1,47.9999985351563
476,172,32571,1,0,0:0:0:0:
264,324,32761,2,0,P|240:272|212:244,1,95.9999970703126,0|8,0:0|0:0,0:0:0:0:
68,160,33045,1,0,0:0:0:0:
144,136,33140,2,0,L|240:136,1,95.9999970703126
48,316,33520,6,0,L|32:248,1,47.9999985351563
4,144,33710,1,8,0:0:0:0:
164,324,33900,2,0,P|256:312|344:376,1,191.999994140625
204,108,34469,6,0,L|136:96,1,47.9999985351563,8|0,0:0|0:0,0:0:0:0:
68,80,34659,2,0,L|0:68,1,47.9999985351563
176,208,34849,6,0,L|244:188,1,47.9999985351563
316,168,35039,2,0,L|368:152,1,47.9999985351563
224,32,35229,5,8,0:0:0:0:
176,208,35419,1,0,0:0:0:0:
68,80,35609,1,0,0:0:0:0:
312,168,35799,1,0,0:0:0:0:
396,68,35988,6,0,L|404:136,1,47.9999985351563,8|0,0:0|0:0,0:0:0:0:
408,212,36178,2,0,L|412:272,1,47.9999985351563
312,168,36368,2,0,B|248:144|248:144|208:160,1,90.0000034332277
160,244,36748,2,0,L|152:176,1,47.9999985351563,8|0,0:0|0:0,0:0:0:0:
136,72,36938,1,0,0:0:0:0:
76,332,37128,5,8,0:0:0:0:
248,296,37318,2,0,P|312:288|360:304,1,100,12|0,0:0|0:0,0:0:0:0:
432,332,37887,6,0,P|444:256|440:228,3,80,4|0|0|0,0:0|0:0|0:0|0:0,0:0:0:0:
424,144,38647,1,8,0:0:0:0:
432,136,39026,5,8,0:0:0:0:
312,192,39216,2,0,P|308:120|348:40,1,160,8|0,0:0|0:0,0:0:0:0:
432,208,39786,2,0,P|436:280|396:360,1,160,8|0,0:0|0:0,0:0:0:0:
256,292,40356,1,8,0:0:0:0:
256,292,40545,2,0,B|196:284|196:284|140:296,1,80,8|0,0:0|0:0,0:0:0:0:
80,332,40925,6,0,P|68:256|72:228,3,80,8|0|0|0,0:0|0:0|0:0|0:0,0:0:0:0:
88,144,41685,1,8,0:0:0:0:
80,136,42064,5,8,0:0:0:0:
200,192,42254,2,0,P|204:120|164:40,1,160,8|0,0:0|0:0,0:0:0:0:
80,208,42824,2,0,P|76:280|116:360,1,160,8|0,0:0|0:0,0:0:0:0:
256,292,43394,1,8,0:0:0:0:
256,292,43583,2,0,B|316:284|316:284|372:296,1,80,8|0,0:0|0:0,0:0:0:0:
472,352,43963,5,8,0:0:0:0:
492,276,44153,1,0,0:0:0:0:
480,196,44343,2,0,L|464:116,1,80
480,28,44723,2,0,P|424:48|300:24,1,160,8|0,0:0|0:0,0:0:0:0:
164,12,45292,5,8,0:0:0:0:
164,12,45482,2,0,P|152:60|160:136,1,120,8|0,0:0|0:0,0:0:0:0:
80,156,45862,2,0,P|115:190|185:221,1,120,8|0,0:0|0:0,0:0:0:0:
172,296,46242,2,0,P|219:282|281:237,1,120,8|0,0:0|0:0,0:0:0:0:
308,176,46621,1,8,0:0:0:0:
412,332,46811,5,8,0:0:0:0:
412,332,46906,1,8,0:0:0:0:
412,332,47001,2,0,P|400:264|408:204,1,120,8|0,0:0|0:0,0:0:0:0:
299,59,47381,2,0,P|315:131|303:187,1,120,8|0,0:0|0:0,0:0:0:0:
304,304,47761,2,0,L|212:316,1,80,8|0,0:0|0:0,0:0:0:0:
124,248,48140,1,8,0:0:0:0:
299,59,48330,6,0,L|311:23,1,26.6666666666667,8|0,0:0|0:0,0:0:0:0:
307,175,48710,2,0,L|319:139,1,26.6666666666667,8|0,0:0|0:0,0:0:0:0:
304,304,49090,2,0,L|316:268,1,26.6666666666667,8|0,0:0|0:0,0:0:0:0:
84,64,49469,6,8,L|120:96,5,40
52,140,50039,6,0,P|48:192|52:212,1,47.9999985351563
100,288,50229,2,0,P|128:304|168:308,1,47.9999985351563
200,180,50419,6,0,L|208:116,1,47.9999985351563,8|0,0:0|0:0,0:0:0:0:
328,44,50609,2,0,L|320:108,1,47.9999985351563
320,248,50799,6,0,P|360:204|460:236,1,143.999995605469
504,328,51178,2,0,L|508:260,1,47.9999985351563,8|0,0:0|0:0,0:0:0:0:
508,148,51368,2,0,L|512:84,1,47.9999985351563
372,36,51558,6,0,P|388:116|380:164,1,95.9999970703126
335,341,51938,2,0,P|319:261|327:213,1,95.9999970703126,8|0,0:0|0:0,0:0:0:0:
456,344,52318,1,8,0:0:0:0:
320,248,52507,1,8,0:0:0:0:
256,376,52697,2,0,B|248:296|216:268|216:268|196:316,1,143.999995605469,8|0,0:0|0:0,0:0:0:0:
116,344,53077,6,0,B|104:320|104:320|104:256,1,47.9999985351563
168,168,53267,2,0,B|180:192|180:192|180:256,1,47.9999985351563
72,112,53457,6,0,L|16:128,1,47.9999985351563,8|0,0:0|0:0,0:0:0:0:
176,28,53647,2,0,L|240:16,1,47.9999985351563
308,144,53837,6,0,P|308:80|384:48,1,143.999995605469
464,8,54216,6,0,L|480:92,1,47.9999985351563,8|0,0:0|0:0,0:0:0:0:
424,204,54406,2,0,L|408:120,1,47.9999985351563
500,320,54596,5,0,0:0:0:0:
308,336,54976,1,8,0:0:0:0:
400,140,55356,5,8,0:0:0:0:
308,336,55545,1,8,0:0:0:0:
224,224,55735,2,0,B|216:164|216:108|216:108|248:140,1,143.999995605469,8|0,0:0|0:0,0:0:0:0:
344,228,56115,6,0,L|392:228,1,47.9999985351563
308,336,56305,2,0,L|356:336,1,47.9999985351563
224,224,56495,6,0,L|176:224,1,47.9999985351563,8|0,0:0|0:0,0:0:0:0:
188,116,56685,2,0,L|140:116,1,47.9999985351563
48,336,56875,6,0,P|48:224|64:176,1,143.999995605469
192,120,57254,1,8,0:0:0:0:
8,80,57444,1,0,0:0:0:0:
224,224,57634,5,0,0:0:0:0:
324,88,58014,1,8,0:0:0:0:
312,330,58394,2,8,L|316:230,1,95.9999970703126
324,88,58773,1,8,0:0:0:0:
116,168,58963,6,0,P|196:156|224:252,1,191.999994140625,4|0,0:0|0:0,0:0:0:0:
61,335,59533,2,0,L|49:219,1,95.9999970703126,8|0,0:0|0:0,0:0:0:0:
36,68,59913,1,0,0:0:0:0:
164,220,60102,1,0,0:0:0:0:
8,172,60292,1,8,0:0:0:0:
276,104,60482,5,8,0:0:0:0:
504,176,60862,1,8,0:0:0:0:
424,312,61052,1,8,0:0:0:0:
368,192,61242,2,0,B|380:116|404:84|404:84|340:60,1,143.999995605469,8|0,0:0|0:0,0:0:0:0:
240,36,61621,5,8,0:0:0:0:
192,24,61716,1,8,0:0:0:0:
144,32,61811,1,8,0:0:0:0:
104,60,61906,1,8,0:0:0:0:
80,104,62001,1,8,0:0:0:0:
84,152,62096,1,8,0:0:0:0:
96,200,62191,6,0,P|108:232|124:260,1,47.9999985351563
196,368,62381,2,0,P|208:312|216:300,1,47.9999985351563
224,140,62571,6,0,L|280:132,1,47.9999985351563,8|0,0:0|0:0,0:0:0:0:
420,200,62761,2,0,L|352:204,1,47.9999985351563
288,337,62950,6,0,B|296:292|296:292|232:297|192:329,1,143.999995605469
220,240,63330,6,0,L|212:180,1,47.9999985351563,8|0,0:0|0:0,0:0:0:0:
200,72,63520,2,0,L|192:4,1,47.9999985351563
88,120,63710,5,0,0:0:0:0:
220,236,63900,1,0,0:0:0:0:
200,72,64090,5,8,0:0:0:0:
48,220,64280,1,0,0:0:0:0:
32,56,64469,5,8,0:0:0:0:
200,72,64659,1,8,0:0:0:0:
32,56,64849,2,0,B|56:4|100:-12|100:-12|104:48,1,143.999995605469,8|0,0:0|0:0,0:0:0:0:
120,144,65229,6,0,P|112:184|92:204,1,47.9999985351563
40,336,65419,2,0,P|104:328|112:332,1,47.9999985351563
244,316,65609,6,0,P|247:339|249:363,1,47.9999985351563,8|0,0:0|0:0,0:0:0:0:
316,176,65799,2,0,P|312:199|316:228,1,47.9999985351563
464,344,65988,6,0,P|468:268|404:244,1,143.999995605469
236,192,66368,1,8,0:0:0:0:
472,148,66558,1,0,0:0:0:0:
232,360,66748,5,0,0:0:0:0:
328,140,66938,1,0,0:0:0:0:
360,316,67128,5,8,0:0:0:0:
204,80,67318,1,0,0:0:0:0:
108,308,67507,6,8,P|176:292|216:312,1,95.9999970703126
16,224,67887,2,0,L|28:372,1,143.999995605469,8|0,0:0|0:0,0:0:0:0:
96,240,68267,6,0,L|104:184,1,47.9999985351563
184,48,68457,2,0,L|176:104,1,47.9999985351563
232,248,68647,6,0,P|296:224|308:224,1,47.9999985351563,8|0,0:0|0:0,0:0:0:0:
408,212,68837,2,0,P|456:228|472:240,1,47.9999985351563
344,320,69026,6,0,P|340:256|348:156,1,143.999995605469
436,56,69406,1,8,0:0:0:0:
456,228,69596,1,0,0:0:0:0:
248,148,69786,5,0,0:0:0:0:
484,132,69976,1,0,0:0:0:0:
408,360,70166,5,8,0:0:0:0:
352,108,70356,1,0,0:0:0:0:
248,352,70545,6,8,L|336:260,1,95.9999970703126
484,132,70925,1,8,0:0:0:0:
196,52,71115,6,0,P|208:116|160:184,1,143.999995605469,4|0,0:0|0:0,0:0:0:0:
92,256,71495,2,0,L|80:188,1,47.9999985351563
52,76,71685,1,8,0:0:0:0:
256,232,71875,5,0,0:0:0:0:
92,256,72064,1,0,0:0:0:0:
316,72,72254,1,0,0:0:0:0:
348,372,72444,1,8,0:0:0:0:
468,116,72634,6,0,B|476:180|476:224|476:224|444:192,1,143.999995605469,4|0,0:0|0:0,0:0:0:0:
376,116,73014,2,0,L|292:88,1,47.9999985351563
208,60,73204,1,8,0:0:0:0:
312,272,73394,5,0,0:0:0:0:
416,28,73583,1,0,0:0:0:0:
512,260,73773,1,0,0:0:0:0:
208,60,73963,1,8,0:0:0:0:
176,360,74153,6,0,P|168:284|220:172,1,191.999994140625,4|0,0:0|0:0,0:0:0:0:
352,296,74723,1,8,0:0:0:0:
504,84,74913,1,0,0:0:0:0:
492,264,75102,5,0,0:0:0:0:
428,40,75292,1,0,0:0:0:0:
352,300,75482,1,8,0:0:0:0:
508,140,75672,1,0,0:0:0:0:
248,108,75862,6,0,P|176:112|136:52,1,143.999995605469,8|0,0:0|0:0,0:0:0:0:
80,20,76242,6,0,L|100:200,1,167.999994873047,8|0,0:0|0:0,0:0:0:0:
136,292,76621,6,0,B|144:224|176:184|176:184|208:264,1,192,8|0,0:0|0:0,0:0:0:0:
328,368,77001,6,0,P|340:278|254:306,1,215.999993408203,8|0,0:0|0:0,0:0:0:0:
90,381,77381,6,0,P|78:249|102:177,1,200,4|0,0:0|0:0,0:0:0:0:
80,88,77950,2,0,L|152:96,1,60.0000022888184
312,60,78140,2,0,L|240:52,1,60.0000022888184,4|0,0:0|0:0,0:0:0:0:
344,188,78330,1,0,0:0:0:0:
344,188,78425,1,0,0:0:0:0:
344,188,78520,1,0,0:0:0:0:
464,88,78710,5,0,0:0:0:0:
512,204,78900,2,0,P|532:304|480:380,1,200,4|0,0:0|0:0,0:0:0:0:
388,280,79469,6,0,L|376:204,1,60.0000022888184
376,108,79659,2,0,L|396:44,1,60.0000022888184,4|0,0:0|0:0,0:0:0:0:
512,204,79849,1,0,0:0:0:0:
512,204,79944,1,0,0:0:0:0:
512,204,80039,1,0,0:0:0:0:
240,336,80229,5,0,0:0:0:0:
240,216,80419,2,0,P|236:164|96:140,1,200,4|0,0:0|0:0,0:0:0:0:
48,192,80988,1,0,0:0:0:0:
240,336,81178,6,0,P|236:292|240:272,1,60.0000022888184,4|0,0:0|0:0,0:0:0:0:
352,168,81368,2,0,P|356:212|352:232,1,60.0000022888184
224,80,81558,2,0,L|292:68,1,60.0000022888184
460,40,81748,1,0,0:0:0:0:
460,40,81843,1,0,0:0:0:0:
460,40,81938,6,0,B|472:136|460:184|460:184|432:128,1,200,4|0,0:0|0:0,0:0:0:0:
345,108,82507,6,0,L|353:180,1,60.0000022888184
368,320,82697,2,0,P|304:304|280:312,1,60.0000022888184,4|0,0:0|0:0,0:0:0:0:
152,312,82887,1,0,0:0:0:0:
152,312,82982,1,0,0:0:0:0:
152,312,83077,1,8,0:0:0:0:
256,184,83267,1,0,0:0:0:0:
368,320,83457,6,0,B|364:260|384:208|424:172|424:172|384:124,1,200,4|0,0:0|0:0,0:0:0:0:
256,184,84026,6,0,L|184:168,1,60.0000022888184
80,152,84216,2,0,L|-4:136,1,60.0000022888184
136,304,84406,1,0,0:0:0:0:
136,304,84501,1,0,0:0:0:0:
136,304,84596,1,8,0:0:0:0:
120,20,84786,5,0,0:0:0:0:
304,16,84976,2,0,P|364:24|316:116,1,200,4|0,0:0|0:0,0:0:0:0:
236,76,85545,1,0,0:0:0:0:
496,136,85735,5,0,0:0:0:0:
328,280,85925,1,0,0:0:0:0:
328,280,86020,1,0,0:0:0:0:
328,280,86115,1,8,0:0:0:0:
324,120,86305,1,0,0:0:0:0:
488,312,86495,5,8,0:0:0:0:
328,280,86685,1,8,0:0:0:0:
496,136,86875,1,8,0:0:0:0:
384,380,87064,1,8,0:0:0:0:
264,96,87254,2,0,P|256:48|272:0,2,80,8|0|8,0:0|0:0|0:0,0:0:0:0:
264,96,87824,5,8,0:0:0:0:
128,344,88204,1,8,0:0:0:0:
408,344,88583,2,0,P|416:284|380:220,1,120,8|0,0:0|0:0,0:0:0:0:
320,188,88963,5,8,0:0:0:0:
508,68,89153,1,8,0:0:0:0:
508,68,89343,1,8,0:0:0:0:
296,16,89533,5,2,0:0:0:0:
256,84,89723,1,0,0:0:0:0:
240,164,89913,1,0,0:0:0:0:
256,244,90102,1,0,0:0:0:0:
164,144,90292,5,2,0:0:0:0:
240,164,90482,1,0,0:0:0:0:
320,156,90672,1,0,0:0:0:0:
388,112,90862,1,0,0:0:0:0:
352,232,91052,5,2,0:0:0:0:
320,156,91242,1,0,0:0:0:0:
276,88,91432,1,0,0:0:0:0:
204,56,91621,1,0,0:0:0:0:
332,32,91811,5,2,0:0:0:0:
276,88,92001,1,0,0:0:0:0:
260,168,92191,1,0,0:0:0:0:
284,244,92381,1,0,0:0:0:0:
392,376,92571,5,2,0:0:0:0:
448,320,92761,1,0,0:0:0:0:
464,240,92951,1,0,0:0:0:0:
440,164,93141,1,0,0:0:0:0:
284,244,93330,5,2,0:0:0:0:
208,216,93520,1,0,0:0:0:0:
128,212,93710,1,0,0:0:0:0:
56,244,93900,1,0,0:0:0:0:
236,344,94090,5,2,0:0:0:0:
312,372,94280,1,0,0:0:0:0:
392,376,94470,1,0,0:0:0:0:
464,344,94660,1,0,0:0:0:0:
284,244,94849,5,2,0:0:0:0:
236,344,95134,1,2,0:0:0:0:
236,344,95229,1,2,0:0:0:0:
216,156,95419,1,2,0:0:0:0:
96,256,95609,5,2,0:0:0:0:
84,176,95799,1,0,0:0:0:0:
92,96,95988,2,0,L|128:16,1,80
264,111,96368,5,2,0:0:0:0:
276,191,96558,1,0,0:0:0:0:
268,271,96747,2,0,L|232:351,1,80
372,116,97128,6,0,L|400:208,3,80,2|0|0|0,0:0|0:0|0:0|0:0,0:0:0:0:
176,72,97887,5,2,0:0:0:0:
256,68,98077,1,0,0:0:0:0:
336,64,98267,1,0,0:0:0:0:
416,60,98457,1,0,0:0:0:0:
300,164,98647,6,0,P|284:228|304:304,1,120,2|0,0:0|0:0,0:0:0:0:
400,368,99026,2,0,P|416:296|396:236,1,120
296,280,99406,5,2,0:0:0:0:
216,288,99596,1,0,0:0:0:0:
136,300,99786,1,0,0:0:0:0:
56,312,99976,1,0,0:0:0:0:
168,176,100166,5,2,0:0:0:0:
216,288,100356,1,0,0:0:0:0:
300,144,100545,1,0,0:0:0:0:
56,312,100735,1,0,0:0:0:0:
300,376,100925,1,2,0:0:0:0:
56,56,101115,6,0,L|56:156,1,100,12|0,0:0|0:0,0:0:0:0:
64,376,101685,6,0,P|92:296|168:264,1,160,4|0,0:0|0:0,0:0:0:0:
4,220,102254,2,0,L|8:304,2,80,0|8|0,0:0|0:0|0:0,0:0:0:0:
0,56,102824,1,0,0:0:0:0:
4,220,103014,1,0,0:0:0:0:
112,128,103204,2,0,B|116:64|136:40|136:40|148:80|152:120,1,160,8|0,0:0|0:0,0:0:0:0:
172,296,103773,1,0,0:0:0:0:
112,128,103963,2,0,B|116:64|136:40|136:40|148:80|152:120,1,160,8|0,0:0|0:0,0:0:0:0:
172,296,104533,1,0,0:0:0:0:
356,48,104723,6,0,P|328:128|252:160,1,160,8|0,0:0|0:0,0:0:0:0:
416,204,105292,2,0,L|412:120,2,80,0|8|0,0:0|0:0|0:0,0:0:0:0:
420,368,105862,1,0,0:0:0:0:
416,204,106052,1,0,0:0:0:0:
308,296,106242,2,0,B|304:360|284:384|284:384|272:344|268:304,1,160,8|0,0:0|0:0,0:0:0:0:
248,128,106811,1,0,0:0:0:0:
312,296,107001,2,0,P|300:348|220:364,1,120,8|0,0:0|0:0,0:0:0:0:
248,224,107381,2,0,L|344:212,1,80,8|0,0:0|0:0,0:0:0:0:
504,204,107761,6,0,P|508:264|488:308,3,80,8|0|0|0,0:0|0:0|0:0|0:0,0:0:0:0:
432,368,108520,1,8,0:0:0:0:
348,172,108900,5,0,0:0:0:0:
212,328,109090,1,0,0:0:0:0:
212,328,109280,2,0,P|184:268|176:192,1,120,8|0,0:0|0:0,0:0:0:0:
132,140,109659,2,0,P|36:140|-8:156,1,120,8|0,0:0|0:0,0:0:0:0:
244,160,110039,2,0,P|332:132|360:104,1,120,8|0,0:0|0:0,0:0:0:0:
400,32,110419,1,4,0:0:0:0:
144,100,110609,5,8,0:0:0:0:
144,100,110704,1,8,0:0:0:0:
144,104,110799,1,8,0:0:0:0:
144,296,110988,1,8,0:0:0:0:
256,176,111177,1,8,0:0:0:0:
20,212,111368,1,8,0:0:0:0:
200,368,111558,5,8,0:0:0:0:
120,16,111748,1,8,0:0:0:0:
40,328,111938,1,8,0:0:0:0:
256,176,112128,6,0,L|296:152,1,26.6666666666667,8|0,0:0|0:0,0:0:0:0:
204,280,112507,2,0,L|240:256,1,26.6666666666667,8|0,0:0|0:0,0:0:0:0:
172,384,112887,2,0,L|216:356,1,26.6666666666667,8|0,0:0|0:0,0:0:0:0:
452,332,113267,6,8,L|408:356,5,40
460,244,113837,6,0,P|464:192|460:172,1,47.9999985351563
412,96,114027,2,0,P|384:80|344:76,1,47.9999985351563
312,204,114217,6,0,L|304:268,1,47.9999985351563,8|0,0:0|0:0,0:0:0:0:
184,340,114407,2,0,L|192:276,1,47.9999985351563
192,136,114597,6,0,P|152:180|52:148,1,143.999995605469
8,56,114976,2,0,L|4:124,1,47.9999985351563,8|0,0:0|0:0,0:0:0:0:
4,236,115166,2,0,L|0:300,1,47.9999985351563
140,348,115356,6,0,P|124:268|132:220,1,95.9999970703126
177,43,115736,2,0,P|193:123|185:171,1,95.9999970703126,8|0,0:0|0:0,0:0:0:0:
56,40,116116,1,8,0:0:0:0:
192,136,116305,1,8,0:0:0:0:
256,8,116495,2,0,B|264:88|296:116|296:116|316:68,1,143.999995605469,8|0,0:0|0:0,0:0:0:0:
396,40,116875,6,0,B|408:64|408:64|408:128,1,47.9999985351563
344,216,117065,2,0,B|332:192|332:192|332:128,1,47.9999985351563
440,272,117255,6,0,L|496:256,1,47.9999985351563,8|0,0:0|0:0,0:0:0:0:
336,356,117445,2,0,L|272:368,1,47.9999985351563
204,240,117635,6,0,P|204:304|128:336,1,143.999995605469
48,376,118014,6,0,L|32:292,1,47.9999985351563,8|0,0:0|0:0,0:0:0:0:
88,180,118204,2,0,L|104:264,1,47.9999985351563
12,64,118394,5,0,0:0:0:0:
204,48,118773,1,8,0:0:0:0:
112,244,119154,5,8,0:0:0:0:
204,48,119343,1,8,0:0:0:0:
288,160,119533,2,0,B|296:220|296:276|296:276|264:244,1,143.999995605469,8|0,0:0|0:0,0:0:0:0:
168,156,119913,6,0,L|120:156,1,47.9999985351563
204,48,120103,2,0,L|156:48,1,47.9999985351563
288,160,120293,6,0,L|336:160,1,47.9999985351563,8|0,0:0|0:0,0:0:0:0:
324,268,120483,2,0,L|372:268,1,47.9999985351563
464,48,120673,6,0,P|464:160|448:208,1,143.999995605469
320,264,121052,1,8,0:0:0:0:
504,304,121242,1,0,0:0:0:0:
288,160,121432,5,0,0:0:0:0:
188,296,121812,1,8,0:0:0:0:
200,54,122192,2,0,L|196:154,1,95.9999970703126
188,296,122571,1,8,0:0:0:0:
396,216,122761,6,0,P|316:228|288:132,1,191.999994140625
451,49,123331,2,0,L|463:165,1,95.9999970703126,8|0,0:0|0:0,0:0:0:0:
476,316,123711,1,0,0:0:0:0:
348,164,123900,1,0,0:0:0:0:
504,212,124090,1,8,0:0:0:0:
236,280,124280,5,8,0:0:0:0:
8,208,124660,1,8,0:0:0:0:
88,72,124850,1,8,0:0:0:0:
168,196,125039,2,0,B|156:272|132:304|132:304|196:328,1,143.999995605469,8|0,0:0|0:0,0:0:0:0:
296,352,125418,5,8,0:0:0:0:
344,364,125513,1,8,0:0:0:0:
392,356,125608,1,8,0:0:0:0:
432,328,125703,1,8,0:0:0:0:
456,284,125798,1,8,0:0:0:0:
452,236,125893,1,8,0:0:0:0:
440,188,125988,6,0,P|428:156|412:128,1,47.9999985351563
340,20,126178,2,0,P|328:76|320:88,1,47.9999985351563
312,248,126368,6,0,L|256:256,1,47.9999985351563,8|0,0:0|0:0,0:0:0:0:
116,188,126558,2,0,L|184:184,1,47.9999985351563
248,51,126747,6,0,B|240:96|240:96|304:91|344:59,1,143.999995605469
316,148,127127,6,0,L|324:208,1,47.9999985351563,8|0,0:0|0:0,0:0:0:0:
336,316,127317,2,0,L|344:384,1,47.9999985351563
448,268,127507,5,0,0:0:0:0:
316,152,127697,1,0,0:0:0:0:
336,316,127887,5,8,0:0:0:0:
488,168,128077,1,0,0:0:0:0:
504,332,128266,5,8,0:0:0:0:
336,316,128456,1,8,0:0:0:0:
504,332,128646,2,0,B|480:384|436:400|436:400|432:340,1,143.999995605469,8|0,0:0|0:0,0:0:0:0:
392,240,129027,6,0,P|400:200|420:180,1,47.9999985351563
472,48,129217,2,0,P|408:56|400:52,1,47.9999985351563
268,68,129407,6,0,P|265:45|263:21,1,47.9999985351563,8|0,0:0|0:0,0:0:0:0:
196,208,129597,2,0,P|200:185|196:156,1,47.9999985351563
48,40,129786,6,0,P|44:116|108:140,1,143.999995605469
276,192,130166,1,8,0:0:0:0:
40,236,130356,1,0,0:0:0:0:
280,24,130546,5,0,0:0:0:0:
184,244,130736,1,0,0:0:0:0:
152,68,130926,5,8,0:0:0:0:
308,304,131116,1,0,0:0:0:0:
404,76,131305,6,8,P|336:92|296:72,1,95.9999970703126
496,160,131685,2,0,L|484:12,1,143.999995605469,8|0,0:0|0:0,0:0:0:0:
416,144,132065,6,0,L|408:200,1,47.9999985351563
328,336,132255,2,0,L|336:280,1,47.9999985351563
280,136,132445,6,0,P|216:160|204:160,1,47.9999985351563,8|0,0:0|0:0,0:0:0:0:
104,172,132635,2,0,P|56:156|40:144,1,47.9999985351563
168,64,132824,6,0,P|172:128|164:228,1,143.999995605469
76,328,133204,1,8,0:0:0:0:
56,156,133394,1,0,0:0:0:0:
264,236,133584,5,0,0:0:0:0:
28,252,133774,1,0,0:0:0:0:
104,24,133964,5,8,0:0:0:0:
160,276,134154,1,0,0:0:0:0:
264,32,134343,6,8,L|176:124,1,95.9999970703126
28,252,134723,1,8,0:0:0:0:
316,332,134913,6,0,P|304:268|352:200,1,143.999995605469,4|0,0:0|0:0,0:0:0:0:
420,128,135293,2,0,L|432:196,1,47.9999985351563
460,308,135483,1,8,0:0:0:0:
256,152,135673,5,0,0:0:0:0:
420,128,135862,1,8,0:0:0:0:
196,312,136052,1,0,0:0:0:0:
164,12,136242,1,8,0:0:0:0:
44,268,136432,6,0,B|36:204|36:160|36:160|68:192,1,143.999995605469,4|0,0:0|0:0,0:0:0:0:
136,268,136812,2,0,L|220:296,1,47.9999985351563
304,324,137002,1,8,0:0:0:0:
200,112,137192,5,0,0:0:0:0:
96,356,137381,1,8,0:0:0:0:
0,124,137571,1,0,0:0:0:0:
304,324,137761,1,8,0:0:0:0:
336,24,137950,6,0,P|344:100|292:212,1,191.999994140625,4|0,0:0|0:0,0:0:0:0:
160,88,138520,1,8,0:0:0:0:
8,300,138711,1,0,0:0:0:0:
20,120,138900,5,8,0:0:0:0:
84,344,139090,1,0,0:0:0:0:
160,84,139280,1,8,0:0:0:0:
4,244,139470,1,0,0:0:0:0:
36,32,139659,6,0,P|48:140|176:176,1,240,4|0,0:0|0:0,0:0:0:0:
260,144,140039,6,0,B|276:76|244:32|244:32|192:80,1,180.000006866455,4|0,0:0|0:0,0:0:0:0:
160,184,140419,6,0,P|160:248|180:304,1,120,2|0,0:0|0:0,0:0:0:0:
284,220,140799,6,0,B|308:204|308:204|348:220,1,60,2|0,0:0|0:0,0:0:0:0:
456,304,141178,5,4,0:0:0:0:
84,200,142697,5,4,0:0:0:0:
432,88,144216,5,4,0:0:0:0:
232,144,144976,5,4,0:0:0:0:
100,336,145735,6,0,P|92:276|112:196,1,120,4|0,0:0|0:0,0:0:0:0:
176,176,146115,1,4,0:0:0:0:
0,212,146400,1,4,0:0:0:0:
312,352,147254,6,0,L|312:308,1,26.6666666666667,4|0,0:0|0:0,0:0:0:0:
312,144,147634,5,2,0:0:0:0:
312,144,147729,2,0,B|300:84|300:84|336:32,1,120,2|0,0:0|0:0,0:0:0:0:
432,152,148204,1,2,0:0:0:0:
432,152,148299,2,0,B|440:192|440:192|424:260,1,80,2|0,0:0|0:0,0:0:0:0:
384,308,148583,1,2,0:0:0:0:
312,144,148773,6,0,L|276:144,1,26.6666666666667,4|0,0:0|0:0,0:0:0:0:
108,152,149153,5,2,0:0:0:0:
108,152,149248,2,0,B|48:140|48:140|-4:176,1,120,2|0,0:0|0:0,0:0:0:0:
116,272,149723,1,2,0:0:0:0:
116,272,149818,2,0,B|156:280|156:280|224:264,1,80,2|0,0:0|0:0,0:0:0:0:
272,224,150102,1,2,0:0:0:0:
112,148,150292,6,0,L|112:104,1,26.6666666666667,4|0,0:0|0:0,0:0:0:0:
272,224,150672,5,2,0:0:0:0:
272,224,150767,1,2,0:0:0:0:
400,112,151052,6,0,L|400:64,2,40,2|0|2,0:0|0:0|0:0,0:0:0:0:
272,224,151337,5,2,0:0:0:0:
272,224,151432,1,0,0:0:0:0:
272,224,151526,2,0,L|272:284,1,40,0|2,0:0|0:0,0:0:0:0:
108,48,151811,6,0,B|184:56|184:56|140:84,1,120,4|0,0:0|0:0,0:0:0:0:
72,200,152191,2,0,B|68:140|68:140|88:148,1,80,4|0,0:0|0:0,0:0:0:0:
160,272,152476,1,4,0:0:0:0:
344,72,152761,5,0,0:0:0:0:
448,200,152950,1,0,0:0:0:0:
448,200,153045,2,0,B|468:152|468:152|432:96,1,80
352,256,153330,1,4,0:0:0:0:
184,92,153710,5,2,0:0:0:0:
184,92,153805,1,2,0:0:0:0:
80,252,154090,1,0,0:0:0:0:
32,96,154280,1,2,0:0:0:0:
32,96,154375,2,0,B|36:36|36:36|60:72,1,80,2|0,0:0|0:0,0:0:0:0:
136,168,154659,1,2,0:0:0:0:
336,32,154849,6,0,L|336:72,1,26.6666666666667,4|0,0:0|0:0,0:0:0:0:
344,276,155229,5,2,0:0:0:0:
344,276,155324,1,2,0:0:0:0:
456,120,155609,1,0,0:0:0:0:
504,276,155799,1,2,0:0:0:0:
504,276,155894,2,0,B|500:336|500:336|476:300,1,80,2|0,0:0|0:0,0:0:0:0:
400,204,156178,1,2,0:0:0:0:
200,340,156368,6,0,L|200:296,7,40,4|0|0|0|0|0|0|0,0:0|0:0|0:0|0:0|0:0|0:0|0:0|0:0,0:0:0:0:
309,186,157128,6,0,L|309:226,7,40,4|0|0|0|0|0|0|0,0:0|0:0|0:0|0:0|0:0|0:0|0:0|0:0,0:0:0:0:
184,48,157887,5,4,0:0:0:0:
280,360,158267,1,4,0:0:0:0:
309,226,158552,2,0,P|361:222|413:206,1,80,4|0,0:0|0:0,0:0:0:0:
456,208,158837,1,0,0:0:0:0:
460,272,158932,1,0,0:0:0:0:
432,328,159026,1,0,0:0:0:0:
392,280,159121,1,0,0:0:0:0:
388,216,159216,1,0,0:0:0:0:
420,156,159311,1,0,0:0:0:0:
452,100,159406,6,0,P|448:48|404:-4,1,120,4|0,0:0|0:0,0:0:0:0:
300,116,159786,1,2,0:0:0:0:
280,172,159881,2,0,B|264:212|264:212|284:280,1,80,2|0,0:0|0:0,0:0:0:0:
412,384,160166,1,2,0:0:0:0:
432,328,160261,2,0,B|448:288|448:288|428:220,1,80,2|2,0:0|0:0,0:0:0:0:
276,248,160545,2,0,P|188:252|128:232,1,120,2|0,0:0|0:0,0:0:0:0:
56,180,160925,6,0,L|64:300,1,120,4|0,0:0|0:0,0:0:0:0:
152,176,161305,1,2,0:0:0:0:
152,112,161400,2,0,L|144:12,1,80,2|0,0:0|0:0,0:0:0:0:
52,184,161685,1,2,0:0:0:0:
56,248,161780,2,0,L|60:344,1,80,2|0,0:0|0:0,0:0:0:0:
152,112,162064,2,0,P|220:100|272:116,1,120,2|0,0:0|0:0,0:0:0:0:
364,184,162444,6,0,L|368:44,1,120,2|0,0:0|0:0,0:0:0:0:
472,192,162824,1,2,0:0:0:0:
480,256,162919,2,0,L|484:340,1,80,2|0,0:0|0:0,0:0:0:0:
368,184,163204,2,0,L|368:56,1,120,6|0,0:0|0:0,0:0:0:0:
276,200,163583,2,0,L|276:296,1,80,2|0,0:0|0:0,0:0:0:0:
184,108,163963,2,0,P|116:104|76:116,1,80,2|0,0:0|0:0,0:0:0:0:
40,148,164248,1,0,0:0:0:0:
16,220,164343,1,0,0:0:0:0:
28,300,164438,1,0,0:0:0:0:
72,356,164533,1,0,0:0:0:0:
136,364,164628,1,0,0:0:0:0:
184,332,164723,1,0,0:0:0:0:
200,288,164818,1,0,0:0:0:0:
196,248,164913,1,0,0:0:0:0:
172,228,165007,1,0,0:0:0:0:
148,232,165102,1,0,0:0:0:0:
136,240,165197,1,0,0:0:0:0:
132,248,165292,1,0,0:0:0:0:
132,256,165387,1,0,0:0:0:0:
136,260,165482,6,0,P|136:308|136:388,1,120.000004577637,4|8,0:0|0:0,0:0:0:0:
248,296,166242,2,0,P|280:340|348:308,1,120.000004577637,0|8,0:0|0:0,0:0:0:0:
336,244,166811,1,0,0:0:0:0:
320,160,167001,2,0,P|288:96|248:52,1,120.000004577637,0|8,0:0|0:0,0:0:0:0:
208,180,167571,1,0,0:0:0:0:
184,24,167761,2,0,P|145:70|120:124,1,120.000004577637,0|8,0:0|0:0,0:0:0:0:
96,232,168330,1,0,0:0:0:0:
124,328,168520,2,0,P|176:316|184:292,1,60.0000022888184
88,236,168900,2,0,P|52:240|28:260,1,60.0000022888184,8|0,0:0|0:0,0:0:0:0:
188,212,169280,2,0,L|204:132,1,60.0000022888184
296,304,169659,2,0,L|312:224,1,60.0000022888184,8|0,0:0|0:0,0:0:0:0:
192,160,170039,6,0,P|224:96|264:52,1,120.000004577637,0|8,0:0|0:0,0:0:0:0:
304,180,170609,1,0,0:0:0:0:
356,36,170799,2,0,P|380:64|392:96,1,60.0000022888184
416,184,171178,2,0,P|416:232|400:260,1,60.0000022888184,8|0,0:0|0:0,0:0:0:0:
272,360,171558,2,0,L|260:240,1,120.000004577637,0|8,0:0|0:0,0:0:0:0:
116,176,172128,5,0,0:0:0:0:
116,176,172223,1,0,0:0:0:0:
116,176,172318,2,0,L|96:248,1,60.0000022888184
76,320,172697,2,0,L|56:388,1,60.0000022888184,8|0,0:0|0:0,0:0:0:0:
20,252,173077,2,0,B|8:184|8:184|28:128,1,120.000004577637
196,56,173837,2,0,B|208:124|208:124|188:180,1,120.000004577637,8|0,0:0|0:0,0:0:0:0:
92,80,174406,5,0,0:0:0:0:
312,96,174596,2,0,L|400:108,1,60.0000022888184
454,250,174976,2,0,L|366:262,1,60.0000022888184,8|0,0:0|0:0,0:0:0:0:
502,98,175356,1,0,0:0:0:0:
400,260,175545,1,0,0:0:0:0:
371,104,175735,1,8,0:0:0:0:
512,240,175925,1,0,0:0:0:0:
304,348,176115,6,0,L|300:280,1,60.0000022888184
128,208,176495,2,0,L|136:272,1,60.0000022888184,8|0,0:0|0:0,0:0:0:0:
232,76,176875,1,0,0:0:0:0:
132,208,177064,1,0,0:0:0:0:
84,24,177254,1,8,0:0:0:0:
84,24,177444,1,0,0:0:0:0:
320,304,177634,5,0,0:0:0:0:
480,164,178014,1,8,0:0:0:0:
512,344,178394,1,0,0:0:0:0:
336,152,178773,1,8,0:0:0:0:
208,252,179153,5,0,0:0:0:0:
480,288,179343,1,0,0:0:0:0:
324,328,179533,1,8,0:0:0:0:
504,116,179723,1,8,0:0:0:0:
408,368,179913,5,8,0:0:0:0:
376,24,180102,1,8,0:0:0:0:
104,360,180292,5,8,0:0:0:0:
148,24,180481,1,8,0:0:0:0:
256,192,180672,5,8,0:0:0:0:
84,160,180862,1,8,0:0:0:0:
132,120,180957,1,8,0:0:0:0:
192,100,181052,1,8,0:0:0:0:
256,88,181147,1,8,0:0:0:0:
320,100,181242,1,8,0:0:0:0:
376,128,181337,1,8,0:0:0:0:
420,176,181432,1,8,0:0:0:0:
256,88,181621,6,0,P|248:164|268:264,1,160,4|0,0:0|0:0,0:0:0:0:
356,336,182191,6,0,B|364:272|364:272|348:232,1,80
172,300,182571,2,0,B|164:364|164:364|180:404,1,80,8|0,0:0|0:0,0:0:0:0:
261,245,182950,5,0,0:0:0:0:
432,356,183140,1,0,0:0:0:0:
472,128,183330,2,0,B|480:44|480:44|444:56,1,120,8|0,0:0|0:0,0:0:0:0:
368,132,183710,6,0,B|352:164|352:164|356:212,1,47.9999985351563
432,300,183900,2,0,B|448:268|448:268|444:220,1,47.9999985351563
332,348,184090,6,0,L|256:352,1,47.9999985351563,8|0,0:0|0:0,0:0:0:0:
160,360,184280,2,0,L|84:364,1,47.9999985351563
224,268,184469,6,0,B|192:212|208:156|208:156|244:184,1,143.999995605469
320,240,184849,6,0,L|388:240,1,47.9999985351563,8|0,0:0|0:0,0:0:0:0:
284,350,185039,2,0,L|352:346,1,47.9999985351563
472,336,185229,1,0,0:0:0:0:
368,240,185609,1,8,0:0:0:0:
504,168,185988,5,8,0:0:0:0:
472,336,186178,1,8,0:0:0:0:
368,240,186368,2,0,P|356:160|368:92,1,143.999995605469,8|0,0:0|0:0,0:0:0:0:
280,160,186748,6,0,P|268:192|252:220,1,47.9999985351563
184,344,186938,2,0,P|172:288|164:276,1,47.9999985351563
168,140,187128,6,0,L|112:132,1,47.9999985351563,8|0,0:0|0:0,0:0:0:0:
0,232,187318,2,0,L|68:236,1,47.9999985351563
172,288,187507,6,0,B|160:252|160:252|228:248|268:280,1,143.999995605469
380,360,187887,6,0,L|388:300,1,47.9999985351563,8|0,0:0|0:0,0:0:0:0:
400,192,188077,2,0,L|408:124,1,47.9999985351563
512,240,188267,5,0,0:0:0:0:
380,360,188647,1,8,0:0:0:0:
312,184,189026,5,8,0:0:0:0:
380,360,189216,1,8,0:0:0:0:
512,240,189406,1,8,0:0:0:0:
236,236,189596,6,0,P|228:160|304:40,1,191.999994140625,4|0,0:0|0:0,0:0:0:0:
364,228,190166,2,0,L|364:328,1,95.9999970703126,8|0,0:0|0:0,0:0:0:0:
300,168,190545,1,0,0:0:0:0:
508,108,190735,1,0,0:0:0:0:
360,324,190925,1,8,0:0:0:0:
408,24,191115,1,8,0:0:0:0:
112,320,191495,5,8,0:0:0:0:
80,140,191685,1,0,0:0:0:0:
20,352,191875,2,0,B|0:236|0:236|32:264,1,143.999995605469,8|0,0:0|0:0,0:0:0:0:
112,320,192254,5,8,0:0:0:0:
128,264,192349,1,8,0:0:0:0:
120,208,192444,1,8,0:0:0:0:
104,152,192539,1,8,0:0:0:0:
116,96,192634,1,8,0:0:0:0:
164,64,192729,1,8,0:0:0:0:
220,64,192824,2,0,L|308:84,1,47.9999985351563
416,160,193014,2,0,P|364:168|356:172,1,47.9999985351563
248,280,193204,6,0,L|240:216,1,47.9999985351563,8|0,0:0|0:0,0:0:0:0:
416,348,193394,2,0,L|408:284,1,47.9999985351563
240,368,193583,6,0,B|184:340|140:340|140:340|96:376,1,143.999995605469
76,272,193963,6,0,L|72:212,1,47.9999985351563,8|0,0:0|0:0,0:0:0:0:
128,64,194153,2,0,L|132:120,1,47.9999985351563
8,36,194343,5,0,0:0:0:0:
72,224,194533,1,0,0:0:0:0:
128,64,194723,5,8,0:0:0:0:
64,252,194913,1,0,0:0:0:0:
8,8,195102,5,8,0:0:0:0:
64,252,195292,1,8,0:0:0:0:
164,52,195482,2,0,B|220:48|272:60|272:60|252:100,1,143.999995605469,8|0,0:0|0:0,0:0:0:0:
184,156,195862,6,0,L|192:244,1,47.9999985351563
200,312,196052,2,0,L|208:400,1,47.9999985351563
296,216,196242,6,0,P|352:180|376:176,1,47.9999985351563,8|0,0:0|0:0,0:0:0:0:
100,292,196432,2,0,P|44:256|20:252,1,47.9999985351563
328,328,196621,6,0,B|372:288|436:312|436:312|404:332,1,143.999995605469
440,232,197001,6,0,L|444:172,1,47.9999985351563,8|0,0:0|0:0,0:0:0:0:
388,24,197191,2,0,L|384:80,1,47.9999985351563
504,28,197381,5,0,0:0:0:0:
440,232,197571,1,0,0:0:0:0:
384,56,197761,5,8,0:0:0:0:
448,244,197951,1,0,0:0:0:0:
504,0,198140,5,8,0:0:0:0:
448,244,198330,1,8,0:0:0:0:
348,44,198520,2,0,B|292:40|240:52|240:52|260:92,1,143.999995605469,8|0,0:0|0:0,0:0:0:0:
328,148,198900,6,0,L|320:236,1,47.9999985351563
312,304,199090,2,0,L|304:392,1,47.9999985351563
216,208,199280,6,0,P|160:172|136:168,1,47.9999985351563,8|0,0:0|0:0,0:0:0:0:
412,284,199470,2,0,P|468:248|492:244,1,47.9999985351563
184,320,199659,6,0,B|140:280|76:304|76:304|108:324,1,143.999995605469
108,208,200039,6,0,L|96:148,1,47.9999985351563,8|0,0:0|0:0,0:0:0:0:
268,224,200229,2,0,L|248:292,1,47.9999985351563
196,84,200420,5,0,0:0:0:0:
104,320,200610,1,8,0:0:0:0:
68,88,200799,5,8,0:0:0:0:
184,320,200988,1,0,0:0:0:0:
184,320,201178,2,8,P|192:240|204:216,1,95.9999970703126
272,64,201558,1,8,0:0:0:0:
368,344,201748,6,0,P|356:280|404:212,1,143.999995605469,4|0,0:0|0:0,0:0:0:0:
472,140,202128,2,0,L|484:208,1,47.9999985351563
512,320,202318,1,8,0:0:0:0:
308,164,202508,5,0,0:0:0:0:
472,140,202697,1,8,0:0:0:0:
248,324,202887,1,0,0:0:0:0:
216,24,203077,1,8,0:0:0:0:
96,280,203267,6,0,B|88:216|88:172|88:172|120:204,1,143.999995605469,4|0,0:0|0:0,0:0:0:0:
188,280,203647,2,0,L|272:308,1,47.9999985351563
356,336,203837,1,8,0:0:0:0:
252,124,204027,5,0,0:0:0:0:
148,368,204216,1,8,0:0:0:0:
52,136,204406,1,0,0:0:0:0:
356,336,204596,1,8,0:0:0:0:
432,72,204786,6,0,B|460:152|420:220|420:220|396:180,1,191.999994140625,4|0,0:0|0:0,0:0:0:0:
324,48,205356,1,8,0:0:0:0:
504,208,205545,1,0,0:0:0:0:
304,360,205735,6,0,L|312:248,1,95.9999970703126,8|0,0:0|0:0,0:0:0:0:
324,48,206115,1,8,0:0:0:0:
504,208,206305,1,0,0:0:0:0:
164,128,206495,2,0,L|100:112,1,47.9999985351563,8|0,0:0|0:0,0:0:0:0:
152,196,206685,2,0,L|96:196,1,47.9999985351563
168,264,206875,2,0,L|92:288,1,47.9999985351563,8|0,0:0|0:0,0:0:0:0:
204,320,207064,2,0,L|156:352,1,47.9999985351563
268,352,207254,2,0,L|248:400,3,47.9999985351563,8|0|0|0,0:0|0:0|0:0|0:0,0:0:0:0:
296,208,207634,1,8,0:0:0:0:
68,40,207824,5,8,0:0:0:0:
68,40,207919,1,8,0:0:0:0:
68,40,208014,1,8,0:0:0:0:
124,260,208204,1,0,0:0:0:0:
204,112,208394,1,8,0:0:0:0:
4,176,208583,1,0,0:0:0:0:
376,212,208773,5,8,0:0:0:0:
416,24,208963,1,0,0:0:0:0:
460,352,209153,1,8,0:0:0:0:
508,136,209343,1,0,0:0:0:0:
248,328,209533,5,8,0:0:0:0:
508,136,209723,1,0,0:0:0:0:
460,352,209913,5,8,0:0:0:0:
280,64,210102,1,0,0:0:0:0:
108,352,210292,5,8,0:0:0:0:
280,64,210482,1,0,0:0:0:0:
48,24,210672,5,8,0:0:0:0:
336,372,210862,1,0,0:0:0:0:
120,196,211052,5,8,0:0:0:0:
108,352,211242,1,8,0:0:0:0:
56,300,211337,1,8,0:0:0:0:
28,232,211432,1,8,0:0:0:0:
24,160,211526,1,8,0:0:0:0:
48,92,211621,1,8,0:0:0:0:
100,44,211716,1,8,0:0:0:0:
172,40,211811,2,0,P|228:48|268:64,1,95.9999970703126,12|0,0:0|0:0,0:0:0:0:
108,352,212191,2,0,P|164:344|204:328,1,95.9999970703126,4|0,0:0|0:0,0:0:0:0:
448,200,212571,1,4,0:0:0:0:
