osu file format v14

[General]
AudioFilename: audio.mp3
AudioLeadIn: 0
PreviewTime: 69063
Countdown: 1
SampleSet: Normal
StackLeniency: 0.7
Mode: 1
LetterboxInBreaks: 0
WidescreenStoryboard: 0

[Editor]
DistanceSpacing: 1
BeatDivisor: 4
GridSize: 32
TimelineZoom: 1.4

[Metadata]
Title:Zen Zen Zense
TitleUnicode:前前前世
Artist:KOBASOLO & Lefty Hand Cream
ArtistUnicode:コバソロ & Lefty Hand Cream
Creator:cdhsausageboy
Version:Muzukashii
Source:君の名は。
Tags:Kimi no na wa. Your name.
BeatmapID:1439773
BeatmapSetID:680970

[Difficulty]
HPDrainRate:5
CircleSize:5
OverallDifficulty:4.5
ApproachRate:5
SliderMultiplier:1.4
SliderTickRate:1

[Events]
//Background and Video events
0,0,"kimino.jpg",0,100
//Break Periods
//Storyboard Layer 0 (Background)
//Storyboard Layer 1 (Fail)
//Storyboard Layer 2 (Pass)
//Storyboard Layer 3 (Foreground)
//Storyboard Sound Samples

[TimingPoints]
1485,315.789473684211,4,1,0,50,1,0
1642,-100,4,1,0,60,0,0
11511,-100,4,1,0,50,0,0
11669,-100,4,1,0,60,0,0
14037,-100,4,1,0,50,0,0
14195,-100,4,1,0,60,0,0
16563,-100,4,1,0,50,0,0
16721,-100,4,1,0,60,0,0
69695,-100,4,1,0,65,0,1
70485,-100,4,1,0,75,0,1
79721,-100,4,1,0,65,0,1
80511,-100,4,1,0,75,0,1
89906,-100,4,1,0,60,0,0

[HitObjects]
352,160,1485,5,4,0:0:0:0:
288,128,1800,1,0,0:0:0:0:
288,128,2116,1,0,0:0:0:0:
256,160,2432,1,0,0:0:0:0:
320,192,2590,1,8,0:0:0:0:
288,160,3063,1,0,0:0:0:0:
288,192,3379,1,8,0:0:0:0:
288,192,3537,1,8,0:0:0:0:
352,160,3695,1,0,0:0:0:0:
192,96,4011,1,0,0:0:0:0:
192,96,4169,1,0,0:0:0:0:
192,96,4327,1,0,0:0:0:0:
288,128,4642,1,0,0:0:0:0:
256,160,4958,1,0,0:0:0:0:
320,192,5116,1,8,0:0:0:0:
288,160,5589,1,0,0:0:0:0:
288,192,5905,1,8,0:0:0:0:
288,192,6063,1,8,0:0:0:0:
352,160,6221,1,0,0:0:0:0:
256,160,6537,1,0,0:0:0:0:
288,128,6853,1,0,0:0:0:0:
288,128,7169,1,0,0:0:0:0:
352,160,7327,1,8,0:0:0:0:
256,160,7485,1,0,0:0:0:0:
320,192,7643,1,8,0:0:0:0:
288,160,8116,1,0,0:0:0:0:
288,192,8432,1,8,0:0:0:0:
288,192,8590,1,8,0:0:0:0:
352,160,8748,1,0,0:0:0:0:
320,224,9063,1,8,0:0:0:0:
320,224,9221,1,8,0:0:0:0:
192,192,9379,1,0,0:0:0:0:
192,192,9695,1,0,0:0:0:0:
192,192,9853,1,0,0:0:0:0:
320,224,10011,1,8,0:0:0:0:
64,96,10327,2,0,L|544:256,1,490
224,192,11590,1,4,0:0:0:0:
352,192,12221,1,0,0:0:0:0:
352,192,12537,1,0,0:0:0:0:
416,192,12853,1,8,0:0:0:0:
416,192,13169,1,8,0:0:0:0:
480,160,13327,1,0,0:0:0:0:
448,192,13485,1,8,0:0:0:0:
448,192,13800,1,8,0:0:0:0:
224,192,14116,1,4,0:0:0:0:
352,192,14747,1,0,0:0:0:0:
352,192,15063,1,0,0:0:0:0:
416,192,15379,1,8,0:0:0:0:
416,192,15695,1,8,0:0:0:0:
448,192,15853,1,8,0:0:0:0:
480,160,16011,1,0,0:0:0:0:
448,192,16326,1,8,0:0:0:0:
224,192,16642,1,4,0:0:0:0:
352,192,17273,1,0,0:0:0:0:
352,192,17589,1,0,0:0:0:0:
416,192,17905,1,8,0:0:0:0:
416,192,18221,1,8,0:0:0:0:
480,160,18379,1,0,0:0:0:0:
448,192,18537,1,8,0:0:0:0:
448,192,18852,1,8,0:0:0:0:
256,192,19169,1,12,0:0:0:0:
448,192,19485,1,0,0:0:0:0:
416,224,19800,1,8,0:0:0:0:
448,192,19958,1,0,0:0:0:0:
480,192,20116,1,0,0:0:0:0:
320,192,20274,1,8,0:0:0:0:
320,192,20590,1,8,0:0:0:0:
384,192,20748,1,0,0:0:0:0:
448,224,20906,1,8,0:0:0:0:
352,192,21379,1,8,0:0:0:0:
320,192,21695,1,0,0:0:0:0:
320,160,22011,1,0,0:0:0:0:
320,160,22327,1,0,0:0:0:0:
320,160,22642,1,0,0:0:0:0:
352,192,22800,1,8,0:0:0:0:
352,160,22958,1,0,0:0:0:0:
352,160,23274,1,0,0:0:0:0:
224,256,23590,1,8,0:0:0:0:
352,224,23906,1,8,0:0:0:0:
352,224,24063,1,8,0:0:0:0:
224,256,24221,1,0,0:0:0:0:
320,160,24853,1,0,0:0:0:0:
320,160,25168,1,0,0:0:0:0:
352,192,25326,1,8,0:0:0:0:
352,160,25484,1,0,0:0:0:0:
352,160,25800,1,0,0:0:0:0:
224,128,26116,1,0,0:0:0:0:
192,128,26274,1,0,0:0:0:0:
352,192,26432,1,8,0:0:0:0:
352,192,26748,1,0,0:0:0:0:
320,160,27063,1,8,0:0:0:0:
352,160,27221,1,0,0:0:0:0:
320,160,27379,1,8,0:0:0:0:
352,192,27537,1,8,0:0:0:0:
288,160,27695,1,0,0:0:0:0:
128,128,28011,1,0,0:0:0:0:
288,192,28327,1,8,0:0:0:0:
288,160,28485,1,8,0:0:0:0:
384,192,28642,1,0,0:0:0:0:
448,160,28800,1,8,0:0:0:0:
288,224,28958,1,0,0:0:0:0:
288,192,29274,1,0,0:0:0:0:
96,160,29906,1,0,0:0:0:0:
256,224,30221,1,0,0:0:0:0:
288,192,30378,1,8,0:0:0:0:
320,160,30536,1,0,0:0:0:0:
160,128,30853,1,0,0:0:0:0:
160,128,31169,1,0,0:0:0:0:
192,224,31327,1,8,0:0:0:0:
160,128,31485,1,0,0:0:0:0:
192,224,31643,1,8,0:0:0:0:
64,160,31800,1,0,0:0:0:0:
320,160,32116,1,0,0:0:0:0:
320,160,32432,1,0,0:0:0:0:
320,160,32747,1,0,0:0:0:0:
352,192,32905,1,8,0:0:0:0:
352,160,33063,1,0,0:0:0:0:
352,160,33379,1,0,0:0:0:0:
448,192,33695,1,8,0:0:0:0:
448,192,34011,1,8,0:0:0:0:
448,192,34168,1,8,0:0:0:0:
320,192,34326,1,0,0:0:0:0:
320,160,34958,1,0,0:0:0:0:
320,160,35273,1,0,0:0:0:0:
352,192,35431,1,8,0:0:0:0:
352,160,35589,1,0,0:0:0:0:
352,160,35905,1,0,0:0:0:0:
224,128,36221,1,0,0:0:0:0:
192,128,36379,1,0,0:0:0:0:
352,192,36537,1,8,0:0:0:0:
352,192,36853,1,0,0:0:0:0:
320,160,37168,1,8,0:0:0:0:
352,192,37326,1,8,0:0:0:0:
320,160,37484,1,8,0:0:0:0:
352,160,37642,1,0,0:0:0:0:
288,160,37800,1,0,0:0:0:0:
128,128,38116,1,0,0:0:0:0:
288,192,38432,1,8,0:0:0:0:
288,160,38590,1,8,0:0:0:0:
384,192,38747,1,0,0:0:0:0:
448,160,38905,1,0,0:0:0:0:
288,224,39063,1,0,0:0:0:0:
288,192,39379,1,0,0:0:0:0:
96,160,40011,1,0,0:0:0:0:
256,224,40326,1,0,0:0:0:0:
288,192,40483,1,8,0:0:0:0:
320,160,40641,1,0,0:0:0:0:
160,128,40958,1,0,0:0:0:0:
160,128,41274,1,0,0:0:0:0:
160,128,41432,1,0,0:0:0:0:
192,224,41590,1,8,0:0:0:0:
192,224,41748,1,8,0:0:0:0:
64,160,41905,1,0,0:0:0:0:
288,160,42221,1,8,0:0:0:0:
288,160,42379,1,8,0:0:0:0:
320,192,42537,1,0,0:0:0:0:
256,192,42853,1,8,0:0:0:0:
448,192,43169,1,0,0:0:0:0:
384,224,43485,1,8,0:0:0:0:
320,160,43642,1,0,0:0:0:0:
256,160,43800,1,8,0:0:0:0:
256,192,44116,1,8,0:0:0:0:
288,224,44274,1,0,0:0:0:0:
256,224,44432,1,0,0:0:0:0:
509,106,45063,1,8,0:0:0:0:
160,192,45379,1,0,0:0:0:0:
224,160,45537,1,8,0:0:0:0:
224,160,45853,1,8,0:0:0:0:
160,192,46011,1,0,0:0:0:0:
160,192,46327,1,0,0:0:0:0:
214,148,46485,5,0,0:0:0:0:
224,160,46643,1,8,0:0:0:0:
192,192,46958,5,0,0:0:0:0:
192,160,47116,1,0,0:0:0:0:
192,160,47274,1,0,0:0:0:0:
384,160,47432,1,8,0:0:0:0:
352,160,47590,1,8,0:0:0:0:
352,160,47748,1,8,0:0:0:0:
192,192,47906,5,0,0:0:0:0:
192,160,48064,1,0,0:0:0:0:
192,160,48222,1,0,0:0:0:0:
384,160,48380,1,8,0:0:0:0:
352,160,48538,1,8,0:0:0:0:
352,160,48696,1,8,0:0:0:0:
128,160,48853,1,0,0:0:0:0:
128,160,49011,1,0,0:0:0:0:
128,160,49169,1,0,0:0:0:0:
64,96,49485,2,0,L|608:256,1,560
192,192,52011,5,0,0:0:0:0:
192,160,52169,1,0,0:0:0:0:
192,160,52327,1,0,0:0:0:0:
384,160,52485,1,8,0:0:0:0:
352,160,52643,1,8,0:0:0:0:
352,160,52801,1,8,0:0:0:0:
192,192,52959,5,0,0:0:0:0:
192,160,53117,1,0,0:0:0:0:
192,160,53275,1,0,0:0:0:0:
384,160,53433,1,8,0:0:0:0:
352,160,53591,1,8,0:0:0:0:
352,160,53749,1,8,0:0:0:0:
128,160,53906,1,0,0:0:0:0:
128,160,54064,1,0,0:0:0:0:
128,160,54222,1,0,0:0:0:0:
64,128,54537,2,0,L|608:288,1,560
96,160,57063,1,0,0:0:0:0:
256,160,57379,1,0,0:0:0:0:
224,192,57695,1,8,0:0:0:0:
224,192,58011,1,0,0:0:0:0:
224,192,58169,1,0,0:0:0:0:
224,192,58485,1,8,0:0:0:0:
224,192,58800,1,0,0:0:0:0:
320,160,58958,1,8,0:0:0:0:
96,160,59590,1,0,0:0:0:0:
256,160,59906,1,0,0:0:0:0:
224,192,60222,1,8,0:0:0:0:
224,192,60538,1,0,0:0:0:0:
224,192,60696,1,0,0:0:0:0:
224,192,61012,1,8,0:0:0:0:
224,192,61327,1,0,0:0:0:0:
320,160,61485,1,8,0:0:0:0:
256,160,61801,1,8,0:0:0:0:
96,160,62116,1,0,0:0:0:0:
256,160,62432,1,0,0:0:0:0:
224,192,62748,1,8,0:0:0:0:
224,192,63064,1,0,0:0:0:0:
224,192,63222,1,0,0:0:0:0:
224,192,63537,1,8,0:0:0:0:
224,192,63853,1,0,0:0:0:0:
320,160,64011,1,8,0:0:0:0:
224,160,64642,1,0,0:0:0:0:
416,192,64958,1,8,0:0:0:0:
320,224,65274,1,0,0:0:0:0:
320,224,65432,1,0,0:0:0:0:
320,224,65590,1,8,0:0:0:0:
288,224,65906,1,0,0:0:0:0:
320,160,66221,1,8,0:0:0:0:
224,224,66379,1,0,0:0:0:0:
224,224,66695,1,0,0:0:0:0:
192,192,66853,1,8,0:0:0:0:
288,160,67169,1,0,0:0:0:0:
288,224,67485,1,8,0:0:0:0:
288,160,67800,1,0,0:0:0:0:
288,160,67958,1,0,0:0:0:0:
256,192,68116,1,8,0:0:0:0:
288,160,68432,1,0,0:0:0:0:
288,160,68590,1,0,0:0:0:0:
288,160,68748,1,8,0:0:0:0:
320,160,68827,1,8,0:0:0:0:
320,160,68906,1,8,0:0:0:0:
384,192,69695,5,4,0:0:0:0:
384,192,70011,1,4,0:0:0:0:
384,192,70327,1,4,0:0:0:0:
256,224,70642,1,8,0:0:0:0:
224,192,70800,1,0,0:0:0:0:
224,192,71116,1,0,0:0:0:0:
160,192,71274,1,8,0:0:0:0:
352,192,71432,1,0,0:0:0:0:
288,160,71748,1,0,0:0:0:0:
416,192,71906,1,8,0:0:0:0:
480,192,72221,1,0,0:0:0:0:
96,160,72300,1,0,0:0:0:0:
96,160,72379,1,0,0:0:0:0:
160,160,72695,1,8,0:0:0:0:
320,192,72853,1,8,0:0:0:0:
288,160,73011,1,0,0:0:0:0:
352,192,73169,1,8,0:0:0:0:
416,160,73327,1,0,0:0:0:0:
192,160,73800,1,0,0:0:0:0:
192,160,73958,1,8,0:0:0:0:
224,160,74116,1,0,0:0:0:0:
224,160,74274,1,0,0:0:0:0:
416,192,74432,1,8,0:0:0:0:
320,192,74590,1,0,0:0:0:0:
288,160,74906,1,0,0:0:0:0:
320,224,75063,1,8,0:0:0:0:
288,192,75379,1,0,0:0:0:0:
288,224,75537,1,8,0:0:0:0:
384,256,75695,1,8,0:0:0:0:
320,224,75853,1,0,0:0:0:0:
320,224,76169,1,0,0:0:0:0:
224,192,76327,1,8,0:0:0:0:
224,224,76642,1,0,0:0:0:0:
224,224,76800,1,0,0:0:0:0:
160,192,76958,1,8,0:0:0:0:
160,192,77274,1,8,0:0:0:0:
352,224,77590,1,0,0:0:0:0:
192,224,77748,1,8,0:0:0:0:
192,224,78063,1,8,0:0:0:0:
288,224,78221,1,0,0:0:0:0:
224,288,78379,1,8,0:0:0:0:
448,192,78853,1,0,0:0:0:0:
448,192,79011,1,8,0:0:0:0:
288,160,79327,1,8,0:0:0:0:
224,192,79485,1,8,0:0:0:0:
384,192,79800,5,4,0:0:0:0:
384,192,80116,1,4,0:0:0:0:
384,192,80432,1,4,0:0:0:0:
256,224,80747,1,8,0:0:0:0:
224,192,80905,1,0,0:0:0:0:
224,192,81221,1,0,0:0:0:0:
160,192,81379,1,8,0:0:0:0:
352,192,81537,1,0,0:0:0:0:
288,160,81853,1,0,0:0:0:0:
416,192,82011,1,8,0:0:0:0:
480,192,82326,1,0,0:0:0:0:
96,160,82405,1,0,0:0:0:0:
96,160,82484,1,0,0:0:0:0:
320,192,82642,1,8,0:0:0:0:
160,160,82800,1,8,0:0:0:0:
288,160,83116,1,0,0:0:0:0:
352,192,83274,1,8,0:0:0:0:
416,160,83432,1,0,0:0:0:0:
92,160,83906,1,0,0:0:0:0:
192,160,84063,1,8,0:0:0:0:
224,160,84221,1,0,0:0:0:0:
224,160,84379,1,0,0:0:0:0:
416,192,84537,1,8,0:0:0:0:
320,192,84695,1,0,0:0:0:0:
288,160,85011,1,0,0:0:0:0:
320,224,85168,1,8,0:0:0:0:
288,192,85484,1,0,0:0:0:0:
288,224,85642,1,8,0:0:0:0:
384,256,85800,1,8,0:0:0:0:
320,224,85958,1,0,0:0:0:0:
320,224,86274,1,0,0:0:0:0:
224,192,86432,1,8,0:0:0:0:
224,224,86747,1,0,0:0:0:0:
224,224,86905,1,0,0:0:0:0:
160,192,87063,1,8,0:0:0:0:
224,160,87221,1,0,0:0:0:0:
352,224,87537,1,0,0:0:0:0:
160,192,87695,1,8,0:0:0:0:
192,64,88011,1,0,0:0:0:0:
288,224,88169,1,8,0:0:0:0:
224,288,88327,1,8,0:0:0:0:
448,192,88485,1,0,0:0:0:0:
416,192,88800,1,8,0:0:0:0:
448,192,88958,1,8,0:0:0:0:
0,160,89274,1,0,0:0:0:0:
448,192,89432,1,0,0:0:0:0:
224,192,89590,1,8,0:0:0:0:
288,160,89748,1,0,0:0:0:0:
288,160,89906,1,0,0:0:0:0:
288,160,90379,1,0,0:0:0:0:
128,224,90537,1,8,0:0:0:0:
160,192,90853,1,0,0:0:0:0:
160,192,91011,1,0,0:0:0:0:
320,160,91327,1,0,0:0:0:0:
320,160,91485,1,0,0:0:0:0:
224,128,91800,1,0,0:0:0:0:
288,192,91958,1,8,0:0:0:0:
288,192,92116,1,8,0:0:0:0:
224,160,92274,1,0,0:0:0:0:
256,192,92748,12,0,94642,0:0:0:0:
