osu file format v14

[General]
AudioFilename: audio.mp3
AudioLeadIn: 0
PreviewTime: 166252
Countdown: 0
SampleSet: Soft
StackLeniency: 0.7
Mode: 0
LetterboxInBreaks: 0
WidescreenStoryboard: 0

[Editor]
Bookmarks: 637,13787,28582,54883,68034,94335,107486,132143,166663,192964,225841
DistanceSpacing: 1
BeatDivisor: 8
GridSize: 32
TimelineZoom: 2.4

[Metadata]
Title:HAPPY BIRTHDAY
TitleUnicode:HAPPY BIRTHDAY
Artist:kobasolo & Chiai Fujikawa
ArtistUnicode:コバソロ & 藤川千愛
Creator:Wanpachi
Version:Unrequited Love
Source:初めて恋をした日に読む話
Tags:-_ex_- ex back number バックナンバー コバソロ Hajimete Koi wo Shita Hi ni Yomu Hanashi A Story To Read On The Day You've Youve Fell In Love When You First Fall Japanese Pop J-pop Jpop
BeatmapID:3491977
BeatmapSetID:1708941

[Difficulty]
HPDrainRate:5.5
CircleSize:4.2
OverallDifficulty:7
ApproachRate:8
SliderMultiplier:1.4
SliderTickRate:1

[Events]
//Background and Video events
0,0,"96093909_p0.jpg",0,0
//Break Periods
2,94535,106736
2,166663,179063
//Storyboard Layer 0 (Background)
//Storyboard Layer 1 (Fail)
//Storyboard Layer 2 (Pass)
//Storyboard Layer 3 (Foreground)
//Storyboard Layer 4 (Overlay)
//Storyboard Sound Samples

[TimingPoints]
637,821.917808219178,4,2,1,30,1,0
637,-95.2380952380952,4,2,1,30,0,0
12143,-47.6190476190476,4,2,1,60,0,0
13787,-35.7142857142857,4,2,1,70,0,0
25294,-71.4285714285714,4,2,1,60,0,0
26938,-74.0740740740741,4,2,1,60,0,0
28171,-111.111111111111,4,2,1,5,0,0
28582,821.917808219178,4,2,1,40,1,0
28582,-142.857142857143,4,2,1,40,0,0
34335,-71.4285714285714,4,2,1,40,0,0
41527,-142.857142857143,4,2,1,40,0,0
44814,-71.4285714285714,4,2,1,40,0,0
54883,-57.1428571428571,4,2,1,50,0,0
66390,-142.857142857143,4,2,1,40,0,0
67828,-57.1428571428571,4,2,1,60,0,0
68034,-35.7142857142857,4,2,1,70,0,1
68239,-35.7142857142857,4,2,1,70,0,0
70499,-35.7142857142857,4,2,1,70,0,0
71321,-47.6190476190476,4,2,1,70,0,0
72143,-28.5714285714286,4,2,1,70,0,0
72965,-35.7142857142857,4,2,1,70,0,0
77897,-47.6190476190476,4,2,1,70,0,0
79540,-28.5714285714286,4,2,1,70,0,0
80157,-35.7142857142857,4,2,1,70,0,0
81184,-35.7142857142857,4,2,1,70,0,1
81390,-35.7142857142857,4,2,1,70,0,0
94335,-35.7142857142857,4,2,1,70,0,0
107486,-95.2380952380952,4,2,1,40,0,0
120636,-71.4285714285714,4,2,1,50,0,0
131321,-28.5714285714286,4,2,1,60,0,0
132143,821.917808219178,4,2,1,70,1,0
132143,-47.6190476190476,4,2,1,70,0,0
161321,-95.2380952380952,4,2,1,60,0,0
166663,821.917808219178,4,2,1,40,1,0
179813,-95.2380952380952,4,2,1,40,0,0
189676,-95.2380952380952,4,2,1,40,0,0
190293,-71.4285714285714,4,2,1,50,0,0
191115,-57.1428571428571,4,2,1,60,0,0
191936,-47.6190476190476,4,2,1,70,0,0
192827,-57.1428571428571,4,2,1,60,0,0
192964,-35.7142857142857,4,2,1,70,0,1
193169,-35.7142857142857,4,2,1,70,0,0
195429,-35.7142857142857,4,2,1,70,0,0
196251,-47.6190476190476,4,2,1,70,0,0
197073,-28.5714285714286,4,2,1,70,0,0
197895,-35.7142857142857,4,2,1,70,0,0
202827,-47.6190476190476,4,2,1,70,0,0
204470,-28.5714285714286,4,2,1,70,0,0
205087,-35.7142857142857,4,2,1,70,0,0
206115,-35.7142857142857,4,2,1,70,0,1
206320,-35.7142857142857,4,2,1,70,0,0
219265,-35.7142857142857,4,2,1,50,0,0
225841,821.917808219178,4,2,1,70,1,0
225841,-35.7142857142857,4,2,1,70,0,0
250498,-71.4285714285714,4,2,1,70,0,0
251320,-71.4285714285714,4,2,1,60,0,0
252142,-71.4285714285714,4,2,1,50,0,0
252964,-71.4285714285714,4,2,1,40,0,0
253786,-71.4285714285714,4,2,1,30,0,0

[Colours]
Combo1 : 204,177,172
Combo2 : 122,175,207
Combo3 : 171,183,190
Combo4 : 221,123,123

[HitObjects]
100,354,637,5,2,0:2:0:0:
122,279,1047,1,2,0:2:0:0:
15,166,1458,1,2,0:2:0:0:
184,59,1869,2,0,P|173:93|164:137,1,73.4999977569581,2|0,0:2|0:2,0:0:0:0:
256,121,2691,2,0,P|273:188|301:266,1,146.999995513916,2|2,0:2|0:2,0:0:0:0:
376,300,3924,5,2,0:2:0:0:
485,238,4335,1,2,0:2:0:0:
349,105,4746,1,2,0:2:0:0:
200,223,5157,2,0,P|170:245|134:251,1,73.4999977569581,2|0,0:2|0:2,0:0:0:0:
137,166,5979,2,0,P|67:134|20:78,1,146.999995513916,2|2,0:2|0:2,0:0:0:0:
167,0,7212,5,2,0:2:0:0:
126,68,7623,1,2,0:2:0:0:
247,200,8034,1,2,0:2:0:0:
48,312,8445,2,0,P|56:239|55:165,2,146.999995513916,2|2|2,0:2|0:2|0:2,0:0:0:0:
198,384,10500,6,0,P|212:330|233:279,1,110.249996635437,2|0,0:2|0:2,0:0:0:0:
213,263,11321,2,0,P|203:229|184:193,1,73.4999977569581,2|0,0:2|0:2,0:0:0:0:
325,25,11938,5,0,3:2:0:0:
306,43,12041,1,0,3:2:0:0:
314,69,12143,2,0,P|353:80|411:102,1,73.4999977569581,2|0,1:2|0:2,0:0:0:0:
511,157,12554,2,0,P|498:122|487:87,1,73.4999977569581,2|0,3:2|1:2,0:0:0:0:
316,162,12965,5,2,3:2:0:0:
411,267,13171,1,0,3:2:0:0:
427,158,13376,5,2,1:2:0:0:
336,186,13582,1,0,3:2:0:0:
430,344,13787,6,0,P|335:323|256:313,1,146.999995513916,6|0,3:2|0:2,0:0:0:0:
266,300,14198,2,0,P|226:334|248:382,1,97.9999970092774,2|0,3:2|0:2,0:0:0:0:
363,256,14609,2,0,P|308:180|217:196,1,195.999994018555,10|2,1:2|3:2,0:0:0:0:
73,288,15226,5,0,1:2:0:0:
99,297,15328,1,0,1:2:0:0:
115,269,15431,2,0,P|101:202|83:147,1,97.9999970092774,0|0,3:2|0:2,0:0:0:0:
197,0,15842,2,0,P|183:47|174:95,1,97.9999970092774,2|0,3:2|0:2,0:0:0:0:
0,237,16253,1,8,1:2:0:0:
266,300,16664,5,2,3:2:0:0:
217,196,16869,1,0,1:2:0:0:
366,93,17075,2,0,P|393:157|308:200,1,146.999995513916,2|0,3:2|0:2,0:0:0:0:
326,223,17486,2,0,P|379:208|454:197,1,97.9999970092774,2|0,3:2|0:2,0:0:0:0:
231,86,17897,2,0,P|213:182|185:276,1,195.999994018555,10|2,1:2|3:2,0:0:0:0:
67,371,18513,5,0,1:2:0:0:
83,347,18616,1,0,1:2:0:0:
108,350,18719,2,0,P|148:378|217:373,1,97.9999970092774,0|0,3:2|0:2,0:0:0:0:
263,194,19130,2,0,P|223:166|154:171,1,97.9999970092774,2|0,3:2|0:2,0:0:0:0:
296,308,19541,1,8,1:2:0:0:
68,121,19952,5,2,3:2:0:0:
85,238,20157,1,0,1:2:0:0:
299,106,20363,2,0,B|258:95|239:132|237:137|235:141|217:175|174:162,1,146.999995513916,6|0,3:2|0:2,0:0:0:0:
156,146,20773,2,0,P|171:88|179:37,1,97.9999970092774,2|0,3:2|0:2,0:0:0:0:
302,200,21184,2,0,P|287:258|279:309,1,97.9999970092774,10|0,1:2|0:2,0:0:0:0:
437,69,21595,5,2,3:2:0:0:
496,131,21801,1,0,1:2:0:0:
496,157,21904,1,0,1:2:0:0:
473,171,22006,2,0,P|413:177|373:129,1,97.9999970092774,0|0,3:2|0:2,0:0:0:0:
222,2,22417,2,0,P|309:17|299:105,1,195.999994018555,2|8,3:2|1:2,0:0:0:0:
298,105,23239,2,0,P|243:112|186:128,1,97.9999970092774,2|0,3:2|1:2,0:0:0:0:
56,344,23650,6,0,P|150:321|181:226,1,195.999994018555,2|0,3:2|3:2,0:0:0:0:
182,235,24267,1,0,0:2:0:0:
455,344,24472,6,0,P|364:322|338:289,1,97.9999970092774,10|8,1:2|0:3,0:0:0:0:
329,235,24883,1,4,0:3:0:0:
424,244,25089,1,4,0:3:0:0:
256,384,25294,6,0,P|240:177|209:18,1,367.49998878479,6|0,3:2|0:2,0:0:0:0:
304,14,26938,6,0,B|252:6|219:41|220:53|222:66|188:101|145:92,1,188.999994232178,2|0,0:2|0:2,0:0:0:0:
393,215,28582,5,2,0:2:0:0:
179,297,30225,1,2,0:2:0:0:
314,378,31869,6,0,P|297:329|263:179,1,195.999994018555,2|2,0:2|0:2,0:0:0:0:
410,56,34335,6,0,P|398:102|350:117,1,97.9999970092774,2|0,0:2|0:2,0:0:0:0:
246,82,35157,5,2,0:2:0:0:
370,232,36801,1,2,0:2:0:0:
174,370,38445,6,0,P|163:319|143:269,1,97.9999970092774,2|0,0:2|0:2,0:0:0:0:
253,244,39266,2,0,P|264:193|284:143,1,97.9999970092774,2|0,0:2|0:2,0:0:0:0:
119,82,40088,6,0,B|68:90|79:116|27:127,1,97.9999970092774,2|0,0:2|0:2,0:0:0:0:
184,200,40910,1,2,0:2:0:0:
259,183,41116,1,2,0:2:0:0:
316,235,41321,1,2,0:2:0:0:
461,144,41527,5,2,0:2:0:0:
448,119,41629,1,2,0:2:0:0:
425,116,41732,2,0,P|395:177|394:209,1,97.9999970092774,2|2,0:2|0:2,0:0:0:0:
512,322,43273,1,2,0:2:0:0:
502,334,43376,2,0,B|454:325|467:299|413:283,1,97.9999970092774,2|2,0:2|0:2,0:0:0:0:
151,270,45020,6,0,P|178:263|244:228,1,97.9999970092774,2|0,0:2|0:2,0:0:0:0:
331,92,45842,2,0,P|304:85|238:50,1,97.9999970092774,2|0,0:2|0:2,0:0:0:0:
111,130,46664,2,0,P|48:128|26:204,1,146.999995513916,2|0,0:2|0:2,0:0:0:0:
80,243,47486,1,2,0:2:0:0:
92,227,47588,1,2,0:2:0:0:
341,339,48308,6,0,P|388:322|448:308,1,97.9999970092774,2|0,0:2|0:2,0:0:0:0:
454,148,49129,1,2,0:2:0:0:
505,237,49540,1,2,0:2:0:0:
368,106,49951,2,0,P|321:89|261:75,1,97.9999970092774,2|0,0:2|0:2,0:0:0:0:
203,237,50773,2,0,P|232:200|280:202,1,97.9999970092774,2|0,0:2|0:2,0:0:0:0:
165,362,51595,6,0,B|113:354|133:329|77:318,2,97.9999970092774,2|0|2,0:2|0:2|0:2,0:0:0:0:
270,288,52828,1,2,0:2:0:0:
141,168,53239,2,0,P|159:129|172:61,1,97.9999970092774,2|2,0:2|0:2,0:0:0:0:
362,129,54061,2,0,P|372:176|392:221,1,97.9999970092774,2|2,0:2|0:2,0:0:0:0:
494,311,54883,6,0,P|453:301|407:364,1,122.500001168251,2|2,0:2|0:2,0:0:0:0:
290,331,55499,2,0,P|298:275|305:193,1,122.500001168251,2|2,0:2|0:2,0:0:0:0:
267,119,56116,1,2,0:2:0:0:
362,129,56321,1,2,0:2:0:0:
209,189,56527,6,0,P|138:189|100:138,1,122.500001168251,2|2,0:2|0:2,0:0:0:0:
187,46,57143,2,0,P|182:76|179:106,1,61.2500005841255,2|0,0:2|0:2,0:0:0:0:
38,261,57760,6,0,P|35:230|30:200,1,61.2500005841255,2|2,0:2|0:2,0:0:0:0:
105,154,58171,2,0,B|167:169|145:203|209:221,1,122.500001168251,2|2,0:2|0:2,0:0:0:0:
169,333,58787,2,0,P|218:307|289:302,1,122.500001168251,2|2,0:2|0:2,0:0:0:0:
353,259,59403,1,2,0:0:0:0:
479,384,59609,6,0,P|421:357|422:297,1,122.500001168251,2|0,0:2|0:2,0:0:0:0:
493,156,60225,2,0,P|476:199|473:245,1,91.8750008761883,2|2,0:2|0:2,0:0:0:0:
383,116,60945,6,0,P|379:70|362:27,1,91.8750008761883,2|2,0:2|0:2,0:0:0:0:
290,93,61458,2,0,B|224:113|254:133|187:158,1,122.500001168251,2|0,0:2|0:2,0:0:0:0:
289,292,62280,5,2,0:2:0:0:
324,213,62486,1,2,0:2:0:0:
269,311,62691,5,2,0:2:0:0:
348,346,62897,1,2,0:2:0:0:
239,224,63102,6,0,P|207:232|172:242,1,61.2500005841255,2|0,0:2|0:2,0:0:0:0:
28,320,63513,2,0,P|60:328|95:338,1,61.2500005841255,2|0,0:2|0:2,0:0:0:0:
163,355,63924,5,2,0:2:0:0:
106,261,64232,5,2,0:2:0:0:
163,162,64540,5,2,0:2:0:0:
66,78,64746,6,0,P|84:133|142:139,1,122.500001168251,2|0,0:2|0:2,0:0:0:0:
142,139,65362,1,2,0:2:0:0:
319,202,65568,2,0,P|301:146|243:140,1,122.500001168251,2|0,0:2|0:2,0:0:0:0:
243,140,66184,1,2,0:2:0:0:
193,219,66390,6,0,P|200:255|204:291,1,73.4999977569581,2|2,0:2|0:2,0:0:0:0:
185,361,67212,1,2,0:2:0:0:
416,315,67828,6,0,L|455:321,1,30.6250002920628,2|0,0:2|0:2,0:0:0:0:
458,322,68034,6,0,P|442:296|431:245,1,48.9999985046387,4|0,3:1|0:2,0:0:0:0:
361,253,68239,2,0,P|375:226|414:191,1,48.9999985046387,2|0,0:2|0:2,0:0:0:0:
357,131,68445,2,0,P|381:129|474:179,1,97.9999970092774,2|0,3:2|0:2,0:0:0:0:
240,31,68855,6,0,P|200:92|142:137,1,146.999995513916,10|0,1:2|0:2,0:0:0:0:
122,159,69266,2,0,P|173:177|166:228,1,97.9999970092774,2|0,3:2|1:2,0:0:0:0:
142,238,69575,1,0,1:2:0:0:
105,231,69677,6,0,B|139:221|180:245|163:265|191:292|238:288,1,146.999995513916,2|0,3:2|0:2,0:0:0:0:
256,303,70088,2,0,P|280:253|340:235,1,97.9999970092774,2|2,3:2|0:2,0:0:0:0:
499,352,70499,6,0,P|433:362|425:268,1,146.999995513916,8|0,1:2|0:2,0:0:0:0:
427,277,70910,1,2,3:2:0:0:
323,133,71116,1,2,1:2:0:0:
458,48,71321,6,0,P|443:98|428:157,1,110.249996635437,0|0,3:2|0:2,0:0:0:0:
411,172,71732,1,2,3:2:0:0:
512,133,71938,1,2,0:2:0:0:
326,41,72143,6,0,B|281:27|245:65|250:79|256:96|222:135|179:125,1,183.750001752377,8|2,1:2|0:2,0:0:0:0:
159,105,72554,1,2,3:2:0:0:
47,238,72760,5,2,1:2:0:0:
76,241,72862,1,0,1:2:0:0:
89,215,72965,2,0,P|78:124|38:12,2,195.999994018555,0|0|8,3:2|3:2|1:2,0:0:0:0:
323,133,74198,5,0,3:2:0:0:
260,279,74403,2,0,P|255:251|244:215,1,48.9999985046387,2|0,1:2|0:2,0:0:0:0:
245,217,74609,6,0,P|273:199|301:205,1,48.9999985046387,6|0,3:2|0:2,0:0:0:0:
323,133,74814,2,0,P|352:149|361:176,1,48.9999985046387,2|0,0:2|0:2,0:0:0:0:
435,129,75020,2,0,P|428:218|355:243,1,146.999995513916,2|0,3:2|0:2,0:0:0:0:
355,244,75431,5,10,1:2:0:0:
376,63,75636,1,2,0:2:0:0:
470,210,75842,1,2,3:2:0:0:
287,199,76047,5,2,1:2:0:0:
269,191,76150,1,0,1:2:0:0:
251,206,76253,2,0,P|198:219|128:238,1,97.9999970092774,0|2,3:2|0:2,0:0:0:0:
227,303,76664,1,2,3:2:0:0:
190,128,76869,2,0,P|203:75|222:5,1,97.9999970092774,2|8,0:2|1:2,0:0:0:0:
285,107,77280,5,2,0:2:0:0:
118,68,77486,1,2,3:2:0:0:
29,243,77691,5,2,1:2:0:0:
46,260,77794,1,0,1:2:0:0:
69,253,77897,2,0,P|101:202|74:144,1,110.249996635437,2|0,3:2|0:2,0:0:0:0:
57,146,78308,2,0,P|48:110|38:74,1,73.4999977569581,2|0,3:2|0:2,0:0:0:0:
220,249,78718,5,10,1:2:0:0:
322,132,79027,5,2,0:2:0:0:
425,179,79335,5,2,1:2:0:0:
487,140,79540,6,0,P|391:165|354:299,1,245.000002336502,6|0,3:2|3:2,0:0:0:0:
401,382,80157,5,0,3:2:0:0:
428,384,80260,1,0,3:2:0:0:
444,361,80362,2,0,P|439:340|426:307,1,48.9999985046387,8|0,1:2|0:2,0:0:0:0:
327,365,80568,2,0,P|306:358|271:353,1,48.9999985046387,0|0,1:2|0:2,0:0:0:0:
210,326,80773,1,8,0:3:0:0:
149,372,80979,1,4,0:3:0:0:
352,293,81184,6,0,P|365:248|340:203,1,97.9999970092774,4|2,3:1|0:2,0:0:0:0:
331,118,81595,2,0,B|289:111|265:147|267:148|244:180|198:172,1,146.999995513916,2|0,3:2|0:2,0:0:0:0:
175,166,82006,5,12,1:2:0:0:
268,263,82212,1,2,0:2:0:0:
201,62,82417,1,2,3:2:0:0:
65,143,82623,6,0,P|82:200|92:257,1,97.9999970092774,2|0,1:2|3:2,0:0:0:0:
67,368,83034,2,0,P|79:276|179:276,1,195.999994018555,2|0,1:2|0:2,0:0:0:0:
273,384,83650,5,12,1:2:0:0:
243,305,84061,5,0,3:2:0:0:
275,226,84266,1,0,1:2:0:0:
53,89,84472,6,0,B|110:73|147:111|145:117|182:161|231:149,1,195.999994018555,2|0,3:2|3:2,0:0:0:0:
276,77,85088,1,2,0:2:0:0:
435,248,85294,6,0,P|403:158|324:167,1,146.999995513916,14|0,1:2|0:2,0:0:0:0:
325,147,85705,2,0,P|335:193|343:258,1,97.9999970092774,2|2,3:2|1:2,0:0:0:0:
292,323,86116,5,0,3:2:0:0:
385,335,86527,5,0,3:2:0:0:
254,223,86835,5,0,1:2:0:0:
249,242,86938,1,8,1:2:0:0:
200,367,87143,5,8,0:3:0:0:
100,379,87349,5,4,0:3:0:0:
42,322,87554,5,4,0:3:0:0:
72,254,87760,6,0,P|62:196|52:153,1,97.9999970092774,6|0,3:2|0:2,0:0:0:0:
117,11,88171,2,0,P|133:112|232:120,1,195.999994018555,2|10,3:2|1:2,0:0:0:0:
329,182,88992,1,0,3:0:0:0:
418,61,89198,5,2,1:2:0:0:
425,90,89301,1,0,1:2:0:0:
401,108,89403,2,0,P|353:98|305:90,1,97.9999970092774,0|2,3:2|1:2,0:0:0:0:
464,187,89814,2,0,P|472:235|482:283,1,97.9999970092774,2|2,3:2|0:2,0:0:0:0:
501,100,90225,5,8,1:2:0:0:
377,197,90431,5,2,0:2:0:0:
301,171,90636,1,2,3:2:0:0:
243,226,90842,1,2,1:2:0:0:
47,324,91047,6,0,P|134:300|160:192,1,195.999994018555,2|2,3:2|3:2,0:0:0:0:
308,130,91664,1,2,0:2:0:0:
246,57,91869,2,0,P|233:109|221:168,1,97.9999970092774,8|8,1:2|0:3,0:0:0:0:
324,277,92280,5,4,0:3:0:0:
436,221,92486,5,4,0:3:0:0:
441,148,92691,5,4,3:2:0:0:
256,192,92794,12,6,94335,3:2:0:0:
52,336,107486,6,0,P|87:325|123:319,1,73.4999977569581,2|2,0:2|0:2,0:0:0:0:
181,268,108102,1,2,0:2:0:0:
256,249,108308,2,0,P|292:255|327:266,1,73.4999977569581,0|2,0:2|0:2,0:0:0:0:
99,176,109129,6,0,P|95:213|115:256,1,73.4999977569581,0|2,0:2|0:2,0:0:0:0:
167,139,109746,1,2,0:2:0:0:
234,100,109951,2,0,P|238:63|218:20,1,73.4999977569581,0|2,0:2|0:2,0:0:0:0:
354,151,110773,6,0,P|319:156|275:162,1,73.4999977569581,2|2,0:2|0:2,0:0:0:0:
418,113,111390,1,2,0:2:0:0:
467,170,111595,2,0,P|462:206|456:242,1,73.4999977569581,0|2,0:2|0:2,0:0:0:0:
507,341,112212,2,0,P|504:322|501:304,1,36.749998878479,2|0,0:2|0:2,0:0:0:0:
382,223,112828,5,0,0:2:0:0:
382,223,113239,1,2,0:2:0:0:
317,270,113445,2,0,P|295:277|275:290,1,36.749998878479,2|0,0:2|0:2,0:0:0:0:
330,347,113855,5,2,0:2:0:0:
276,205,114061,2,0,P|280:168|286:132,1,73.4999977569581,0|2,0:2|0:2,0:0:0:0:
173,39,114677,1,2,0:2:0:0:
231,85,114883,2,0,P|202:112|160:111,1,73.4999977569581,0|2,0:2|0:2,0:0:0:0:
0,140,115705,6,0,P|35:143|61:169,1,73.4999977569581,0|2,0:2|0:2,0:0:0:0:
135,181,116321,1,2,0:2:0:0:
117,255,116527,2,0,P|80:249|44:244,1,73.4999977569581,0|2,0:2|0:2,0:0:0:0:
264,263,117349,6,0,B|305:271|292:286|337:299,1,73.4999977569581,2|2,0:2|0:2,0:0:0:0:
357,222,117965,1,2,0:2:0:0:
478,271,118171,2,0,P|430:279|398:285,1,73.4999977569581,2|2,0:2|0:2,0:0:0:0:
379,355,118787,5,2,0:2:0:0:
357,222,118992,2,0,P|353:186|373:102,1,110.249996635437,2|2,0:2|0:2,0:0:0:0:
442,65,119814,2,0,P|446:101|426:185,1,110.249996635437,2|2,0:2|0:2,0:0:0:0:
279,154,120636,6,0,P|231:148|170:141,1,97.9999970092774,2|2,3:2|0:2,0:0:0:0:
32,172,121253,1,2,0:2:0:0:
92,41,121458,2,0,P|98:89|105:150,1,97.9999970092774,8|2,0:2|0:2,0:0:0:0:
97,216,122075,2,0,P|74:237|45:249,1,48.9999985046387,2|0,0:2|0:2,0:0:0:0:
274,30,122691,5,2,3:2:0:0:
204,0,122897,1,2,0:2:0:0:
170,68,123102,2,0,B|223:76|205:100|265:112,1,97.9999970092774,8|2,0:2|0:2,0:0:0:0:
403,51,123719,5,2,0:2:0:0:
332,0,123924,2,0,P|326:55|334:104,1,97.9999970092774,2|2,3:2|0:2,0:0:0:0:
339,175,124540,1,2,0:2:0:0:
478,187,124746,2,0,P|456:144|410:134,1,97.9999970092774,8|2,0:2|0:2,0:0:0:0:
372,244,125362,2,0,P|399:240|429:237,1,48.9999985046387,2|0,0:2|0:2,0:0:0:0:
320,339,125979,5,2,3:2:0:0:
441,377,126184,2,0,P|417:373|393:370,1,48.9999985046387,2|8,0:2|0:2,0:0:0:0:
339,316,126595,1,2,0:0:0:0:
160,342,126801,2,0,P|212:336|257:301,1,97.9999970092774,2|0,0:2|3:2,0:0:0:0:
69,218,127623,5,2,0:2:0:0:
108,284,127828,1,2,0:2:0:0:
32,283,128034,1,10,0:2:0:0:
146,215,128239,2,0,P|154:168|165:107,1,97.9999970092774,2|2,0:2|0:2,0:0:0:0:
13,32,128855,6,0,B|72:41|49:65|111:75,1,97.9999970092774,2|2,0:2|0:2,0:0:0:0:
233,156,129472,2,0,P|275:148|318:98,1,97.9999970092774,2|2,0:2|0:2,0:0:0:0:
236,75,130088,1,2,0:2:0:0:
236,75,131116,5,0,3:2:0:0:
267,64,131218,1,0,3:2:0:0:
284,91,131321,2,0,P|269:150|261:211,1,122.500001168251,0|0,1:2|1:2,0:0:0:0:
446,347,131938,5,0,3:2:0:0:
452,319,132040,1,0,3:2:0:0:
423,304,132143,2,0,B|391:298|372:322|374:326|358:345|320:343,1,110.249996635437,4|0,3:2|0:2,0:0:0:0:
300,332,132553,1,2,3:2:0:0:
269,262,132759,1,2,0:2:0:0:
305,191,132964,5,10,1:2:0:0:
218,325,133170,2,0,P|172:335|124:350,1,73.4999977569581,2|0,0:2|3:2,0:0:0:0:
6,301,133581,5,2,0:2:0:0:
61,373,133786,2,0,P|75:319|86:265,1,110.249996635437,4|2,1:2|0:2,0:0:0:0:
108,246,134197,1,2,3:2:0:0:
69,132,134403,2,0,P|47:157|42:223,1,73.4999977569581,2|12,0:2|1:2,0:0:0:0:
192,253,134814,2,0,B|234:260|259:229|257:223|284:193|323:204,1,146.999995513916,2|0,0:2|3:2,0:0:0:0:
446,327,135430,6,0,P|392:314|315:304,1,110.249996635437,6|0,3:2|0:2,0:0:0:0:
316,283,135841,1,2,3:2:0:0:
387,133,136047,2,0,P|410:160|418:196,1,73.4999977569581,2|8,0:2|1:2,0:0:0:0:
493,251,136458,5,2,0:2:0:0:
323,204,136663,2,0,P|286:210|250:219,1,73.4999977569581,2|2,3:2|0:2,0:0:0:0:
232,195,136971,1,2,0:2:0:0:
251,168,137074,6,0,P|242:86|158:65,1,146.999995513916,2|0,1:2|3:2,0:0:0:0:
0,188,137896,5,12,1:2:0:0:
157,169,138101,2,0,P|163:153|173:137,1,36.749998878479,2|0,0:2|0:2,0:0:0:0:
94,122,138307,2,0,P|76:122|58:124,1,36.749998878479,2|0,3:2|0:2,0:0:0:0:
86,201,138512,2,0,P|96:216|106:231,1,36.749998878479,2|0,1:2|1:2,0:0:0:0:
39,263,138718,6,0,P|128:266|157:322,1,146.999995513916,6|2,3:2|3:2,0:0:0:0:
259,384,139334,2,0,P|247:348|241:312,1,73.4999977569581,2|12,0:2|1:2,0:0:0:0:
264,185,139745,1,2,0:2:0:0:
329,330,139951,1,2,3:2:0:0:
241,312,140156,1,2,0:2:0:0:
187,224,140362,5,2,1:2:0:0:
263,92,140567,1,2,0:2:0:0:
185,139,140773,2,0,P|147:152|91:161,1,73.4999977569581,2|0,3:2|0:2,0:0:0:0:
254,56,141184,6,0,P|256:73|262:91,1,36.749998878479,10|0,1:2|0:2,0:0:0:0:
264,185,141389,1,2,0:2:0:0:
235,31,141595,2,0,P|286:48|340:60,1,110.249996635437,2|0,3:2|1:2,0:0:0:0:
366,45,142006,5,0,3:2:0:0:
469,174,142211,1,2,0:2:0:0:
487,95,142416,2,0,P|447:91|409:120,1,73.4999977569581,2|0,3:2|0:2,0:0:0:0:
307,275,142827,2,0,P|375:253|380:174,1,146.999995513916,8|0,1:2|3:2,0:0:0:0:
340,27,143444,6,0,B|343:44|348:62,2,36.749998878479,0|0|0,1:2|1:2|3:2,0:0:0:0:
454,114,143855,2,0,B|435:108|418:105,1,36.749998878479,4|0,1:2|0:2,0:0:0:0:
320,137,144060,2,0,B|286:143|248:153,1,73.4999977569581,0|8,3:2|0:3,0:0:0:0:
223,138,144369,1,4,0:3:0:0:
233,111,144471,5,10,1:2:0:0:
124,37,144677,5,8,0:3:0:0:
22,81,144882,5,4,0:3:0:0:
8,164,145088,5,4,0:3:0:0:
55,220,145293,6,0,B|98:213|130:233|126:246|156:265|202:262,1,146.999995513916,6|2,3:2|3:2,0:0:0:0:
285,238,145910,2,0,P|275:273|272:310,1,73.4999977569581,2|8,0:2|1:2,0:0:0:0:
216,177,146321,1,2,0:2:0:0:
332,384,146526,1,2,3:2:0:0:
439,245,146732,5,2,1:2:0:0:
461,238,146834,1,0,1:2:0:0:
471,212,146937,2,0,P|459:136|387:107,1,146.999995513916,2|2,3:2|3:2,0:0:0:0:
352,27,147553,2,0,P|388:23|424:14,1,73.4999977569581,2|8,0:2|1:2,0:0:0:0:
304,105,147964,2,0,P|290:158|285:213,1,110.249996635437,2|0,0:2|0:2,0:0:0:0:
260,241,148375,1,2,1:2:0:0:
312,345,148581,6,0,P|241:326|168:320,1,146.999995513916,2|2,3:2|3:2,0:0:0:0:
98,366,149197,1,2,0:2:0:0:
173,206,149403,6,0,P|177:223|180:241,1,36.749998878479,10|0,1:2|0:2,0:0:0:0:
118,384,149608,1,2,0:2:0:0:
151,187,149814,2,0,P|204:201|258:208,1,110.249996635437,2|0,3:2|1:2,0:0:0:0:
276,228,150225,5,2,3:2:0:0:
258,65,150430,2,0,P|233:91|225:126,1,73.4999977569581,0|0,1:2|3:2,0:0:0:0:
356,269,150841,5,2,3:2:0:0:
378,278,150944,1,0,3:2:0:0:
404,262,151047,1,8,1:2:0:0:
444,199,151252,5,6,3:2:0:0:
423,107,151458,5,8,0:3:0:0:
328,39,151663,5,4,0:3:0:0:
202,102,151869,6,0,B|166:113|137:82|141:71|146:58|118:26|84:34,1,146.999995513916,6|2,3:2|3:2,0:0:0:0:
0,154,152485,1,2,0:2:0:0:
82,183,152690,2,0,P|76:146|69:110,1,73.4999977569581,8|2,1:2|0:2,0:0:0:0:
212,23,153101,5,2,3:2:0:0:
280,70,153307,1,2,1:2:0:0:
295,87,153410,1,0,1:2:0:0:
288,112,153512,1,0,3:2:0:0:
233,306,153718,2,0,P|224:251|214:197,1,110.249996635437,2|0,0:2|0:2,0:0:0:0:
231,179,154129,2,0,P|263:195|299:199,1,73.4999977569581,2|8,0:2|1:2,0:0:0:0:
454,279,154540,2,0,P|421:262|319:290,1,146.999995513916,2|2,0:2|1:2,0:0:0:0:
174,372,155156,6,0,P|101:358|29:347,1,146.999995513916,6|2,3:2|3:2,0:0:0:0:
220,233,155773,2,0,P|226:269|233:306,1,73.4999977569581,2|8,0:2|1:2,0:0:0:0:
263,384,156184,1,2,0:2:0:0:
145,291,156389,2,0,P|111:269|110:187,1,110.249996635437,2|0,3:2|1:2,0:0:0:0:
81,186,156800,5,2,3:2:0:0:
217,79,157006,2,0,B|230:157|181:139|191:221,1,146.999995513916,0|0,1:2|3:2,0:0:0:0:
127,96,157622,1,8,1:2:0:0:
289,205,158033,5,0,1:2:0:0:
358,163,158238,1,0,1:2:0:0:
431,200,158444,6,0,P|430:268|435:357,1,146.999995513916,4|8,3:2|0:3,0:0:0:0:
512,384,159060,1,0,0:2:0:0:
508,305,159266,5,8,0:3:0:0:
362,384,159471,2,0,P|308:361|301:261,1,146.999995513916,4|4,0:3|0:3,0:0:0:0:
270,103,160088,2,0,P|324:126|331:226,1,146.999995513916,2|2,0:2|0:2,0:0:0:0:
213,257,160704,5,2,3:2:0:0:
213,257,160807,1,0,3:2:0:0:
213,257,160910,1,8,0:3:0:0:
378,283,161115,1,4,0:3:0:0:
257,180,161321,6,0,B|193:136|118:187|130:232|130:239|61:277|-53:242|12:121|77:150,1,367.49998878479,6|6,3:2|3:2,0:0:0:0:
256,192,163478,12,0,165841,0:2:0:0:
454,32,179813,6,0,P|446:62|436:120,1,73.4999977569581,2|2,0:2|0:2,0:0:0:0:
438,103,180430,1,2,0:2:0:0:
373,147,180635,2,0,P|381:177|391:235,1,73.4999977569581,2|2,0:2|0:2,0:0:0:0:
421,365,181252,1,2,0:2:0:0:
496,345,181457,2,0,P|455:295|366:308,1,146.999995513916,0|0,0:2|0:2,0:0:0:0:
341,372,183101,6,0,B|282:371|290:344|230:344,1,110.249996635437,2|2,0:2|0:2,0:0:0:0:
148,300,183923,2,0,P|157:344|163:383,1,73.4999977569581,2|2,0:2|0:2,0:0:0:0:
161,372,184539,1,2,0:2:0:0:
222,269,184745,2,0,P|237:197|249:124,1,146.999995513916,0|0,0:2|0:2,0:0:0:0:
119,43,186183,5,2,0:2:0:0:
108,119,186389,2,0,P|148:117|178:92,2,73.4999977569581,2|2|2,0:2|0:2|0:2,0:0:0:0:
197,20,187827,6,0,P|214:27|230:34,1,36.749998878479,2|0,0:2|0:2,0:0:0:0:
260,116,188238,1,2,0:2:0:0:
320,54,188443,2,0,P|353:37|387:24,1,73.4999977569581,2|0,0:2|0:2,0:0:0:0:
512,118,189060,1,2,0:2:0:0:
465,22,189265,2,0,P|461:39|458:58,1,36.749998878479,2|2,0:2|0:2,0:0:0:0:
434,134,189676,6,0,P|450:166|457:202,1,73.4999977569581,2|0,0:2|0:2,0:0:0:0:
457,202,190293,1,2,0:2:0:0:
367,192,190498,6,0,P|340:232|303:264,1,97.9999970092774,2|0,0:2|0:2,0:0:0:0:
302,264,191115,1,2,0:2:0:0:
275,174,191320,6,0,P|215:170|157:150,1,122.500001168251,2|0,0:2|0:2,0:0:0:0:
156,150,191936,1,2,0:2:0:0:
386,24,192142,5,2,0:2:0:0:
386,24,192827,6,0,L|406:20,1,20.4166668613752,2|0,0:0|0:0,0:0:0:0:
425,20,192965,6,0,P|409:46|398:97,1,48.9999985046387,4|0,3:1|0:2,0:0:0:0:
328,89,193170,2,0,P|342:116|381:151,1,48.9999985046387,2|0,0:2|0:2,0:0:0:0:
324,211,193376,2,0,P|348:213|441:163,1,97.9999970092774,2|0,3:2|0:2,0:0:0:0:
364,384,193786,6,0,P|349:304|261:308,1,146.999995513916,10|0,1:2|0:2,0:0:0:0:
271,310,194197,2,0,P|222:288|166:273,1,97.9999970092774,2|0,3:2|1:2,0:0:0:0:
153,296,194506,1,0,1:2:0:0:
121,289,194608,2,0,P|78:231|82:142,1,146.999995513916,2|0,3:2|0:2,0:0:0:0:
51,141,195019,2,0,P|99:136|138:107,1,97.9999970092774,2|2,3:2|0:2,0:0:0:0:
364,133,195430,6,0,B|321:119|294:155|297:160|270:191|232:177,1,146.999995513916,8|0,1:2|0:2,0:0:0:0:
212,161,195841,1,2,3:2:0:0:
362,221,196046,1,2,1:2:0:0:
458,158,196252,6,0,P|443:108|428:49,1,110.249996635437,0|0,3:2|0:2,0:0:0:0:
448,26,196663,1,2,3:2:0:0:
364,133,196869,1,2,0:2:0:0:
475,317,197073,2,0,P|448:234|361:220,1,183.750001752377,8|2,1:2|0:2,0:0:0:0:
339,244,197485,1,2,3:2:0:0:
186,306,197691,5,2,1:2:0:0:
161,274,197793,1,0,1:2:0:0:
178,239,197895,2,0,B|225:224|263:264|258:279|252:297|288:338|333:327,2,195.999994018555,0|0|8,3:2|3:2|1:2,0:0:0:0:
250,384,199129,5,0,3:2:0:0:
339,244,199334,2,0,P|344:216|355:180,1,48.9999985046387,2|0,1:2|0:2,0:0:0:0:
354,182,199540,6,0,P|326:164|298:170,1,48.9999985046387,6|0,3:2|0:2,0:0:0:0:
276,98,199745,2,0,P|247:114|238:141,1,48.9999985046387,2|0,0:2|0:2,0:0:0:0:
164,94,199951,2,0,P|171:183|244:208,1,146.999995513916,2|0,3:2|0:2,0:0:0:0:
242,205,200362,5,10,1:2:0:0:
227,32,200567,1,2,0:2:0:0:
75,67,200773,1,2,3:2:0:0:
276,98,200978,5,2,1:2:0:0:
307,82,201081,1,0,1:2:0:0:
308,47,201183,2,0,P|351:15|421:21,1,97.9999970092774,0|2,3:2|0:2,0:0:0:0:
512,153,201595,1,2,3:2:0:0:
435,88,201800,2,0,P|430:136|424:185,1,97.9999970092774,2|8,0:2|1:2,0:0:0:0:
499,245,202211,5,2,0:2:0:0:
345,126,202417,1,2,3:2:0:0:
330,217,202622,5,2,1:2:0:0:
317,241,202725,1,0,1:2:0:0:
336,262,202827,2,0,P|342:316|347:371,1,110.249996635437,2|0,3:2|0:2,0:0:0:0:
320,384,203238,2,0,P|282:360|240:362,1,73.4999977569581,2|0,3:2|0:2,0:0:0:0:
136,384,203650,5,10,1:2:0:0:
317,241,203958,5,2,0:2:0:0:
217,94,204266,5,2,1:2:0:0:
260,27,204471,6,0,B|277:140|185:127|217:310,1,245.000002336502,6|0,3:2|3:2,0:0:0:0:
326,155,205088,5,0,3:2:0:0:
351,136,205191,1,0,3:2:0:0:
382,147,205293,2,0,P|403:152|436:165,1,48.9999985046387,8|0,1:2|0:2,0:0:0:0:
502,120,205498,2,0,P|508:140|513:175,1,48.9999985046387,0|0,1:2|0:2,0:0:0:0:
462,238,205704,1,8,0:3:0:0:
508,308,205910,1,4,0:3:0:0:
344,384,206115,6,0,P|403:368|455:368,1,97.9999970092774,4|2,3:1|0:2,0:0:0:0:
285,273,206526,2,0,P|234:268|220:358,1,146.999995513916,2|0,3:2|0:2,0:0:0:0:
232,365,206937,5,12,1:2:0:0:
370,300,207143,1,2,0:2:0:0:
254,190,207348,1,2,3:2:0:0:
132,275,207553,6,0,B|77:264|103:240|34:231,1,97.9999970092774,2|0,1:2|3:2,0:0:0:0:
172,70,207964,2,0,P|269:63|363:35,1,195.999994018555,2|0,1:2|0:2,0:0:0:0:
160,184,208581,5,12,1:2:0:0:
110,119,208992,5,0,3:2:0:0:
172,70,209197,1,0,1:2:0:0:
132,275,209402,6,0,B|189:291|226:253|224:247|254:207|313:221,1,195.999994018555,2|0,3:2|3:2,0:0:0:0:
290,311,210019,1,2,0:2:0:0:
438,384,210224,6,0,P|422:312|412:239,1,146.999995513916,14|0,1:2|0:2,0:0:0:0:
393,213,210635,2,0,P|433:166|477:182,1,97.9999970092774,2|2,3:2|1:2,0:0:0:0:
276,91,211047,5,0,3:2:0:0:
395,62,211458,5,0,3:2:0:0:
268,209,211766,5,0,1:2:0:0:
246,217,211869,1,8,1:2:0:0:
129,324,212074,5,8,0:3:0:0:
26,257,212280,5,4,0:3:0:0:
50,153,212485,5,4,0:3:0:0:
118,120,212690,6,0,P|133:61|110:17,1,97.9999970092774,6|0,3:2|0:2,0:0:0:0:
26,257,213101,2,0,P|111:240|239:219,1,195.999994018555,2|10,3:2|1:2,0:0:0:0:
463,152,213923,1,0,3:0:0:0:
351,98,214128,5,2,1:2:0:0:
324,103,214231,1,0,1:2:0:0:
312,129,214334,2,0,P|324:189|372:215,1,97.9999970092774,0|2,3:2|1:2,0:0:0:0:
237,373,214745,2,0,P|282:332|281:278,1,97.9999970092774,2|2,3:2|0:2,0:0:0:0:
401,310,215156,5,8,1:2:0:0:
218,221,215362,5,2,0:2:0:0:
234,142,215567,1,2,3:2:0:0:
172,90,215773,1,2,1:2:0:0:
336,62,215978,6,0,B|279:78|242:40|244:34|214:-6|155:8,1,195.999994018555,2|2,3:2|3:2,0:0:0:0:
93,59,216595,1,2,0:2:0:0:
81,234,216800,2,0,P|94:182|106:123,1,97.9999970092774,8|8,1:2|0:3,0:0:0:0:
256,160,217211,5,4,0:3:0:0:
320,254,217417,5,4,0:3:0:0:
272,320,217622,5,4,3:2:0:0:
256,192,217725,12,0,219060,0:0:0:0:
256,192,219265,5,2,0:2:0:0:
256,192,220909,5,2,0:2:0:0:
256,192,222553,5,2,0:2:0:0:
145,339,224813,5,0,3:2:0:0:
123,347,224916,1,0,3:2:0:0:
106,330,225019,1,4,1:2:0:0:
135,195,225224,5,8,0:3:0:0:
226,120,225430,5,4,0:3:0:0:
323,136,225635,5,4,0:3:0:0:
362,203,225841,6,0,B|391:285|309:263|345:361,1,146.999995513916,6|0,3:2|0:2,0:0:0:0:
334,366,226251,2,0,P|387:340|457:321,1,97.9999970092774,2|0,3:2|0:2,0:0:0:0:
281,225,226662,2,0,P|219:217|175:329,1,195.999994018555,10|2,1:2|3:2,0:0:0:0:
24,118,227279,5,0,1:2:0:0:
2,153,227382,1,0,1:2:0:0:
25,182,227484,2,0,P|84:168|152:160,1,97.9999970092774,0|0,3:2|0:2,0:0:0:0:
248,43,227895,2,0,P|240:91|229:139,1,97.9999970092774,2|0,3:2|0:2,0:0:0:0:
91,261,228306,1,8,1:2:0:0:
422,191,228717,5,2,3:2:0:0:
333,139,228923,1,0,1:2:0:0:
227,327,229128,2,0,P|299:310|372:303,1,146.999995513916,2|0,3:2|0:2,0:0:0:0:
402,295,229539,2,0,P|408:342|374:375,1,97.9999970092774,2|0,3:2|0:2,0:0:0:0:
293,216,229950,2,0,B|278:161|328:136|334:134|340:131|385:107|367:50,1,195.999994018555,10|2,1:2|3:2,0:0:0:0:
169,11,230567,5,0,1:2:0:0:
160,49,230670,1,0,1:2:0:0:
191,76,230772,2,0,P|256:77|301:40,1,97.9999970092774,0|0,3:2|0:2,0:0:0:0:
473,224,231183,2,0,P|429:204|381:209,1,97.9999970092774,2|0,3:2|0:2,0:0:0:0:
206,164,231594,1,8,1:2:0:0:
341,352,232005,5,2,3:2:0:0:
415,296,232210,1,0,1:2:0:0:
321,130,232416,2,0,P|290:196|299:268,1,146.999995513916,6|0,3:2|0:2,0:0:0:0:
276,295,232827,2,0,P|230:278|183:263,1,97.9999970092774,2|0,3:2|0:2,0:0:0:0:
113,195,233238,2,0,P|159:178|206:163,1,97.9999970092774,10|0,1:2|0:2,0:0:0:0:
200,365,233649,5,2,3:2:0:0:
30,357,233854,1,0,1:2:0:0:
0,343,233957,1,0,1:2:0:0:
1,309,234060,2,0,P|39:279|87:282,1,97.9999970092774,0|0,3:2|0:2,0:0:0:0:
200,365,234471,2,0,B|232:379|268:366|286:338|286:338|304:308|341:298|371:311,1,195.999994018555,2|8,3:2|1:2,0:0:0:0:
371,311,235293,2,0,P|378:252|392:199,1,97.9999970092774,2|0,3:2|1:2,0:0:0:0:
341,51,235704,6,0,P|328:140|238:145,1,195.999994018555,2|0,3:2|3:2,0:0:0:0:
238,145,236320,1,0,0:2:0:0:
47,251,236525,2,0,P|59:161|149:156,1,195.999994018555,10|0,1:2|3:2,0:0:0:0:
272,313,237142,5,0,3:2:0:0:
253,335,237245,1,0,3:2:0:0:
226,322,237347,2,0,P|215:274|209:225,1,97.9999970092774,6|8,1:2|0:3,0:0:0:0:
148,155,237758,2,0,P|184:121|223:91,1,97.9999970092774,2|4,3:2|0:3,0:0:0:0:
237,47,238067,1,4,0:3:0:0:
283,36,238169,2,0,P|330:50|375:69,1,97.9999970092774,2|8,3:2|0:3,0:0:0:0:
420,132,238580,1,4,0:3:0:0:
385,201,238786,1,4,0:3:0:0:
444,380,238991,6,0,P|476:318|433:265,1,146.999995513916,6|0,3:2|0:2,0:0:0:0:
404,280,239402,2,0,B|358:285|364:305|312:313,1,97.9999970092774,2|0,3:2|0:2,0:0:0:0:
190,384,239813,2,0,P|226:288|230:178,1,195.999994018555,10|2,1:2|3:2,0:0:0:0:
71,76,240430,5,0,1:2:0:0:
90,51,240532,1,0,1:2:0:0:
119,61,240635,2,0,P|142:126|157:178,1,97.9999970092774,0|0,3:2|0:2,0:0:0:0:
324,198,241046,2,0,P|339:151|355:105,1,97.9999970092774,2|0,3:2|0:2,0:0:0:0:
157,241,241457,1,8,1:2:0:0:
423,183,241868,5,2,3:2:0:0:
259,119,242073,1,0,1:2:0:0:
359,18,242279,2,0,B|416:14|433:50|431:54|462:92|517:76,1,146.999995513916,2|0,3:2|0:2,0:0:0:0:
510,63,242690,2,0,P|494:103|498:172,1,97.9999970092774,2|0,3:2|0:2,0:0:0:0:
492,384,243101,2,0,P|470:283|379:272,1,195.999994018555,10|2,1:2|3:2,0:0:0:0:
254,358,243717,5,0,1:2:0:0:
277,384,243820,1,0,1:2:0:0:
314,375,243923,2,0,P|362:364|419:354,1,97.9999970092774,0|0,3:2|0:2,0:0:0:0:
314,179,244334,2,0,P|305:227|294:275,1,97.9999970092774,2|0,3:2|0:2,0:0:0:0:
492,253,244745,1,8,1:2:0:0:
212,197,245156,5,2,3:2:0:0:
391,118,245361,1,0,1:2:0:0:
284,35,245567,2,0,P|300:107|313:179,1,146.999995513916,6|0,3:2|0:2,0:0:0:0:
295,204,245977,2,0,P|353:209|387:241,1,97.9999970092774,2|0,3:2|0:2,0:0:0:0:
182,87,246388,2,0,P|143:116|95:117,1,97.9999970092774,10|0,1:2|0:2,0:0:0:0:
16,215,246799,5,2,3:2:0:0:
191,365,247005,1,0,1:2:0:0:
198,331,247108,1,0,1:2:0:0:
172,308,247210,2,0,P|108:321|53:330,1,97.9999970092774,0|0,3:2|0:2,0:0:0:0:
203,182,247621,2,0,B|259:167|293:207|291:208|327:253|381:239,1,195.999994018555,2|8,3:2|1:2,0:0:0:0:
381,239,248443,2,0,P|371:191|362:143,1,97.9999970092774,2|0,3:2|1:2,0:0:0:0:
488,261,248854,6,0,P|419:271|293:328,1,195.999994018555,6|0,3:2|3:2,0:0:0:0:
303,320,249471,1,0,0:2:0:0:
83,170,249676,2,0,P|180:152|268:110,1,195.999994018555,10|0,1:2|3:2,0:0:0:0:
155,331,250293,5,2,0:0:0:0:
128,329,250395,1,2,0:0:0:0:
115,304,250498,2,0,B|142:257|214:252|249:309|233:352|233:352|286:305|287:215|233:192|233:192|182:171|157:123|160:61|174:-12|305:-18|349:15|361:93|314:131|268:110,1,783.999976074219,6|0,3:2|0:0,0:0:0:0:
