osu file format v14

[General]
AudioFilename: audio.mp3
AudioLeadIn: 0
PreviewTime: -1
Countdown: 0
SampleSet: None
StackLeniency: 0.7
Mode: 3
LetterboxInBreaks: 0
SpecialStyle: 0
WidescreenStoryboard: 0

[Editor]
Bookmarks: 77713,110943,140482,147867,162636,184559,184790,225405,227251,227713
DistanceSpacing: 1.1
BeatDivisor: 4
GridSize: 8
TimelineZoom: 2.5

[Metadata]
Title:Crunchy Crown Coaster
TitleUnicode:Crunchy Crown Coaster
Artist:kobaryo
ArtistUnicode:kobaryo
Creator:Div
Version:
Source:
Tags:STARSHIP'S TOY BOX! DJ Genki c94
BeatmapID:1929066
BeatmapSetID:923724

[Difficulty]
HPDrainRate:9
CircleSize:4
OverallDifficulty:9
ApproachRate:5
SliderMultiplier:1.6
SliderTickRate:1

[Events]
//Background and Video events
0,0,"maxresdefault (1).jpg",0,0
//Break Periods
//Storyboard Layer 0 (Background)
//Storyboard Layer 1 (Fail)
//Storyboard Layer 2 (Pass)
//Storyboard Layer 3 (Foreground)
//Storyboard Sound Samples

[TimingPoints]
3867,230.769230769231,4,2,0,30,1,0
33405,-100,4,2,0,30,0,1
40790,-100,4,2,0,30,0,0
88790,-100,4,2,0,30,0,1
103097,-100,4,2,0,30,0,0
103559,-100,4,2,0,30,0,1
117405,-100,4,2,0,30,0,0
184790,-100,4,2,0,30,0,1
197713,-100,4,2,0,30,0,0
199559,-100,4,2,0,30,0,1
212482,-100,4,2,0,30,0,0
214328,-100,4,2,0,30,0,1
228174,-100,4,2,0,30,0,0

[HitObjects]
448,192,1559,128,0,3867:0:0:0:0:
64,192,3867,1,0,0:0:0:0:
192,192,3867,128,0,4097:0:0:0:0:
320,192,4097,1,0,0:0:0:0:
448,192,4213,1,0,0:0:0:0:
64,192,4213,1,0,0:0:0:0:
192,192,4328,1,0,0:0:0:0:
320,192,4328,128,0,4559:0:0:0:0:
448,192,4559,1,0,0:0:0:0:
192,192,4674,1,0,0:0:0:0:
64,192,4674,1,0,0:0:0:0:
320,192,4790,1,0,0:0:0:0:
448,192,4790,1,0,0:0:0:0:
192,192,4905,1,0,0:0:0:0:
64,192,5020,1,0,0:0:0:0:
448,192,5020,1,0,0:0:0:0:
320,192,5136,1,0,0:0:0:0:
192,192,5136,1,0,0:0:0:0:
64,192,5251,1,0,0:0:0:0:
448,192,5251,1,0,0:0:0:0:
192,192,5367,1,0,0:0:0:0:
64,192,5482,128,0,5713:0:0:0:0:
320,192,5482,1,0,0:0:0:0:
448,192,5713,1,0,0:0:0:0:
320,192,5713,128,0,5943:0:0:0:0:
64,192,5943,1,0,0:0:0:0:
192,192,6059,1,0,0:0:0:0:
448,192,6059,1,0,0:0:0:0:
320,192,6174,1,0,0:0:0:0:
64,192,6174,128,0,6405:0:0:0:0:
192,192,6405,1,0,0:0:0:0:
320,192,6520,1,0,0:0:0:0:
448,192,6520,1,0,0:0:0:0:
64,192,6636,1,0,0:0:0:0:
192,192,6636,1,0,0:0:0:0:
320,192,6751,1,0,0:0:0:0:
448,192,6867,1,0,0:0:0:0:
64,192,6867,1,0,0:0:0:0:
448,192,6982,1,0,0:0:0:0:
64,192,7097,1,0,0:0:0:0:
192,192,7097,1,0,0:0:0:0:
192,192,7213,1,0,0:0:0:0:
448,192,7328,1,0,0:0:0:0:
320,192,7328,1,0,0:0:0:0:
64,192,7443,1,0,0:0:0:0:
192,192,7559,1,0,0:0:0:0:
448,192,7559,1,0,0:0:0:0:
320,192,7674,128,0,7905:0:0:0:0:
64,192,7905,1,0,0:0:0:0:
320,192,8020,1,0,0:0:0:0:
448,192,8020,128,0,8251:0:0:0:0:
64,192,8251,1,0,0:0:0:0:
320,192,8367,1,0,0:0:0:0:
192,192,8367,1,0,0:0:0:0:
448,192,8482,1,0,0:0:0:0:
64,192,8482,1,0,0:0:0:0:
320,192,8597,1,0,0:0:0:0:
192,192,8713,1,0,0:0:0:0:
64,192,8713,1,0,0:0:0:0:
320,192,8828,1,0,0:0:0:0:
448,192,8828,1,0,0:0:0:0:
192,192,8943,1,0,0:0:0:0:
64,192,8943,1,0,0:0:0:0:
320,192,9059,1,0,0:0:0:0:
448,192,9174,1,0,0:0:0:0:
192,192,9174,1,0,0:0:0:0:
64,192,9290,1,0,0:0:0:0:
320,192,9405,1,0,0:0:0:0:
448,192,9405,128,0,9867:0:0:0:0:
64,192,9636,1,0,0:0:0:0:
192,192,9751,1,0,0:0:0:0:
64,192,9867,128,0,10097:0:0:0:0:
320,192,9867,1,0,0:0:0:0:
448,192,9982,1,0,0:0:0:0:
320,192,10097,128,0,10328:0:0:0:0:
192,192,10097,1,0,0:0:0:0:
448,192,10213,1,0,0:0:0:0:
192,192,10328,1,0,0:0:0:0:
64,192,10328,1,0,0:0:0:0:
448,192,10443,1,0,0:0:0:0:
192,192,10559,128,0,11020:0:0:0:0:
320,192,10559,1,0,0:0:0:0:
64,192,10674,1,0,0:0:0:0:
320,192,10790,1,0,0:0:0:0:
448,192,10790,1,0,0:0:0:0:
64,192,10905,1,0,0:0:0:0:
320,192,11020,128,0,11251:0:0:0:0:
448,192,11020,1,0,0:0:0:0:
64,192,11136,1,0,0:0:0:0:
64,192,11251,1,0,0:0:0:0:
192,192,11251,1,0,0:0:0:0:
448,192,11251,128,0,11482:0:0:0:0:
320,192,11367,1,0,0:0:0:0:
192,192,11482,1,0,0:0:0:0:
64,192,11597,1,0,0:0:0:0:
448,192,11597,1,0,0:0:0:0:
192,192,11713,128,0,11943:0:0:0:0:
320,192,11713,1,0,0:0:0:0:
448,192,11828,1,0,0:0:0:0:
64,192,11943,1,0,0:0:0:0:
320,192,12059,1,0,0:0:0:0:
448,192,12059,1,0,0:0:0:0:
64,192,12174,1,0,0:0:0:0:
192,192,12174,1,0,0:0:0:0:
320,192,12290,1,0,0:0:0:0:
448,192,12405,1,0,0:0:0:0:
64,192,12405,1,0,0:0:0:0:
320,192,12520,1,0,0:0:0:0:
192,192,12520,1,0,0:0:0:0:
448,192,12636,1,0,0:0:0:0:
64,192,12636,1,0,0:0:0:0:
192,192,12751,1,0,0:0:0:0:
448,192,12867,128,0,13097:0:0:0:0:
64,192,12867,1,0,0:0:0:0:
320,192,12982,1,0,0:0:0:0:
64,192,13097,1,0,0:0:0:0:
192,192,13097,128,0,13328:0:0:0:0:
320,192,13213,1,0,0:0:0:0:
448,192,13328,1,0,0:0:0:0:
320,192,13443,1,0,0:0:0:0:
64,192,13443,1,0,0:0:0:0:
192,192,13559,1,0,0:0:0:0:
448,192,13559,128,0,13790:0:0:0:0:
64,192,13674,1,0,0:0:0:0:
320,192,13790,1,0,0:0:0:0:
192,192,13905,1,0,0:0:0:0:
64,192,13905,1,0,0:0:0:0:
448,192,14020,1,0,0:0:0:0:
320,192,14020,1,0,0:0:0:0:
192,192,14136,1,0,0:0:0:0:
448,192,14251,1,0,0:0:0:0:
64,192,14251,1,0,0:0:0:0:
64,192,14367,1,0,0:0:0:0:
448,192,14482,1,0,0:0:0:0:
320,192,14482,1,0,0:0:0:0:
320,192,14597,1,0,0:0:0:0:
64,192,14713,1,0,0:0:0:0:
192,192,14713,1,0,0:0:0:0:
448,192,14828,1,0,0:0:0:0:
320,192,14943,1,0,0:0:0:0:
64,192,14943,1,0,0:0:0:0:
192,192,15059,128,0,15290:0:0:0:0:
64,192,15174,1,0,0:0:0:0:
448,192,15290,1,0,0:0:0:0:
320,192,15290,1,0,0:0:0:0:
192,192,15405,1,0,0:0:0:0:
64,192,15405,128,0,15636:0:0:0:0:
320,192,15520,1,0,0:0:0:0:
448,192,15636,1,0,0:0:0:0:
192,192,15751,1,0,0:0:0:0:
320,192,15751,1,0,0:0:0:0:
64,192,15867,1,0,0:0:0:0:
448,192,15867,1,0,0:0:0:0:
192,192,15982,1,0,0:0:0:0:
320,192,16097,1,0,0:0:0:0:
448,192,16097,1,0,0:0:0:0:
64,192,16213,1,0,0:0:0:0:
192,192,16213,1,0,0:0:0:0:
320,192,16328,1,0,0:0:0:0:
448,192,16328,1,0,0:0:0:0:
192,192,16443,1,0,0:0:0:0:
320,192,16559,1,0,0:0:0:0:
64,192,16559,1,0,0:0:0:0:
448,192,16674,1,0,0:0:0:0:
64,192,16790,128,0,17251:0:0:0:0:
192,192,16790,1,0,0:0:0:0:
320,192,16905,1,0,0:0:0:0:
448,192,17020,1,0,0:0:0:0:
320,192,17136,1,0,0:0:0:0:
448,192,17251,128,0,17482:0:0:0:0:
192,192,17251,1,0,0:0:0:0:
64,192,17367,1,0,0:0:0:0:
192,192,17482,128,0,17713:0:0:0:0:
320,192,17482,1,0,0:0:0:0:
448,192,17597,1,0,0:0:0:0:
320,192,17713,1,0,0:0:0:0:
64,192,17713,1,0,0:0:0:0:
192,192,17828,1,0,0:0:0:0:
320,192,17943,128,0,18405:0:0:0:0:
64,192,17943,1,0,0:0:0:0:
448,192,18059,1,0,0:0:0:0:
192,192,18174,1,0,0:0:0:0:
64,192,18174,1,0,0:0:0:0:
448,192,18290,1,0,0:0:0:0:
192,192,18405,128,0,18636:0:0:0:0:
64,192,18405,1,0,0:0:0:0:
448,192,18520,1,0,0:0:0:0:
448,192,18636,1,0,0:0:0:0:
320,192,18636,1,0,0:0:0:0:
64,192,18636,1,0,0:0:0:0:
320,192,18982,128,0,19097:0:0:0:0:
64,192,19097,128,0,19213:0:0:0:0:
448,192,19213,128,0,19328:0:0:0:0:
320,192,19328,1,0,0:0:0:0:
192,192,19386,1,0,0:0:0:0:
320,192,19443,1,0,0:0:0:0:
448,192,19443,1,0,0:0:0:0:
64,192,19443,1,0,0:0:0:0:
64,192,19674,1,0,0:0:0:0:
448,192,19674,1,0,0:0:0:0:
192,192,19674,1,0,0:0:0:0:
64,192,19905,1,0,0:0:0:0:
192,192,19905,1,0,0:0:0:0:
320,192,19905,1,0,0:0:0:0:
64,192,20136,1,0,0:0:0:0:
192,192,20136,1,0,0:0:0:0:
64,192,20251,1,0,0:0:0:0:
320,192,20251,1,0,0:0:0:0:
448,192,20251,1,0,0:0:0:0:
320,192,20367,1,0,0:0:0:0:
192,192,20482,1,0,0:0:0:0:
64,192,20482,1,0,0:0:0:0:
448,192,20482,1,0,0:0:0:0:
192,192,20713,128,0,20828:0:0:0:0:
320,192,20828,128,0,20943:0:0:0:0:
448,192,20943,128,0,21059:0:0:0:0:
64,192,21059,128,0,21174:0:0:0:0:
320,192,21174,1,0,0:0:0:0:
192,192,21290,1,0,0:0:0:0:
448,192,21290,1,0,0:0:0:0:
64,192,21290,1,0,0:0:0:0:
64,192,21520,1,0,0:0:0:0:
192,192,21520,1,0,0:0:0:0:
448,192,21520,1,0,0:0:0:0:
64,192,21636,1,0,0:0:0:0:
448,192,21636,1,0,0:0:0:0:
320,192,21636,1,0,0:0:0:0:
64,192,21867,1,0,0:0:0:0:
192,192,21867,1,0,0:0:0:0:
320,192,21867,1,0,0:0:0:0:
192,192,22097,1,0,0:0:0:0:
320,192,22097,1,0,0:0:0:0:
448,192,22097,1,0,0:0:0:0:
64,192,22328,1,0,0:0:0:0:
192,192,22328,1,0,0:0:0:0:
448,192,22328,1,0,0:0:0:0:
192,192,22559,1,0,0:0:0:0:
448,192,22674,128,0,22790:0:0:0:0:
64,192,22790,128,0,22905:0:0:0:0:
320,192,22905,1,0,0:0:0:0:
192,192,23020,1,0,0:0:0:0:
64,192,23136,1,0,0:0:0:0:
448,192,23136,1,0,0:0:0:0:
320,192,23136,1,0,0:0:0:0:
64,192,23367,1,0,0:0:0:0:
192,192,23367,1,0,0:0:0:0:
448,192,23367,1,0,0:0:0:0:
320,192,23597,1,0,0:0:0:0:
192,192,23597,1,0,0:0:0:0:
64,192,23597,1,0,0:0:0:0:
320,192,23828,1,0,0:0:0:0:
448,192,23828,1,0,0:0:0:0:
448,192,23943,1,0,0:0:0:0:
192,192,23943,1,0,0:0:0:0:
64,192,23943,1,0,0:0:0:0:
192,192,24059,1,0,0:0:0:0:
64,192,24174,1,0,0:0:0:0:
320,192,24174,1,0,0:0:0:0:
448,192,24174,1,0,0:0:0:0:
192,192,24405,128,0,24520:0:0:0:0:
320,192,24520,128,0,24636:0:0:0:0:
64,192,24636,128,0,24751:0:0:0:0:
448,192,24751,128,0,24867:0:0:0:0:
192,192,24867,128,0,24982:0:0:0:0:
64,192,24982,1,0,0:0:0:0:
320,192,24982,1,0,0:0:0:0:
448,192,24982,1,0,0:0:0:0:
64,192,25213,1,0,0:0:0:0:
320,192,25213,1,0,0:0:0:0:
448,192,25213,1,0,0:0:0:0:
64,192,25328,1,0,0:0:0:0:
192,192,25328,1,0,0:0:0:0:
448,192,25328,1,0,0:0:0:0:
448,192,25559,1,0,0:0:0:0:
320,192,25559,1,0,0:0:0:0:
192,192,25559,1,0,0:0:0:0:
320,192,25790,1,0,0:0:0:0:
192,192,25790,1,0,0:0:0:0:
64,192,25790,1,0,0:0:0:0:
448,192,26020,1,0,0:0:0:0:
320,192,26020,1,0,0:0:0:0:
64,192,26020,1,0,0:0:0:0:
320,192,26251,1,0,0:0:0:0:
448,192,26251,1,0,0:0:0:0:
192,192,26367,128,0,26482:0:0:0:0:
320,192,26482,1,0,0:0:0:0:
448,192,26482,1,0,0:0:0:0:
64,192,26597,128,0,26713:0:0:0:0:
320,192,26713,1,0,0:0:0:0:
448,192,26713,1,0,0:0:0:0:
320,192,26828,128,0,26943:0:0:0:0:
64,192,26943,1,0,0:0:0:0:
192,192,26943,1,0,0:0:0:0:
448,192,26943,1,0,0:0:0:0:
64,192,27174,1,0,0:0:0:0:
192,192,27174,1,0,0:0:0:0:
320,192,27290,128,0,27405:0:0:0:0:
64,192,27405,1,0,0:0:0:0:
192,192,27405,1,0,0:0:0:0:
448,192,27520,128,0,27636:0:0:0:0:
64,192,27636,1,0,0:0:0:0:
192,192,27636,1,0,0:0:0:0:
64,192,27751,128,0,27867:0:0:0:0:
192,192,27867,1,0,0:0:0:0:
320,192,27867,1,0,0:0:0:0:
448,192,27867,1,0,0:0:0:0:
192,192,28097,1,0,0:0:0:0:
320,192,28097,1,0,0:0:0:0:
448,192,28213,128,0,28328:0:0:0:0:
192,192,28328,1,0,0:0:0:0:
320,192,28328,1,0,0:0:0:0:
64,192,28443,128,0,28559:0:0:0:0:
192,192,28559,1,0,0:0:0:0:
320,192,28559,1,0,0:0:0:0:
320,192,28674,128,0,28790:0:0:0:0:
64,192,28790,1,0,0:0:0:0:
448,192,28790,1,0,0:0:0:0:
192,192,28790,1,0,0:0:0:0:
64,192,29020,1,0,0:0:0:0:
448,192,29020,1,0,0:0:0:0:
192,192,29136,128,0,29251:0:0:0:0:
64,192,29251,1,0,0:0:0:0:
448,192,29251,1,0,0:0:0:0:
320,192,29367,128,0,29482:0:0:0:0:
64,192,29482,1,0,0:0:0:0:
448,192,29482,1,0,0:0:0:0:
64,192,29597,128,0,29713:0:0:0:0:
192,192,29713,1,0,0:0:0:0:
448,192,29713,1,0,0:0:0:0:
320,192,29713,1,0,0:0:0:0:
192,192,29943,1,0,0:0:0:0:
448,192,29943,1,0,0:0:0:0:
64,192,30059,128,0,30174:0:0:0:0:
320,192,30174,1,0,0:0:0:0:
448,192,30174,1,0,0:0:0:0:
192,192,30174,1,0,0:0:0:0:
320,192,30290,1,0,0:0:0:0:
64,192,30405,1,0,0:0:0:0:
448,192,30405,1,0,0:0:0:0:
192,192,30520,128,0,30636:0:0:0:0:
64,192,30636,1,0,0:0:0:0:
320,192,30636,1,0,0:0:0:0:
448,192,30636,1,0,0:0:0:0:
320,192,30751,1,0,0:0:0:0:
192,192,30867,1,0,0:0:0:0:
64,192,30867,1,0,0:0:0:0:
320,192,30982,128,0,31097:0:0:0:0:
192,192,31097,1,0,0:0:0:0:
64,192,31097,1,0,0:0:0:0:
448,192,31097,1,0,0:0:0:0:
192,192,31213,1,0,0:0:0:0:
64,192,31328,1,0,0:0:0:0:
320,192,31328,1,0,0:0:0:0:
448,192,31443,128,0,31559:0:0:0:0:
64,192,31559,1,0,0:0:0:0:
192,192,31559,1,0,0:0:0:0:
320,192,31559,1,0,0:0:0:0:
192,192,31674,128,0,31790:0:0:0:0:
64,192,31790,1,0,0:0:0:0:
448,192,31790,1,0,0:0:0:0:
320,192,31790,1,0,0:0:0:0:
320,192,31905,128,0,32020:0:0:0:0:
64,192,32020,1,0,0:0:0:0:
192,192,32020,1,0,0:0:0:0:
448,192,32020,1,0,0:0:0:0:
192,192,32136,128,0,32251:0:0:0:0:
320,192,32251,1,0,0:0:0:0:
448,192,32251,1,0,0:0:0:0:
64,192,32251,1,0,0:0:0:0:
448,192,33174,1,0,0:0:0:0:
64,192,33174,1,0,0:0:0:0:
64,192,33405,1,0,0:0:0:0:
192,192,33405,1,0,0:0:0:0:
320,192,33405,1,0,0:0:0:0:
448,192,33405,1,0,0:0:0:0:
320,192,33520,1,0,0:0:0:0:
192,192,33636,1,0,0:0:0:0:
64,192,33636,1,0,0:0:0:0:
448,192,33636,1,0,0:0:0:0:
192,192,33751,1,0,0:0:0:0:
64,192,33867,1,0,0:0:0:0:
320,192,33867,1,0,0:0:0:0:
448,192,33867,1,0,0:0:0:0:
448,192,33982,1,0,0:0:0:0:
192,192,34097,1,0,0:0:0:0:
320,192,34097,1,0,0:0:0:0:
64,192,34097,128,0,34213:0:0:0:0:
448,192,34213,128,0,34328:0:0:0:0:
64,192,34328,1,0,0:0:0:0:
192,192,34328,1,0,0:0:0:0:
320,192,34328,1,0,0:0:0:0:
192,192,34443,128,0,34559:0:0:0:0:
64,192,34559,1,0,0:0:0:0:
448,192,34559,1,0,0:0:0:0:
320,192,34559,1,0,0:0:0:0:
320,192,34674,1,0,0:0:0:0:
192,192,34790,1,0,0:0:0:0:
64,192,34790,1,0,0:0:0:0:
448,192,34790,1,0,0:0:0:0:
64,192,34905,1,0,0:0:0:0:
192,192,35020,1,0,0:0:0:0:
448,192,35020,1,0,0:0:0:0:
320,192,35136,1,0,0:0:0:0:
448,192,35136,1,0,0:0:0:0:
192,192,35193,1,0,0:0:0:0:
320,192,35251,1,0,0:0:0:0:
448,192,35251,1,0,0:0:0:0:
64,192,35251,1,0,0:0:0:0:
320,192,35367,1,0,0:0:0:0:
64,192,35482,1,0,0:0:0:0:
448,192,35482,1,0,0:0:0:0:
192,192,35482,1,0,0:0:0:0:
64,192,35597,1,0,0:0:0:0:
192,192,35713,1,0,0:0:0:0:
320,192,35713,1,0,0:0:0:0:
448,192,35713,1,0,0:0:0:0:
448,192,35828,1,0,0:0:0:0:
320,192,35943,1,0,0:0:0:0:
192,192,35943,1,0,0:0:0:0:
64,192,35943,1,0,0:0:0:0:
192,192,36059,128,0,36174:0:0:0:0:
64,192,36174,1,0,0:0:0:0:
320,192,36174,1,0,0:0:0:0:
448,192,36174,1,0,0:0:0:0:
448,192,36290,128,0,36405:0:0:0:0:
192,192,36405,1,0,0:0:0:0:
320,192,36405,1,0,0:0:0:0:
64,192,36405,1,0,0:0:0:0:
64,192,36520,1,0,0:0:0:0:
448,192,36636,1,0,0:0:0:0:
320,192,36636,128,0,36751:0:0:0:0:
64,192,36751,1,0,0:0:0:0:
192,192,36780,1,0,0:0:0:0:
448,192,36809,1,0,0:0:0:0:
320,192,36838,1,0,0:0:0:0:
192,192,36867,1,0,0:0:0:0:
64,192,36867,1,0,0:0:0:0:
320,192,36924,1,0,0:0:0:0:
448,192,36924,1,0,0:0:0:0:
192,192,36982,1,0,0:0:0:0:
64,192,36982,1,0,0:0:0:0:
448,192,37040,1,0,0:0:0:0:
320,192,37097,1,0,0:0:0:0:
192,192,37097,1,0,0:0:0:0:
64,192,37097,1,0,0:0:0:0:
320,192,37213,1,0,0:0:0:0:
448,192,37213,1,0,0:0:0:0:
64,192,37328,1,0,0:0:0:0:
192,192,37328,1,0,0:0:0:0:
192,192,37443,1,0,0:0:0:0:
320,192,37443,1,0,0:0:0:0:
448,192,37559,1,0,0:0:0:0:
64,192,37559,1,0,0:0:0:0:
192,192,37674,1,0,0:0:0:0:
320,192,37674,1,0,0:0:0:0:
320,192,37790,1,0,0:0:0:0:
64,192,37790,1,0,0:0:0:0:
64,192,37905,1,0,0:0:0:0:
192,192,37905,1,0,0:0:0:0:
320,192,38020,1,0,0:0:0:0:
448,192,38020,1,0,0:0:0:0:
448,192,38136,1,0,0:0:0:0:
192,192,38136,1,0,0:0:0:0:
192,192,38251,1,0,0:0:0:0:
64,192,38251,1,0,0:0:0:0:
448,192,38367,1,0,0:0:0:0:
64,192,38367,1,0,0:0:0:0:
192,192,38482,1,0,0:0:0:0:
320,192,38482,1,0,0:0:0:0:
448,192,38597,1,0,0:0:0:0:
320,192,38597,1,0,0:0:0:0:
192,192,38713,1,0,0:0:0:0:
64,192,38713,1,0,0:0:0:0:
64,192,38828,1,0,0:0:0:0:
448,192,38828,1,0,0:0:0:0:
192,192,38886,1,0,0:0:0:0:
320,192,38886,1,0,0:0:0:0:
64,192,38943,1,0,0:0:0:0:
448,192,38943,1,0,0:0:0:0:
320,192,39059,1,0,0:0:0:0:
448,192,39059,1,0,0:0:0:0:
64,192,39174,1,0,0:0:0:0:
192,192,39174,1,0,0:0:0:0:
64,192,39290,1,0,0:0:0:0:
448,192,39290,1,0,0:0:0:0:
448,192,39405,1,0,0:0:0:0:
192,192,39405,1,0,0:0:0:0:
320,192,39520,1,0,0:0:0:0:
64,192,39520,1,0,0:0:0:0:
448,192,39636,128,0,39751:0:0:0:0:
64,192,39751,128,0,39867:0:0:0:0:
192,192,39867,1,0,0:0:0:0:
320,192,39924,1,0,0:0:0:0:
448,192,39982,1,0,0:0:0:0:
64,192,40040,1,0,0:0:0:0:
192,192,40097,1,0,0:0:0:0:
320,192,40155,1,0,0:0:0:0:
448,192,40213,1,0,0:0:0:0:
64,192,40270,1,0,0:0:0:0:
448,192,40328,128,0,40443:0:0:0:0:
64,192,40443,128,0,40559:0:0:0:0:
192,192,40443,1,0,0:0:0:0:
448,192,40559,128,0,40674:0:0:0:0:
192,192,40674,128,0,40790:0:0:0:0:
320,192,40674,1,0,0:0:0:0:
64,192,40790,1,0,0:0:0:0:
448,192,40790,1,0,0:0:0:0:
320,192,41020,1,0,0:0:0:0:
448,192,41251,1,0,0:0:0:0:
64,192,41251,1,0,0:0:0:0:
192,192,41482,1,0,0:0:0:0:
320,192,41597,1,0,0:0:0:0:
448,192,41713,1,0,0:0:0:0:
64,192,41713,1,0,0:0:0:0:
192,192,41790,1,0,0:0:0:0:
320,192,41867,1,0,0:0:0:0:
192,192,41943,1,0,0:0:0:0:
64,192,41943,1,0,0:0:0:0:
320,192,42020,1,0,0:0:0:0:
192,192,42097,1,0,0:0:0:0:
320,192,42174,1,0,0:0:0:0:
448,192,42174,1,0,0:0:0:0:
192,192,42251,1,0,0:0:0:0:
320,192,42328,1,0,0:0:0:0:
192,192,42405,1,0,0:0:0:0:
64,192,42405,1,0,0:0:0:0:
320,192,42482,1,0,0:0:0:0:
192,192,42559,1,0,0:0:0:0:
448,192,42636,128,0,42867:0:0:0:0:
64,192,42636,1,0,0:0:0:0:
320,192,42751,1,0,0:0:0:0:
64,192,42867,1,0,0:0:0:0:
192,192,42867,1,0,0:0:0:0:
320,192,42982,1,0,0:0:0:0:
448,192,43097,1,0,0:0:0:0:
192,192,43097,1,0,0:0:0:0:
320,192,43213,1,0,0:0:0:0:
64,192,43328,1,0,0:0:0:0:
448,192,43328,1,0,0:0:0:0:
192,192,43443,1,0,0:0:0:0:
320,192,43559,128,0,44020:0:0:0:0:
64,192,43559,1,0,0:0:0:0:
192,192,43674,1,0,0:0:0:0:
448,192,43790,1,0,0:0:0:0:
64,192,43790,1,0,0:0:0:0:
192,192,43905,1,0,0:0:0:0:
448,192,44020,1,0,0:0:0:0:
64,192,44020,1,0,0:0:0:0:
192,192,44136,1,0,0:0:0:0:
320,192,44251,1,0,0:0:0:0:
448,192,44251,1,0,0:0:0:0:
192,192,44367,1,0,0:0:0:0:
64,192,44482,1,0,0:0:0:0:
320,192,44482,1,0,0:0:0:0:
448,192,44482,1,0,0:0:0:0:
320,192,44597,1,0,0:0:0:0:
192,192,44713,128,0,44828:0:0:0:0:
64,192,44828,128,0,44943:0:0:0:0:
192,192,44943,1,0,0:0:0:0:
320,192,44943,1,0,0:0:0:0:
448,192,44943,1,0,0:0:0:0:
192,192,45059,1,0,0:0:0:0:
320,192,45174,128,0,45290:0:0:0:0:
448,192,45290,128,0,45405:0:0:0:0:
64,192,45405,1,0,0:0:0:0:
320,192,45405,1,0,0:0:0:0:
192,192,45405,1,0,0:0:0:0:
64,192,45520,1,0,0:0:0:0:
192,192,45636,128,0,45751:0:0:0:0:
320,192,45751,128,0,45867:0:0:0:0:
64,192,45867,1,0,0:0:0:0:
192,192,45867,1,0,0:0:0:0:
448,192,45867,1,0,0:0:0:0:
448,192,45982,1,0,0:0:0:0:
320,192,46097,128,0,46213:0:0:0:0:
192,192,46213,128,0,46328:0:0:0:0:
64,192,46328,1,0,0:0:0:0:
320,192,46328,1,0,0:0:0:0:
448,192,46328,1,0,0:0:0:0:
320,192,46443,1,0,0:0:0:0:
64,192,46559,128,0,46674:0:0:0:0:
192,192,46674,128,0,46790:0:0:0:0:
320,192,46674,1,0,0:0:0:0:
64,192,46790,1,0,0:0:0:0:
448,192,46790,1,0,0:0:0:0:
320,192,46905,128,0,47020:0:0:0:0:
192,192,47020,1,0,0:0:0:0:
64,192,47136,1,0,0:0:0:0:
320,192,47136,1,0,0:0:0:0:
448,192,47136,128,0,47251:0:0:0:0:
192,192,47251,1,0,0:0:0:0:
64,192,47309,1,0,0:0:0:0:
320,192,47367,1,0,0:0:0:0:
448,192,47424,1,0,0:0:0:0:
64,192,47482,1,0,0:0:0:0:
192,192,47540,1,0,0:0:0:0:
320,192,47597,1,0,0:0:0:0:
448,192,47655,1,0,0:0:0:0:
64,192,47713,1,0,0:0:0:0:
192,192,47713,128,0,48174:0:0:0:0:
448,192,47943,128,0,48174:0:0:0:0:
320,192,48174,1,0,0:0:0:0:
64,192,48174,128,0,48520:0:0:0:0:
320,192,48520,1,0,0:0:0:0:
64,192,48636,1,0,0:0:0:0:
448,192,48636,1,0,0:0:0:0:
320,192,48751,1,0,0:0:0:0:
192,192,48867,1,0,0:0:0:0:
192,192,48982,1,0,0:0:0:0:
320,192,49097,1,0,0:0:0:0:
64,192,49097,1,0,0:0:0:0:
320,192,49213,1,0,0:0:0:0:
192,192,49328,128,0,49559:0:0:0:0:
320,192,49443,1,0,0:0:0:0:
64,192,49559,1,0,0:0:0:0:
448,192,49559,1,0,0:0:0:0:
320,192,49674,1,0,0:0:0:0:
192,192,49790,1,0,0:0:0:0:
64,192,49790,1,0,0:0:0:0:
320,192,49905,1,0,0:0:0:0:
448,192,49905,1,0,0:0:0:0:
64,192,50020,1,0,0:0:0:0:
448,192,50020,1,0,0:0:0:0:
320,192,50136,1,0,0:0:0:0:
192,192,50251,1,0,0:0:0:0:
64,192,50367,1,0,0:0:0:0:
448,192,50482,1,0,0:0:0:0:
320,192,50482,1,0,0:0:0:0:
320,192,50597,1,0,0:0:0:0:
64,192,50713,1,0,0:0:0:0:
192,192,50828,1,0,0:0:0:0:
448,192,50943,1,0,0:0:0:0:
64,192,50943,1,0,0:0:0:0:
448,192,51059,1,0,0:0:0:0:
192,192,51174,1,0,0:0:0:0:
192,192,51290,1,0,0:0:0:0:
64,192,51405,1,0,0:0:0:0:
320,192,51405,1,0,0:0:0:0:
192,192,51520,1,0,0:0:0:0:
448,192,51636,1,0,0:0:0:0:
320,192,51636,1,0,0:0:0:0:
192,192,51751,1,0,0:0:0:0:
64,192,51751,1,0,0:0:0:0:
64,192,51867,1,0,0:0:0:0:
448,192,51867,1,0,0:0:0:0:
320,192,51982,1,0,0:0:0:0:
192,192,52097,1,0,0:0:0:0:
320,192,52213,1,0,0:0:0:0:
64,192,52328,1,0,0:0:0:0:
448,192,52328,1,0,0:0:0:0:
192,192,52443,1,0,0:0:0:0:
320,192,52559,1,0,0:0:0:0:
192,192,52674,1,0,0:0:0:0:
64,192,52790,1,0,0:0:0:0:
448,192,52790,1,0,0:0:0:0:
320,192,52905,1,0,0:0:0:0:
320,192,53020,1,0,0:0:0:0:
192,192,53136,1,0,0:0:0:0:
64,192,53251,1,0,0:0:0:0:
448,192,53251,1,0,0:0:0:0:
320,192,53367,1,0,0:0:0:0:
192,192,53482,1,0,0:0:0:0:
64,192,53482,1,0,0:0:0:0:
320,192,53597,1,0,0:0:0:0:
448,192,53597,1,0,0:0:0:0:
448,192,53713,1,0,0:0:0:0:
192,192,53713,1,0,0:0:0:0:
64,192,53713,1,0,0:0:0:0:
320,192,53828,1,0,0:0:0:0:
64,192,53943,1,0,0:0:0:0:
448,192,53943,1,0,0:0:0:0:
192,192,54059,1,0,0:0:0:0:
320,192,54174,1,0,0:0:0:0:
448,192,54174,1,0,0:0:0:0:
64,192,54174,1,0,0:0:0:0:
192,192,54290,1,0,0:0:0:0:
64,192,54405,1,0,0:0:0:0:
448,192,54405,1,0,0:0:0:0:
192,192,54520,1,0,0:0:0:0:
320,192,54636,128,0,54982:0:0:0:0:
192,192,54982,1,0,0:0:0:0:
448,192,55097,128,0,55213:0:0:0:0:
320,192,55097,1,0,0:0:0:0:
64,192,55213,128,0,55328:0:0:0:0:
448,192,55328,128,0,55443:0:0:0:0:
320,192,55328,1,0,0:0:0:0:
64,192,55443,128,0,55559:0:0:0:0:
192,192,55559,1,0,0:0:0:0:
448,192,55559,1,0,0:0:0:0:
320,192,55790,1,0,0:0:0:0:
64,192,55905,1,0,0:0:0:0:
320,192,56020,1,0,0:0:0:0:
448,192,56020,1,0,0:0:0:0:
64,192,56251,1,0,0:0:0:0:
448,192,56251,1,0,0:0:0:0:
192,192,56367,1,0,0:0:0:0:
320,192,56367,1,0,0:0:0:0:
64,192,56713,1,0,0:0:0:0:
192,192,56713,1,0,0:0:0:0:
320,192,56828,1,0,0:0:0:0:
448,192,56943,1,0,0:0:0:0:
64,192,56943,1,0,0:0:0:0:
192,192,57059,1,0,0:0:0:0:
320,192,57174,1,0,0:0:0:0:
448,192,57174,1,0,0:0:0:0:
192,192,57290,1,0,0:0:0:0:
64,192,57405,1,0,0:0:0:0:
448,192,57405,1,0,0:0:0:0:
320,192,57520,1,0,0:0:0:0:
192,192,57636,1,0,0:0:0:0:
448,192,57636,1,0,0:0:0:0:
64,192,57751,1,0,0:0:0:0:
192,192,57867,1,0,0:0:0:0:
320,192,57867,1,0,0:0:0:0:
448,192,57982,1,0,0:0:0:0:
192,192,58097,1,0,0:0:0:0:
64,192,58097,1,0,0:0:0:0:
320,192,58213,1,0,0:0:0:0:
448,192,58213,1,0,0:0:0:0:
448,192,58559,1,0,0:0:0:0:
320,192,58559,1,0,0:0:0:0:
192,192,58674,1,0,0:0:0:0:
64,192,58790,1,0,0:0:0:0:
448,192,58790,1,0,0:0:0:0:
320,192,58905,1,0,0:0:0:0:
192,192,59020,1,0,0:0:0:0:
64,192,59020,1,0,0:0:0:0:
320,192,59136,1,0,0:0:0:0:
448,192,59251,1,0,0:0:0:0:
64,192,59251,1,0,0:0:0:0:
192,192,59367,1,0,0:0:0:0:
320,192,59482,1,0,0:0:0:0:
64,192,59482,1,0,0:0:0:0:
448,192,59597,1,0,0:0:0:0:
320,192,59713,1,0,0:0:0:0:
192,192,59713,1,0,0:0:0:0:
64,192,59828,1,0,0:0:0:0:
320,192,59943,1,0,0:0:0:0:
448,192,59943,1,0,0:0:0:0:
192,192,60059,1,0,0:0:0:0:
64,192,60059,1,0,0:0:0:0:
64,192,60405,1,0,0:0:0:0:
448,192,60405,1,0,0:0:0:0:
192,192,60520,1,0,0:0:0:0:
320,192,60636,1,0,0:0:0:0:
448,192,60636,1,0,0:0:0:0:
64,192,60751,1,0,0:0:0:0:
192,192,60867,1,0,0:0:0:0:
448,192,60867,1,0,0:0:0:0:
320,192,60982,1,0,0:0:0:0:
192,192,61097,1,0,0:0:0:0:
64,192,61097,1,0,0:0:0:0:
320,192,61213,1,0,0:0:0:0:
448,192,61328,1,0,0:0:0:0:
64,192,61328,1,0,0:0:0:0:
192,192,61443,1,0,0:0:0:0:
320,192,61559,1,0,0:0:0:0:
448,192,61559,1,0,0:0:0:0:
64,192,61674,1,0,0:0:0:0:
320,192,61790,1,0,0:0:0:0:
192,192,61790,1,0,0:0:0:0:
64,192,61905,1,0,0:0:0:0:
448,192,61905,1,0,0:0:0:0:
64,192,62251,1,0,0:0:0:0:
448,192,62251,1,0,0:0:0:0:
192,192,62367,1,0,0:0:0:0:
320,192,62482,1,0,0:0:0:0:
448,192,62482,1,0,0:0:0:0:
64,192,62597,1,0,0:0:0:0:
192,192,62713,1,0,0:0:0:0:
320,192,62713,1,0,0:0:0:0:
448,192,62828,1,0,0:0:0:0:
320,192,62943,1,0,0:0:0:0:
192,192,62943,1,0,0:0:0:0:
64,192,62943,1,0,0:0:0:0:
448,192,63059,1,0,0:0:0:0:
320,192,63174,1,0,0:0:0:0:
64,192,63174,1,0,0:0:0:0:
192,192,63290,1,0,0:0:0:0:
320,192,63405,1,0,0:0:0:0:
448,192,63405,1,0,0:0:0:0:
192,192,63520,1,0,0:0:0:0:
64,192,63520,1,0,0:0:0:0:
320,192,63636,1,0,0:0:0:0:
448,192,63636,1,0,0:0:0:0:
192,192,63751,1,0,0:0:0:0:
64,192,63751,1,0,0:0:0:0:
320,192,63867,1,0,0:0:0:0:
448,192,63867,1,0,0:0:0:0:
192,192,63982,1,0,0:0:0:0:
64,192,64097,1,0,0:0:0:0:
448,192,64097,1,0,0:0:0:0:
192,192,64213,1,0,0:0:0:0:
320,192,64213,1,0,0:0:0:0:
64,192,64328,1,0,0:0:0:0:
448,192,64328,1,0,0:0:0:0:
320,192,64443,1,0,0:0:0:0:
192,192,64559,1,0,0:0:0:0:
64,192,64559,1,0,0:0:0:0:
448,192,64674,1,0,0:0:0:0:
320,192,64790,1,0,0:0:0:0:
64,192,64790,1,0,0:0:0:0:
192,192,64905,1,0,0:0:0:0:
320,192,65020,1,0,0:0:0:0:
448,192,65020,1,0,0:0:0:0:
192,192,65136,1,0,0:0:0:0:
64,192,65251,1,0,0:0:0:0:
448,192,65251,1,0,0:0:0:0:
320,192,65367,1,0,0:0:0:0:
192,192,65367,1,0,0:0:0:0:
448,192,65482,1,0,0:0:0:0:
64,192,65482,1,0,0:0:0:0:
192,192,65597,1,0,0:0:0:0:
320,192,65597,1,0,0:0:0:0:
64,192,65713,1,0,0:0:0:0:
320,192,65828,1,0,0:0:0:0:
448,192,65828,1,0,0:0:0:0:
192,192,65943,1,0,0:0:0:0:
64,192,65943,1,0,0:0:0:0:
320,192,66059,1,0,0:0:0:0:
64,192,66174,1,0,0:0:0:0:
448,192,66174,1,0,0:0:0:0:
192,192,66290,1,0,0:0:0:0:
320,192,66405,1,0,0:0:0:0:
448,192,66405,1,0,0:0:0:0:
64,192,66520,1,0,0:0:0:0:
192,192,66636,1,0,0:0:0:0:
320,192,66636,1,0,0:0:0:0:
448,192,66751,1,0,0:0:0:0:
192,192,66867,1,0,0:0:0:0:
320,192,66867,1,0,0:0:0:0:
64,192,66982,1,0,0:0:0:0:
448,192,67097,1,0,0:0:0:0:
192,192,67097,1,0,0:0:0:0:
320,192,67213,1,0,0:0:0:0:
192,192,67270,1,0,0:0:0:0:
64,192,67328,1,0,0:0:0:0:
448,192,67386,1,0,0:0:0:0:
192,192,67443,1,0,0:0:0:0:
320,192,67443,1,0,0:0:0:0:
64,192,67559,1,0,0:0:0:0:
192,192,67617,1,0,0:0:0:0:
448,192,67674,1,0,0:0:0:0:
320,192,67674,1,0,0:0:0:0:
192,192,67790,1,0,0:0:0:0:
64,192,67790,1,0,0:0:0:0:
320,192,67905,1,0,0:0:0:0:
448,192,68020,1,0,0:0:0:0:
64,192,68020,1,0,0:0:0:0:
320,192,68136,1,0,0:0:0:0:
192,192,68193,1,0,0:0:0:0:
64,192,68251,1,0,0:0:0:0:
448,192,68251,1,0,0:0:0:0:
320,192,68309,1,0,0:0:0:0:
192,192,68367,1,0,0:0:0:0:
448,192,68482,1,0,0:0:0:0:
320,192,68482,1,0,0:0:0:0:
64,192,68597,1,0,0:0:0:0:
192,192,68597,1,0,0:0:0:0:
448,192,68713,1,0,0:0:0:0:
320,192,68713,1,0,0:0:0:0:
192,192,68828,1,0,0:0:0:0:
64,192,68828,1,0,0:0:0:0:
320,192,68943,1,0,0:0:0:0:
448,192,68943,1,0,0:0:0:0:
192,192,69059,1,0,0:0:0:0:
320,192,69117,1,0,0:0:0:0:
448,192,69174,1,0,0:0:0:0:
64,192,69174,1,0,0:0:0:0:
192,192,69232,1,0,0:0:0:0:
320,192,69290,1,0,0:0:0:0:
64,192,69405,1,0,0:0:0:0:
448,192,69405,1,0,0:0:0:0:
320,192,69463,1,0,0:0:0:0:
192,192,69520,1,0,0:0:0:0:
320,192,69636,1,0,0:0:0:0:
448,192,69636,1,0,0:0:0:0:
448,192,69751,1,0,0:0:0:0:
320,192,69751,1,0,0:0:0:0:
64,192,69867,1,0,0:0:0:0:
192,192,69867,1,0,0:0:0:0:
448,192,69924,1,0,0:0:0:0:
64,192,69982,1,0,0:0:0:0:
320,192,69982,1,0,0:0:0:0:
192,192,70040,1,0,0:0:0:0:
320,192,70097,1,0,0:0:0:0:
448,192,70097,1,0,0:0:0:0:
64,192,70155,1,0,0:0:0:0:
192,192,70213,1,0,0:0:0:0:
448,192,70213,1,0,0:0:0:0:
320,192,70270,1,0,0:0:0:0:
192,192,70328,1,0,0:0:0:0:
64,192,70328,1,0,0:0:0:0:
448,192,70328,1,0,0:0:0:0:
320,192,70559,1,0,0:0:0:0:
64,192,70674,1,0,0:0:0:0:
192,192,70674,1,0,0:0:0:0:
64,192,70790,1,0,0:0:0:0:
320,192,70790,1,0,0:0:0:0:
448,192,70790,1,0,0:0:0:0:
192,192,70905,1,0,0:0:0:0:
320,192,70905,1,0,0:0:0:0:
192,192,71020,1,0,0:0:0:0:
64,192,71136,1,0,0:0:0:0:
448,192,71136,1,0,0:0:0:0:
320,192,71251,1,0,0:0:0:0:
192,192,71367,1,0,0:0:0:0:
320,192,71482,1,0,0:0:0:0:
448,192,71482,1,0,0:0:0:0:
64,192,71597,1,0,0:0:0:0:
448,192,71713,1,0,0:0:0:0:
320,192,71713,1,0,0:0:0:0:
192,192,71713,1,0,0:0:0:0:
192,192,71943,1,0,0:0:0:0:
448,192,72174,1,0,0:0:0:0:
320,192,72174,1,0,0:0:0:0:
64,192,72174,1,0,0:0:0:0:
192,192,72405,1,0,0:0:0:0:
320,192,72520,1,0,0:0:0:0:
448,192,72520,1,0,0:0:0:0:
448,192,72636,1,0,0:0:0:0:
192,192,72636,1,0,0:0:0:0:
64,192,72636,1,0,0:0:0:0:
320,192,72751,1,0,0:0:0:0:
192,192,72751,1,0,0:0:0:0:
64,192,72867,1,0,0:0:0:0:
320,192,72982,1,0,0:0:0:0:
448,192,72982,1,0,0:0:0:0:
64,192,73068,1,0,0:0:0:0:
192,192,73097,1,0,0:0:0:0:
320,192,73126,1,0,0:0:0:0:
448,192,73155,1,0,0:0:0:0:
64,192,73328,1,0,0:0:0:0:
320,192,73328,1,0,0:0:0:0:
192,192,73559,1,0,0:0:0:0:
320,192,73559,1,0,0:0:0:0:
448,192,73559,1,0,0:0:0:0:
64,192,73674,1,0,0:0:0:0:
192,192,73674,1,0,0:0:0:0:
64,192,73790,1,0,0:0:0:0:
448,192,73790,1,0,0:0:0:0:
64,192,74020,1,0,0:0:0:0:
320,192,74020,1,0,0:0:0:0:
192,192,74020,1,0,0:0:0:0:
448,192,74020,1,0,0:0:0:0:
320,192,74136,1,0,0:0:0:0:
320,192,74251,1,0,0:0:0:0:
192,192,74367,1,0,0:0:0:0:
64,192,74367,1,0,0:0:0:0:
64,192,74482,1,0,0:0:0:0:
320,192,74482,1,0,0:0:0:0:
448,192,74482,1,0,0:0:0:0:
192,192,74597,1,0,0:0:0:0:
320,192,74597,1,0,0:0:0:0:
64,192,74713,1,0,0:0:0:0:
448,192,74828,1,0,0:0:0:0:
192,192,74828,1,0,0:0:0:0:
320,192,74943,1,0,0:0:0:0:
192,192,75059,1,0,0:0:0:0:
64,192,75174,1,0,0:0:0:0:
448,192,75174,1,0,0:0:0:0:
320,192,75290,1,0,0:0:0:0:
64,192,75405,1,0,0:0:0:0:
448,192,75405,1,0,0:0:0:0:
192,192,75405,1,0,0:0:0:0:
320,192,75520,1,0,0:0:0:0:
64,192,75636,1,0,0:0:0:0:
192,192,75636,1,0,0:0:0:0:
448,192,75751,1,0,0:0:0:0:
64,192,75867,1,0,0:0:0:0:
192,192,75867,1,0,0:0:0:0:
320,192,75867,1,0,0:0:0:0:
448,192,76097,1,0,0:0:0:0:
64,192,76213,1,0,0:0:0:0:
192,192,76213,1,0,0:0:0:0:
320,192,76328,1,0,0:0:0:0:
448,192,76328,1,0,0:0:0:0:
64,192,76328,1,0,0:0:0:0:
192,192,76443,1,0,0:0:0:0:
320,192,76443,1,0,0:0:0:0:
448,192,76559,1,0,0:0:0:0:
192,192,76674,1,0,0:0:0:0:
64,192,76674,1,0,0:0:0:0:
320,192,76790,1,0,0:0:0:0:
320,192,76905,1,0,0:0:0:0:
64,192,77020,1,0,0:0:0:0:
448,192,77020,1,0,0:0:0:0:
320,192,77136,1,0,0:0:0:0:
448,192,77251,1,0,0:0:0:0:
64,192,77251,1,0,0:0:0:0:
192,192,77251,1,0,0:0:0:0:
192,192,77367,1,0,0:0:0:0:
320,192,77367,1,0,0:0:0:0:
320,192,77482,1,0,0:0:0:0:
64,192,77482,1,0,0:0:0:0:
192,192,77597,1,0,0:0:0:0:
64,192,77713,1,0,0:0:0:0:
448,192,77713,1,0,0:0:0:0:
320,192,77713,1,0,0:0:0:0:
192,192,77713,1,0,0:0:0:0:
192,192,77943,1,0,0:0:0:0:
448,192,78059,1,0,0:0:0:0:
320,192,78059,1,0,0:0:0:0:
448,192,78174,1,0,0:0:0:0:
192,192,78174,1,0,0:0:0:0:
64,192,78174,1,0,0:0:0:0:
320,192,78290,1,0,0:0:0:0:
192,192,78290,1,0,0:0:0:0:
64,192,78405,1,0,0:0:0:0:
448,192,78520,1,0,0:0:0:0:
64,192,78520,1,0,0:0:0:0:
320,192,78636,1,0,0:0:0:0:
320,192,78751,1,0,0:0:0:0:
192,192,78867,1,0,0:0:0:0:
64,192,78867,1,0,0:0:0:0:
448,192,78982,1,0,0:0:0:0:
64,192,79097,1,0,0:0:0:0:
192,192,79097,1,0,0:0:0:0:
320,192,79097,1,0,0:0:0:0:
320,192,79213,1,0,0:0:0:0:
64,192,79328,1,0,0:0:0:0:
192,192,79443,1,0,0:0:0:0:
448,192,79559,1,0,0:0:0:0:
320,192,79559,1,0,0:0:0:0:
64,192,79559,1,0,0:0:0:0:
192,192,79674,1,0,0:0:0:0:
320,192,79790,1,0,0:0:0:0:
192,192,79905,1,0,0:0:0:0:
64,192,79905,1,0,0:0:0:0:
64,192,80020,1,0,0:0:0:0:
320,192,80020,1,0,0:0:0:0:
448,192,80020,1,0,0:0:0:0:
192,192,80136,1,0,0:0:0:0:
320,192,80136,1,0,0:0:0:0:
448,192,80251,1,0,0:0:0:0:
192,192,80367,1,0,0:0:0:0:
64,192,80367,1,0,0:0:0:0:
448,192,80453,1,0,0:0:0:0:
320,192,80482,1,0,0:0:0:0:
192,192,80511,1,0,0:0:0:0:
64,192,80540,1,0,0:0:0:0:
448,192,80713,1,0,0:0:0:0:
192,192,80713,1,0,0:0:0:0:
64,192,80828,1,0,0:0:0:0:
320,192,80943,1,0,0:0:0:0:
192,192,80943,1,0,0:0:0:0:
64,192,80943,1,0,0:0:0:0:
448,192,81059,1,0,0:0:0:0:
320,192,81059,1,0,0:0:0:0:
448,192,81174,1,0,0:0:0:0:
192,192,81174,1,0,0:0:0:0:
64,192,81290,1,0,0:0:0:0:
448,192,81405,1,0,0:0:0:0:
192,192,81405,1,0,0:0:0:0:
320,192,81405,1,0,0:0:0:0:
64,192,81405,1,0,0:0:0:0:
192,192,81520,1,0,0:0:0:0:
192,192,81636,1,0,0:0:0:0:
320,192,81751,1,0,0:0:0:0:
448,192,81751,1,0,0:0:0:0:
448,192,81867,1,0,0:0:0:0:
192,192,81867,1,0,0:0:0:0:
64,192,81867,1,0,0:0:0:0:
320,192,81982,1,0,0:0:0:0:
192,192,81982,1,0,0:0:0:0:
448,192,82097,1,0,0:0:0:0:
64,192,82213,1,0,0:0:0:0:
320,192,82213,1,0,0:0:0:0:
192,192,82328,1,0,0:0:0:0:
320,192,82443,1,0,0:0:0:0:
448,192,82559,1,0,0:0:0:0:
64,192,82559,1,0,0:0:0:0:
192,192,82674,1,0,0:0:0:0:
448,192,82790,1,0,0:0:0:0:
64,192,82790,1,0,0:0:0:0:
320,192,82790,1,0,0:0:0:0:
192,192,82905,1,0,0:0:0:0:
448,192,83020,1,0,0:0:0:0:
320,192,83020,1,0,0:0:0:0:
192,192,83136,1,0,0:0:0:0:
448,192,83251,1,0,0:0:0:0:
320,192,83251,1,0,0:0:0:0:
64,192,83251,1,0,0:0:0:0:
64,192,83482,1,0,0:0:0:0:
448,192,83597,1,0,0:0:0:0:
320,192,83597,1,0,0:0:0:0:
192,192,83713,1,0,0:0:0:0:
64,192,83713,1,0,0:0:0:0:
448,192,83713,1,0,0:0:0:0:
320,192,83828,1,0,0:0:0:0:
192,192,83828,1,0,0:0:0:0:
64,192,83943,1,0,0:0:0:0:
320,192,84059,1,0,0:0:0:0:
448,192,84059,1,0,0:0:0:0:
192,192,84174,1,0,0:0:0:0:
192,192,84290,1,0,0:0:0:0:
448,192,84405,1,0,0:0:0:0:
64,192,84405,1,0,0:0:0:0:
192,192,84520,1,0,0:0:0:0:
448,192,84636,1,0,0:0:0:0:
320,192,84636,1,0,0:0:0:0:
64,192,84693,1,0,0:0:0:0:
192,192,84693,1,0,0:0:0:0:
320,192,84751,1,0,0:0:0:0:
448,192,84751,1,0,0:0:0:0:
192,192,84809,1,0,0:0:0:0:
64,192,84867,1,0,0:0:0:0:
448,192,84867,1,0,0:0:0:0:
320,192,84924,1,0,0:0:0:0:
192,192,84924,1,0,0:0:0:0:
64,192,84982,1,0,0:0:0:0:
448,192,84982,1,0,0:0:0:0:
320,192,85040,1,0,0:0:0:0:
64,192,85097,1,0,0:0:0:0:
448,192,85097,1,0,0:0:0:0:
192,192,85097,1,0,0:0:0:0:
320,192,85213,1,0,0:0:0:0:
64,192,85328,1,0,0:0:0:0:
192,192,85443,1,0,0:0:0:0:
448,192,85559,1,0,0:0:0:0:
64,192,85674,1,0,0:0:0:0:
320,192,85790,1,0,0:0:0:0:
192,192,85905,1,0,0:0:0:0:
64,192,86020,1,0,0:0:0:0:
448,192,86078,1,0,0:0:0:0:
320,192,86136,1,0,0:0:0:0:
64,192,86193,1,0,0:0:0:0:
192,192,86251,1,0,0:0:0:0:
320,192,86309,1,0,0:0:0:0:
448,192,86367,1,0,0:0:0:0:
192,192,86424,1,0,0:0:0:0:
64,192,86482,1,0,0:0:0:0:
320,192,86540,1,0,0:0:0:0:
448,192,86597,1,0,0:0:0:0:
64,192,86655,1,0,0:0:0:0:
192,192,86713,1,0,0:0:0:0:
320,192,86770,1,0,0:0:0:0:
448,192,86828,1,0,0:0:0:0:
192,192,86886,1,0,0:0:0:0:
320,192,86943,1,0,0:0:0:0:
448,192,86943,1,0,0:0:0:0:
64,192,86943,1,0,0:0:0:0:
192,192,87059,1,0,0:0:0:0:
64,192,87174,1,0,0:0:0:0:
448,192,87174,1,0,0:0:0:0:
320,192,87290,1,0,0:0:0:0:
64,192,87405,1,0,0:0:0:0:
448,192,87405,1,0,0:0:0:0:
192,192,87520,1,0,0:0:0:0:
448,192,87636,1,0,0:0:0:0:
64,192,87636,1,0,0:0:0:0:
320,192,87751,1,0,0:0:0:0:
64,192,87867,1,0,0:0:0:0:
448,192,87867,1,0,0:0:0:0:
192,192,87982,1,0,0:0:0:0:
320,192,87982,1,0,0:0:0:0:
64,192,88097,1,0,0:0:0:0:
192,192,88097,1,0,0:0:0:0:
320,192,88213,1,0,0:0:0:0:
448,192,88213,1,0,0:0:0:0:
64,192,88328,1,0,0:0:0:0:
192,192,88328,1,0,0:0:0:0:
320,192,88386,1,0,0:0:0:0:
448,192,88443,1,0,0:0:0:0:
192,192,88443,1,0,0:0:0:0:
64,192,88501,1,0,0:0:0:0:
448,192,88559,1,0,0:0:0:0:
320,192,88588,1,0,0:0:0:0:
64,192,88617,1,0,0:0:0:0:
192,192,88645,1,0,0:0:0:0:
448,192,88674,1,0,0:0:0:0:
320,192,88674,1,0,0:0:0:0:
192,192,88732,1,0,0:0:0:0:
64,192,88790,1,0,0:0:0:0:
320,192,88790,1,0,0:0:0:0:
448,192,88790,1,0,0:0:0:0:
192,192,88905,1,0,0:0:0:0:
448,192,89020,1,0,0:0:0:0:
320,192,89020,1,0,0:0:0:0:
64,192,89020,1,0,0:0:0:0:
448,192,89136,1,0,0:0:0:0:
64,192,89251,1,0,0:0:0:0:
192,192,89251,1,0,0:0:0:0:
320,192,89251,128,0,89367:0:0:0:0:
64,192,89367,128,0,89482:0:0:0:0:
320,192,89482,1,0,0:0:0:0:
448,192,89482,1,0,0:0:0:0:
192,192,89482,1,0,0:0:0:0:
320,192,89597,128,0,89713:0:0:0:0:
64,192,89713,1,0,0:0:0:0:
192,192,89713,1,0,0:0:0:0:
448,192,89713,1,0,0:0:0:0:
192,192,89828,128,0,89943:0:0:0:0:
320,192,89943,128,0,90059:0:0:0:0:
64,192,89943,1,0,0:0:0:0:
448,192,89943,1,0,0:0:0:0:
64,192,90059,128,0,90174:0:0:0:0:
448,192,90174,128,0,90290:0:0:0:0:
192,192,90174,1,0,0:0:0:0:
320,192,90174,1,0,0:0:0:0:
64,192,90290,1,0,0:0:0:0:
448,192,90405,1,0,0:0:0:0:
192,192,90405,1,0,0:0:0:0:
64,192,90405,128,0,90520:0:0:0:0:
320,192,90520,1,0,0:0:0:0:
64,192,90636,1,0,0:0:0:0:
448,192,90636,1,0,0:0:0:0:
192,192,90636,1,0,0:0:0:0:
320,192,90636,1,0,0:0:0:0:
192,192,90751,1,0,0:0:0:0:
64,192,90867,1,0,0:0:0:0:
320,192,90867,1,0,0:0:0:0:
448,192,90867,1,0,0:0:0:0:
64,192,90982,1,0,0:0:0:0:
448,192,91097,1,0,0:0:0:0:
320,192,91097,1,0,0:0:0:0:
192,192,91097,128,0,91213:0:0:0:0:
448,192,91213,128,0,91328:0:0:0:0:
192,192,91328,1,0,0:0:0:0:
64,192,91328,1,0,0:0:0:0:
320,192,91328,1,0,0:0:0:0:
192,192,91443,128,0,91559:0:0:0:0:
448,192,91559,1,0,0:0:0:0:
320,192,91559,1,0,0:0:0:0:
64,192,91559,1,0,0:0:0:0:
320,192,91674,128,0,91790:0:0:0:0:
192,192,91790,128,0,91905:0:0:0:0:
448,192,91790,1,0,0:0:0:0:
64,192,91790,1,0,0:0:0:0:
448,192,91905,128,0,92020:0:0:0:0:
64,192,92020,128,0,92136:0:0:0:0:
320,192,92020,1,0,0:0:0:0:
192,192,92020,1,0,0:0:0:0:
448,192,92136,1,0,0:0:0:0:
320,192,92136,1,0,0:0:0:0:
192,192,92193,1,0,0:0:0:0:
64,192,92193,1,0,0:0:0:0:
448,192,92251,1,0,0:0:0:0:
320,192,92280,1,0,0:0:0:0:
64,192,92309,1,0,0:0:0:0:
192,192,92338,1,0,0:0:0:0:
320,192,92367,1,0,0:0:0:0:
448,192,92367,1,0,0:0:0:0:
192,192,92424,1,0,0:0:0:0:
320,192,92482,1,0,0:0:0:0:
448,192,92482,1,0,0:0:0:0:
64,192,92482,1,0,0:0:0:0:
192,192,92597,1,0,0:0:0:0:
448,192,92713,1,0,0:0:0:0:
320,192,92713,1,0,0:0:0:0:
64,192,92713,1,0,0:0:0:0:
448,192,92828,1,0,0:0:0:0:
64,192,92943,1,0,0:0:0:0:
192,192,92943,1,0,0:0:0:0:
320,192,92943,128,0,93059:0:0:0:0:
64,192,93059,128,0,93174:0:0:0:0:
320,192,93174,1,0,0:0:0:0:
448,192,93174,1,0,0:0:0:0:
192,192,93174,1,0,0:0:0:0:
64,192,93290,1,0,0:0:0:0:
192,192,93290,1,0,0:0:0:0:
64,192,93405,1,0,0:0:0:0:
448,192,93405,1,0,0:0:0:0:
320,192,93405,1,0,0:0:0:0:
192,192,93405,1,0,0:0:0:0:
192,192,93520,128,0,93636:0:0:0:0:
320,192,93636,128,0,93751:0:0:0:0:
64,192,93636,1,0,0:0:0:0:
448,192,93636,1,0,0:0:0:0:
64,192,93751,128,0,93867:0:0:0:0:
448,192,93867,128,0,93982:0:0:0:0:
192,192,93867,1,0,0:0:0:0:
320,192,93867,1,0,0:0:0:0:
64,192,93982,1,0,0:0:0:0:
192,192,93982,1,0,0:0:0:0:
448,192,94097,1,0,0:0:0:0:
64,192,94097,1,0,0:0:0:0:
320,192,94097,1,0,0:0:0:0:
320,192,94213,1,0,0:0:0:0:
64,192,94328,1,0,0:0:0:0:
192,192,94328,1,0,0:0:0:0:
448,192,94328,1,0,0:0:0:0:
320,192,94328,1,0,0:0:0:0:
448,192,94443,1,0,0:0:0:0:
64,192,94443,1,0,0:0:0:0:
64,192,94559,1,0,0:0:0:0:
192,192,94559,1,0,0:0:0:0:
448,192,94559,1,0,0:0:0:0:
192,192,94674,1,0,0:0:0:0:
64,192,94790,1,0,0:0:0:0:
320,192,94790,1,0,0:0:0:0:
448,192,94790,1,0,0:0:0:0:
192,192,94790,1,0,0:0:0:0:
320,192,94905,1,0,0:0:0:0:
448,192,94905,1,0,0:0:0:0:
64,192,95136,1,0,0:0:0:0:
192,192,95136,1,0,0:0:0:0:
448,192,95136,1,0,0:0:0:0:
320,192,95136,1,0,0:0:0:0:
64,192,95251,1,0,0:0:0:0:
320,192,95367,1,0,0:0:0:0:
192,192,95367,1,0,0:0:0:0:
64,192,95482,1,0,0:0:0:0:
192,192,95482,1,0,0:0:0:0:
320,192,95482,1,0,0:0:0:0:
448,192,95482,1,0,0:0:0:0:
64,192,95597,1,0,0:0:0:0:
448,192,95597,1,0,0:0:0:0:
192,192,95655,1,0,0:0:0:0:
320,192,95655,1,0,0:0:0:0:
64,192,95713,1,0,0:0:0:0:
448,192,95713,128,0,95828:0:0:0:0:
192,192,95828,128,0,95943:0:0:0:0:
320,192,95828,1,0,0:0:0:0:
64,192,95943,1,0,0:0:0:0:
320,192,95943,128,0,96059:0:0:0:0:
448,192,95943,1,0,0:0:0:0:
64,192,96059,128,0,96174:0:0:0:0:
192,192,96059,1,0,0:0:0:0:
192,192,96174,1,0,0:0:0:0:
320,192,96174,1,0,0:0:0:0:
448,192,96174,1,0,0:0:0:0:
320,192,96290,1,0,0:0:0:0:
64,192,96405,1,0,0:0:0:0:
192,192,96405,1,0,0:0:0:0:
448,192,96405,1,0,0:0:0:0:
64,192,96520,1,0,0:0:0:0:
448,192,96636,1,0,0:0:0:0:
320,192,96636,1,0,0:0:0:0:
192,192,96636,128,0,96751:0:0:0:0:
448,192,96751,128,0,96867:0:0:0:0:
192,192,96867,1,0,0:0:0:0:
64,192,96867,1,0,0:0:0:0:
320,192,96867,1,0,0:0:0:0:
192,192,96982,128,0,97097:0:0:0:0:
448,192,97097,1,0,0:0:0:0:
320,192,97097,1,0,0:0:0:0:
64,192,97097,1,0,0:0:0:0:
320,192,97213,128,0,97328:0:0:0:0:
192,192,97328,128,0,97443:0:0:0:0:
448,192,97328,1,0,0:0:0:0:
64,192,97328,1,0,0:0:0:0:
448,192,97443,128,0,97559:0:0:0:0:
64,192,97559,128,0,97674:0:0:0:0:
320,192,97559,1,0,0:0:0:0:
192,192,97559,1,0,0:0:0:0:
448,192,97674,1,0,0:0:0:0:
64,192,97790,1,0,0:0:0:0:
320,192,97790,1,0,0:0:0:0:
448,192,97790,1,0,0:0:0:0:
192,192,97905,1,0,0:0:0:0:
448,192,98020,1,0,0:0:0:0:
64,192,98020,1,0,0:0:0:0:
320,192,98020,1,0,0:0:0:0:
192,192,98020,1,0,0:0:0:0:
320,192,98136,1,0,0:0:0:0:
448,192,98251,1,0,0:0:0:0:
192,192,98251,1,0,0:0:0:0:
64,192,98251,1,0,0:0:0:0:
448,192,98367,1,0,0:0:0:0:
64,192,98482,1,0,0:0:0:0:
192,192,98482,1,0,0:0:0:0:
320,192,98482,128,0,98597:0:0:0:0:
64,192,98597,128,0,98713:0:0:0:0:
320,192,98713,1,0,0:0:0:0:
448,192,98713,1,0,0:0:0:0:
192,192,98713,1,0,0:0:0:0:
320,192,98828,128,0,98943:0:0:0:0:
64,192,98943,1,0,0:0:0:0:
192,192,98943,1,0,0:0:0:0:
448,192,98943,1,0,0:0:0:0:
192,192,99059,1,0,0:0:0:0:
320,192,99059,1,0,0:0:0:0:
320,192,99174,1,0,0:0:0:0:
448,192,99174,1,0,0:0:0:0:
64,192,99290,1,0,0:0:0:0:
192,192,99290,1,0,0:0:0:0:
448,192,99405,1,0,0:0:0:0:
320,192,99434,1,0,0:0:0:0:
64,192,99463,1,0,0:0:0:0:
192,192,99492,1,0,0:0:0:0:
320,192,99520,1,0,0:0:0:0:
448,192,99520,1,0,0:0:0:0:
192,192,99578,1,0,0:0:0:0:
64,192,99578,1,0,0:0:0:0:
448,192,99636,1,0,0:0:0:0:
320,192,99665,1,0,0:0:0:0:
64,192,99693,1,0,0:0:0:0:
192,192,99722,1,0,0:0:0:0:
320,192,99751,1,0,0:0:0:0:
448,192,99751,1,0,0:0:0:0:
192,192,99809,1,0,0:0:0:0:
320,192,99867,1,0,0:0:0:0:
448,192,99867,1,0,0:0:0:0:
64,192,99867,1,0,0:0:0:0:
320,192,99982,1,0,0:0:0:0:
64,192,100097,1,0,0:0:0:0:
192,192,100097,1,0,0:0:0:0:
448,192,100097,1,0,0:0:0:0:
64,192,100213,1,0,0:0:0:0:
448,192,100328,1,0,0:0:0:0:
320,192,100328,1,0,0:0:0:0:
192,192,100328,128,0,100443:0:0:0:0:
448,192,100443,128,0,100559:0:0:0:0:
192,192,100559,1,0,0:0:0:0:
64,192,100559,1,0,0:0:0:0:
448,192,100674,1,0,0:0:0:0:
320,192,100674,1,0,0:0:0:0:
448,192,100790,1,0,0:0:0:0:
64,192,100790,1,0,0:0:0:0:
192,192,100790,1,0,0:0:0:0:
320,192,100790,1,0,0:0:0:0:
192,192,100905,128,0,101020:0:0:0:0:
320,192,101020,128,0,101136:0:0:0:0:
64,192,101020,1,0,0:0:0:0:
448,192,101020,1,0,0:0:0:0:
64,192,101136,128,0,101251:0:0:0:0:
448,192,101251,128,0,101367:0:0:0:0:
320,192,101251,1,0,0:0:0:0:
64,192,101367,1,0,0:0:0:0:
192,192,101367,1,0,0:0:0:0:
448,192,101482,1,0,0:0:0:0:
64,192,101482,1,0,0:0:0:0:
320,192,101482,1,0,0:0:0:0:
320,192,101597,1,0,0:0:0:0:
64,192,101713,1,0,0:0:0:0:
192,192,101713,1,0,0:0:0:0:
448,192,101713,1,0,0:0:0:0:
320,192,101713,1,0,0:0:0:0:
448,192,101828,1,0,0:0:0:0:
64,192,101828,1,0,0:0:0:0:
64,192,101943,1,0,0:0:0:0:
192,192,101943,1,0,0:0:0:0:
448,192,101943,1,0,0:0:0:0:
192,192,102059,1,0,0:0:0:0:
64,192,102174,1,0,0:0:0:0:
320,192,102174,1,0,0:0:0:0:
448,192,102174,1,0,0:0:0:0:
192,192,102174,1,0,0:0:0:0:
320,192,102290,1,0,0:0:0:0:
448,192,102290,1,0,0:0:0:0:
192,192,102405,1,0,0:0:0:0:
64,192,102520,1,0,0:0:0:0:
192,192,102520,1,0,0:0:0:0:
448,192,102520,1,0,0:0:0:0:
320,192,102520,1,0,0:0:0:0:
320,192,102636,1,0,0:0:0:0:
64,192,102751,1,0,0:0:0:0:
448,192,102751,1,0,0:0:0:0:
192,192,102809,1,0,0:0:0:0:
320,192,102809,1,0,0:0:0:0:
64,192,102867,1,0,0:0:0:0:
448,192,102867,1,0,0:0:0:0:
320,192,102982,1,0,0:0:0:0:
448,192,102982,1,0,0:0:0:0:
192,192,103040,1,0,0:0:0:0:
64,192,103040,1,0,0:0:0:0:
448,192,103097,128,0,103213:0:0:0:0:
320,192,103097,128,0,103213:0:0:0:0:
64,192,103213,128,0,103328:0:0:0:0:
192,192,103213,128,0,103328:0:0:0:0:
448,192,103328,1,0,0:0:0:0:
320,192,103357,1,0,0:0:0:0:
64,192,103386,1,0,0:0:0:0:
192,192,103415,1,0,0:0:0:0:
448,192,103443,1,0,0:0:0:0:
320,192,103472,1,0,0:0:0:0:
64,192,103501,1,0,0:0:0:0:
320,192,103559,1,0,0:0:0:0:
448,192,103559,1,0,0:0:0:0:
192,192,103559,1,0,0:0:0:0:
192,192,103674,1,0,0:0:0:0:
320,192,103790,128,0,103905:0:0:0:0:
64,192,103790,1,0,0:0:0:0:
448,192,103790,1,0,0:0:0:0:
192,192,103905,128,0,104020:0:0:0:0:
448,192,104020,128,0,104136:0:0:0:0:
64,192,104020,1,0,0:0:0:0:
320,192,104020,1,0,0:0:0:0:
64,192,104136,128,0,104251:0:0:0:0:
192,192,104251,1,0,0:0:0:0:
320,192,104251,1,0,0:0:0:0:
448,192,104251,1,0,0:0:0:0:
320,192,104367,128,0,104482:0:0:0:0:
64,192,104482,1,0,0:0:0:0:
192,192,104482,1,0,0:0:0:0:
448,192,104482,1,0,0:0:0:0:
192,192,104597,128,0,104713:0:0:0:0:
64,192,104713,1,0,0:0:0:0:
320,192,104713,1,0,0:0:0:0:
448,192,104713,128,0,104828:0:0:0:0:
192,192,104828,128,0,104943:0:0:0:0:
64,192,104943,1,0,0:0:0:0:
448,192,104943,1,0,0:0:0:0:
320,192,104943,1,0,0:0:0:0:
320,192,105059,1,0,0:0:0:0:
64,192,105174,1,0,0:0:0:0:
192,192,105174,1,0,0:0:0:0:
448,192,105174,1,0,0:0:0:0:
192,192,105290,1,0,0:0:0:0:
320,192,105290,1,0,0:0:0:0:
64,192,105405,1,0,0:0:0:0:
320,192,105405,1,0,0:0:0:0:
448,192,105405,1,0,0:0:0:0:
192,192,105520,1,0,0:0:0:0:
64,192,105636,1,0,0:0:0:0:
320,192,105636,1,0,0:0:0:0:
448,192,105636,1,0,0:0:0:0:
448,192,105751,1,0,0:0:0:0:
192,192,105867,1,0,0:0:0:0:
320,192,105867,1,0,0:0:0:0:
64,192,105867,128,0,105982:0:0:0:0:
448,192,105982,128,0,106097:0:0:0:0:
64,192,106097,1,0,0:0:0:0:
192,192,106097,1,0,0:0:0:0:
320,192,106097,1,0,0:0:0:0:
448,192,106213,1,0,0:0:0:0:
320,192,106213,1,0,0:0:0:0:
64,192,106328,1,0,0:0:0:0:
192,192,106328,1,0,0:0:0:0:
64,192,106443,1,0,0:0:0:0:
448,192,106443,1,0,0:0:0:0:
448,192,106559,1,0,0:0:0:0:
320,192,106559,1,0,0:0:0:0:
64,192,106617,1,0,0:0:0:0:
192,192,106617,1,0,0:0:0:0:
320,192,106674,1,0,0:0:0:0:
448,192,106674,1,0,0:0:0:0:
192,192,106732,1,0,0:0:0:0:
64,192,106732,1,0,0:0:0:0:
448,192,106790,1,0,0:0:0:0:
320,192,106790,1,0,0:0:0:0:
64,192,106847,1,0,0:0:0:0:
448,192,106905,1,0,0:0:0:0:
320,192,106934,1,0,0:0:0:0:
192,192,106963,1,0,0:0:0:0:
64,192,106992,1,0,0:0:0:0:
448,192,107020,1,0,0:0:0:0:
320,192,107020,1,0,0:0:0:0:
64,192,107136,1,0,0:0:0:0:
192,192,107165,1,0,0:0:0:0:
320,192,107193,1,0,0:0:0:0:
448,192,107222,1,0,0:0:0:0:
64,192,107251,1,0,0:0:0:0:
192,192,107251,1,0,0:0:0:0:
64,192,107367,1,0,0:0:0:0:
448,192,107482,1,0,0:0:0:0:
320,192,107482,1,0,0:0:0:0:
192,192,107482,1,0,0:0:0:0:
320,192,107597,1,0,0:0:0:0:
192,192,107713,128,0,107828:0:0:0:0:
64,192,107713,1,0,0:0:0:0:
448,192,107713,1,0,0:0:0:0:
320,192,107828,128,0,107943:0:0:0:0:
192,192,107943,1,0,0:0:0:0:
64,192,107943,1,0,0:0:0:0:
448,192,107943,1,0,0:0:0:0:
64,192,108059,128,0,108174:0:0:0:0:
192,192,108174,1,0,0:0:0:0:
320,192,108174,1,0,0:0:0:0:
448,192,108174,1,0,0:0:0:0:
192,192,108290,128,0,108405:0:0:0:0:
448,192,108405,128,0,108520:0:0:0:0:
320,192,108405,1,0,0:0:0:0:
64,192,108405,1,0,0:0:0:0:
192,192,108520,128,0,108636:0:0:0:0:
64,192,108636,1,0,0:0:0:0:
448,192,108636,1,0,0:0:0:0:
320,192,108636,1,0,0:0:0:0:
320,192,108751,1,0,0:0:0:0:
64,192,108867,1,0,0:0:0:0:
192,192,108867,1,0,0:0:0:0:
192,192,108982,1,0,0:0:0:0:
320,192,108982,1,0,0:0:0:0:
320,192,109097,1,0,0:0:0:0:
448,192,109097,1,0,0:0:0:0:
64,192,109155,1,0,0:0:0:0:
192,192,109155,1,0,0:0:0:0:
320,192,109213,1,0,0:0:0:0:
448,192,109213,1,0,0:0:0:0:
64,192,109328,1,0,0:0:0:0:
448,192,109328,1,0,0:0:0:0:
192,192,109443,1,0,0:0:0:0:
320,192,109443,1,0,0:0:0:0:
64,192,109559,1,0,0:0:0:0:
192,192,109559,1,0,0:0:0:0:
320,192,109617,1,0,0:0:0:0:
448,192,109617,1,0,0:0:0:0:
192,192,109674,1,0,0:0:0:0:
64,192,109674,1,0,0:0:0:0:
320,192,109790,1,0,0:0:0:0:
448,192,109790,1,0,0:0:0:0:
320,192,109905,1,0,0:0:0:0:
64,192,109905,1,0,0:0:0:0:
192,192,110020,128,0,110136:0:0:0:0:
448,192,110136,128,0,110251:0:0:0:0:
64,192,110251,128,0,110367:0:0:0:0:
320,192,110367,1,0,0:0:0:0:
64,192,110482,128,0,110597:0:0:0:0:
192,192,110597,128,0,110713:0:0:0:0:
320,192,110713,128,0,110828:0:0:0:0:
448,192,110828,128,0,110943:0:0:0:0:
64,192,110943,1,0,0:0:0:0:
192,192,110943,1,0,0:0:0:0:
192,192,111059,1,0,0:0:0:0:
448,192,111059,1,0,0:0:0:0:
320,192,111174,1,0,0:0:0:0:
448,192,111174,1,0,0:0:0:0:
320,192,111290,1,0,0:0:0:0:
64,192,111290,1,0,0:0:0:0:
64,192,111405,1,0,0:0:0:0:
192,192,111405,1,0,0:0:0:0:
192,192,111520,1,0,0:0:0:0:
448,192,111520,1,0,0:0:0:0:
320,192,111636,1,0,0:0:0:0:
448,192,111636,1,0,0:0:0:0:
320,192,111751,1,0,0:0:0:0:
64,192,111751,1,0,0:0:0:0:
192,192,111809,1,0,0:0:0:0:
448,192,111809,1,0,0:0:0:0:
320,192,111867,1,0,0:0:0:0:
64,192,111867,1,0,0:0:0:0:
64,192,111982,1,0,0:0:0:0:
192,192,111982,1,0,0:0:0:0:
448,192,112097,1,0,0:0:0:0:
320,192,112097,1,0,0:0:0:0:
64,192,112213,1,0,0:0:0:0:
448,192,112213,1,0,0:0:0:0:
192,192,112328,1,0,0:0:0:0:
320,192,112328,1,0,0:0:0:0:
64,192,112443,1,0,0:0:0:0:
192,192,112443,1,0,0:0:0:0:
320,192,112501,1,0,0:0:0:0:
448,192,112501,1,0,0:0:0:0:
192,192,112559,1,0,0:0:0:0:
64,192,112559,1,0,0:0:0:0:
448,192,112674,1,0,0:0:0:0:
320,192,112703,1,0,0:0:0:0:
64,192,112732,1,0,0:0:0:0:
192,192,112761,1,0,0:0:0:0:
320,192,112790,1,0,0:0:0:0:
448,192,112790,1,0,0:0:0:0:
64,192,112905,1,0,0:0:0:0:
448,192,112905,1,0,0:0:0:0:
64,192,113020,1,0,0:0:0:0:
192,192,113020,1,0,0:0:0:0:
192,192,113136,1,0,0:0:0:0:
320,192,113136,1,0,0:0:0:0:
320,192,113251,1,0,0:0:0:0:
448,192,113251,1,0,0:0:0:0:
448,192,113367,1,0,0:0:0:0:
192,192,113367,1,0,0:0:0:0:
64,192,113482,1,0,0:0:0:0:
192,192,113482,1,0,0:0:0:0:
448,192,113597,1,0,0:0:0:0:
64,192,113597,1,0,0:0:0:0:
192,192,113655,1,0,0:0:0:0:
320,192,113655,1,0,0:0:0:0:
64,192,113713,1,0,0:0:0:0:
448,192,113713,1,0,0:0:0:0:
320,192,113828,1,0,0:0:0:0:
448,192,113828,1,0,0:0:0:0:
192,192,113886,1,0,0:0:0:0:
64,192,113886,1,0,0:0:0:0:
320,192,113943,1,0,0:0:0:0:
448,192,113943,1,0,0:0:0:0:
64,192,114059,1,0,0:0:0:0:
192,192,114059,1,0,0:0:0:0:
320,192,114117,1,0,0:0:0:0:
448,192,114117,1,0,0:0:0:0:
192,192,114174,1,0,0:0:0:0:
64,192,114174,1,0,0:0:0:0:
448,192,114290,128,0,114405:0:0:0:0:
64,192,114290,1,0,0:0:0:0:
320,192,114405,128,0,114520:0:0:0:0:
192,192,114405,1,0,0:0:0:0:
64,192,114520,128,0,114636:0:0:0:0:
448,192,114520,1,0,0:0:0:0:
192,192,114636,1,0,0:0:0:0:
320,192,114636,1,0,0:0:0:0:
448,192,114636,1,0,0:0:0:0:
192,192,114751,1,0,0:0:0:0:
64,192,114751,1,0,0:0:0:0:
64,192,114867,1,0,0:0:0:0:
448,192,114867,1,0,0:0:0:0:
320,192,114982,1,0,0:0:0:0:
448,192,114982,1,0,0:0:0:0:
320,192,115097,1,0,0:0:0:0:
64,192,115097,1,0,0:0:0:0:
192,192,115213,1,0,0:0:0:0:
64,192,115213,1,0,0:0:0:0:
320,192,115328,1,0,0:0:0:0:
448,192,115328,1,0,0:0:0:0:
64,192,115443,1,0,0:0:0:0:
448,192,115443,1,0,0:0:0:0:
192,192,115501,1,0,0:0:0:0:
320,192,115501,1,0,0:0:0:0:
64,192,115559,1,0,0:0:0:0:
448,192,115559,1,0,0:0:0:0:
64,192,115674,1,0,0:0:0:0:
192,192,115674,1,0,0:0:0:0:
192,192,115790,1,0,0:0:0:0:
448,192,115790,1,0,0:0:0:0:
320,192,115905,1,0,0:0:0:0:
448,192,115905,1,0,0:0:0:0:
64,192,116020,1,0,0:0:0:0:
320,192,116020,1,0,0:0:0:0:
64,192,116136,1,0,0:0:0:0:
192,192,116136,1,0,0:0:0:0:
320,192,116193,1,0,0:0:0:0:
448,192,116193,1,0,0:0:0:0:
192,192,116251,1,0,0:0:0:0:
64,192,116251,1,0,0:0:0:0:
448,192,116367,1,0,0:0:0:0:
320,192,116395,1,0,0:0:0:0:
192,192,116424,1,0,0:0:0:0:
64,192,116453,1,0,0:0:0:0:
320,192,116482,1,0,0:0:0:0:
448,192,116482,1,0,0:0:0:0:
64,192,116540,1,0,0:0:0:0:
192,192,116540,1,0,0:0:0:0:
320,192,116597,1,0,0:0:0:0:
448,192,116597,1,0,0:0:0:0:
192,192,116655,1,0,0:0:0:0:
64,192,116655,1,0,0:0:0:0:
320,192,116713,1,0,0:0:0:0:
448,192,116713,1,0,0:0:0:0:
64,192,116770,1,0,0:0:0:0:
192,192,116770,1,0,0:0:0:0:
320,192,116828,1,0,0:0:0:0:
448,192,116828,1,0,0:0:0:0:
64,192,116886,1,0,0:0:0:0:
192,192,116886,1,0,0:0:0:0:
320,192,116943,1,0,0:0:0:0:
448,192,116943,1,0,0:0:0:0:
64,192,117001,1,0,0:0:0:0:
192,192,117001,1,0,0:0:0:0:
320,192,117059,1,0,0:0:0:0:
448,192,117059,1,0,0:0:0:0:
64,192,117117,1,0,0:0:0:0:
192,192,117117,1,0,0:0:0:0:
320,192,117174,1,0,0:0:0:0:
448,192,117174,1,0,0:0:0:0:
64,192,117232,1,0,0:0:0:0:
192,192,117232,1,0,0:0:0:0:
320,192,117290,1,0,0:0:0:0:
448,192,117290,1,0,0:0:0:0:
64,192,117347,1,0,0:0:0:0:
192,192,117347,1,0,0:0:0:0:
448,192,117405,128,0,117867:0:0:0:0:
192,192,117867,128,0,117982:0:0:0:0:
64,192,117867,1,0,0:0:0:0:
320,192,117982,128,0,118097:0:0:0:0:
192,192,118097,128,0,118213:0:0:0:0:
64,192,118097,1,0,0:0:0:0:
320,192,118213,128,0,118328:0:0:0:0:
192,192,118328,1,0,0:0:0:0:
64,192,118328,1,0,0:0:0:0:
448,192,118328,1,0,0:0:0:0:
64,192,118559,1,0,0:0:0:0:
448,192,118559,1,0,0:0:0:0:
64,192,118790,1,0,0:0:0:0:
448,192,118790,1,0,0:0:0:0:
64,192,119020,1,0,0:0:0:0:
448,192,119020,1,0,0:0:0:0:
448,192,119136,1,0,0:0:0:0:
64,192,119251,1,0,0:0:0:0:
192,192,119251,1,0,0:0:0:0:
448,192,119367,1,0,0:0:0:0:
448,192,119482,1,0,0:0:0:0:
64,192,119482,1,0,0:0:0:0:
448,192,119713,1,0,0:0:0:0:
64,192,119713,1,0,0:0:0:0:
320,192,119943,1,0,0:0:0:0:
64,192,119943,1,0,0:0:0:0:
192,192,120174,1,0,0:0:0:0:
448,192,120174,1,0,0:0:0:0:
192,192,120405,1,0,0:0:0:0:
448,192,120405,1,0,0:0:0:0:
192,192,120636,1,0,0:0:0:0:
448,192,120636,1,0,0:0:0:0:
192,192,120867,1,0,0:0:0:0:
448,192,120867,1,0,0:0:0:0:
448,192,120982,1,0,0:0:0:0:
192,192,121097,1,0,0:0:0:0:
64,192,121097,1,0,0:0:0:0:
448,192,121213,1,0,0:0:0:0:
448,192,121328,1,0,0:0:0:0:
192,192,121328,1,0,0:0:0:0:
448,192,121559,1,0,0:0:0:0:
192,192,121559,1,0,0:0:0:0:
448,192,121790,1,0,0:0:0:0:
320,192,121809,1,0,0:0:0:0:
192,192,121828,1,0,0:0:0:0:
64,192,121847,1,0,0:0:0:0:
320,192,121905,1,0,0:0:0:0:
448,192,121943,1,0,0:0:0:0:
64,192,122020,1,0,0:0:0:0:
192,192,122020,1,0,0:0:0:0:
320,192,122136,1,0,0:0:0:0:
64,192,122251,1,0,0:0:0:0:
192,192,122251,1,0,0:0:0:0:
448,192,122251,1,0,0:0:0:0:
320,192,122367,1,0,0:0:0:0:
64,192,122482,1,0,0:0:0:0:
448,192,122482,1,0,0:0:0:0:
192,192,122597,1,0,0:0:0:0:
320,192,122713,1,0,0:0:0:0:
448,192,122713,1,0,0:0:0:0:
64,192,122713,1,0,0:0:0:0:
320,192,122828,1,0,0:0:0:0:
64,192,122943,1,0,0:0:0:0:
448,192,122943,1,0,0:0:0:0:
320,192,123059,1,0,0:0:0:0:
448,192,123174,1,0,0:0:0:0:
64,192,123174,1,0,0:0:0:0:
320,192,123174,1,0,0:0:0:0:
192,192,123290,1,0,0:0:0:0:
64,192,123405,1,0,0:0:0:0:
448,192,123405,1,0,0:0:0:0:
320,192,123520,1,0,0:0:0:0:
64,192,123636,1,0,0:0:0:0:
192,192,123636,1,0,0:0:0:0:
448,192,123636,1,0,0:0:0:0:
448,192,123867,1,0,0:0:0:0:
320,192,123867,1,0,0:0:0:0:
192,192,123982,1,0,0:0:0:0:
448,192,124097,1,0,0:0:0:0:
320,192,124097,1,0,0:0:0:0:
64,192,124097,1,0,0:0:0:0:
192,192,124213,1,0,0:0:0:0:
448,192,124328,1,0,0:0:0:0:
64,192,124328,1,0,0:0:0:0:
320,192,124443,1,0,0:0:0:0:
192,192,124559,1,0,0:0:0:0:
64,192,124559,1,0,0:0:0:0:
448,192,124559,1,0,0:0:0:0:
192,192,124674,1,0,0:0:0:0:
448,192,124790,1,0,0:0:0:0:
64,192,124790,1,0,0:0:0:0:
192,192,124905,1,0,0:0:0:0:
64,192,125020,1,0,0:0:0:0:
448,192,125020,1,0,0:0:0:0:
192,192,125020,1,0,0:0:0:0:
320,192,125136,1,0,0:0:0:0:
448,192,125251,1,0,0:0:0:0:
64,192,125251,1,0,0:0:0:0:
192,192,125367,1,0,0:0:0:0:
448,192,125482,1,0,0:0:0:0:
320,192,125482,1,0,0:0:0:0:
64,192,125482,1,0,0:0:0:0:
64,192,125713,1,0,0:0:0:0:
448,192,125713,1,0,0:0:0:0:
320,192,125828,1,0,0:0:0:0:
192,192,125943,1,0,0:0:0:0:
64,192,125943,1,0,0:0:0:0:
448,192,125943,1,0,0:0:0:0:
320,192,126059,1,0,0:0:0:0:
64,192,126174,1,0,0:0:0:0:
448,192,126174,1,0,0:0:0:0:
192,192,126290,1,0,0:0:0:0:
192,192,126405,1,0,0:0:0:0:
64,192,126405,1,0,0:0:0:0:
448,192,126405,1,0,0:0:0:0:
320,192,126520,1,0,0:0:0:0:
192,192,126636,1,0,0:0:0:0:
320,192,126636,1,0,0:0:0:0:
192,192,126751,1,0,0:0:0:0:
448,192,126867,1,0,0:0:0:0:
320,192,126867,1,0,0:0:0:0:
64,192,126867,1,0,0:0:0:0:
192,192,126982,1,0,0:0:0:0:
64,192,127097,1,0,0:0:0:0:
448,192,127097,1,0,0:0:0:0:
320,192,127213,1,0,0:0:0:0:
192,192,127328,1,0,0:0:0:0:
64,192,127328,1,0,0:0:0:0:
448,192,127328,1,0,0:0:0:0:
320,192,127443,1,0,0:0:0:0:
448,192,127559,1,0,0:0:0:0:
64,192,127559,1,0,0:0:0:0:
192,192,127674,1,0,0:0:0:0:
320,192,127790,1,0,0:0:0:0:
448,192,127790,1,0,0:0:0:0:
64,192,127790,1,0,0:0:0:0:
192,192,127905,1,0,0:0:0:0:
448,192,128020,1,0,0:0:0:0:
64,192,128020,1,0,0:0:0:0:
320,192,128136,1,0,0:0:0:0:
320,192,128251,1,0,0:0:0:0:
448,192,128251,1,0,0:0:0:0:
64,192,128251,1,0,0:0:0:0:
192,192,128367,1,0,0:0:0:0:
320,192,128482,1,0,0:0:0:0:
192,192,128482,1,0,0:0:0:0:
320,192,128597,1,0,0:0:0:0:
64,192,128713,1,0,0:0:0:0:
192,192,128713,1,0,0:0:0:0:
448,192,128713,1,0,0:0:0:0:
320,192,128828,1,0,0:0:0:0:
448,192,128943,1,0,0:0:0:0:
64,192,128943,1,0,0:0:0:0:
192,192,129059,1,0,0:0:0:0:
320,192,129174,1,0,0:0:0:0:
448,192,129174,1,0,0:0:0:0:
64,192,129174,1,0,0:0:0:0:
192,192,129290,1,0,0:0:0:0:
448,192,129405,1,0,0:0:0:0:
64,192,129405,1,0,0:0:0:0:
320,192,129520,1,0,0:0:0:0:
192,192,129636,1,0,0:0:0:0:
64,192,129636,1,0,0:0:0:0:
448,192,129636,1,0,0:0:0:0:
320,192,129751,1,0,0:0:0:0:
64,192,129867,1,0,0:0:0:0:
448,192,129867,1,0,0:0:0:0:
192,192,129982,1,0,0:0:0:0:
320,192,130040,1,0,0:0:0:0:
64,192,130097,1,0,0:0:0:0:
448,192,130097,1,0,0:0:0:0:
320,192,130155,1,0,0:0:0:0:
192,192,130213,1,0,0:0:0:0:
64,192,130270,1,0,0:0:0:0:
320,192,130328,1,0,0:0:0:0:
448,192,130328,1,0,0:0:0:0:
64,192,130386,1,0,0:0:0:0:
192,192,130443,1,0,0:0:0:0:
64,192,130559,1,0,0:0:0:0:
320,192,130559,1,0,0:0:0:0:
448,192,130559,1,0,0:0:0:0:
192,192,130674,1,0,0:0:0:0:
448,192,130790,1,0,0:0:0:0:
64,192,130790,1,0,0:0:0:0:
320,192,130905,1,0,0:0:0:0:
192,192,130963,1,0,0:0:0:0:
64,192,131020,1,0,0:0:0:0:
448,192,131020,1,0,0:0:0:0:
192,192,131078,1,0,0:0:0:0:
320,192,131136,1,0,0:0:0:0:
448,192,131193,1,0,0:0:0:0:
192,192,131251,1,0,0:0:0:0:
64,192,131251,1,0,0:0:0:0:
192,192,131367,1,0,0:0:0:0:
320,192,131482,1,0,0:0:0:0:
448,192,131482,1,0,0:0:0:0:
64,192,131482,1,0,0:0:0:0:
192,192,131597,1,0,0:0:0:0:
448,192,131713,1,0,0:0:0:0:
64,192,131713,1,0,0:0:0:0:
320,192,131828,1,0,0:0:0:0:
192,192,131886,1,0,0:0:0:0:
448,192,131943,1,0,0:0:0:0:
64,192,131943,1,0,0:0:0:0:
192,192,132001,1,0,0:0:0:0:
320,192,132059,1,0,0:0:0:0:
448,192,132117,1,0,0:0:0:0:
192,192,132174,1,0,0:0:0:0:
64,192,132174,1,0,0:0:0:0:
448,192,132232,1,0,0:0:0:0:
320,192,132290,1,0,0:0:0:0:
448,192,132405,1,0,0:0:0:0:
192,192,132405,1,0,0:0:0:0:
64,192,132405,1,0,0:0:0:0:
320,192,132520,1,0,0:0:0:0:
448,192,132636,1,0,0:0:0:0:
64,192,132636,1,0,0:0:0:0:
192,192,132693,1,0,0:0:0:0:
320,192,132751,1,0,0:0:0:0:
448,192,132751,1,0,0:0:0:0:
64,192,132809,1,0,0:0:0:0:
192,192,132867,1,0,0:0:0:0:
448,192,132867,1,0,0:0:0:0:
320,192,132924,1,0,0:0:0:0:
192,192,132982,1,0,0:0:0:0:
64,192,132982,1,0,0:0:0:0:
448,192,133040,1,0,0:0:0:0:
320,192,133097,1,0,0:0:0:0:
64,192,133097,128,0,133559:0:0:0:0:
448,192,133559,1,0,0:0:0:0:
192,192,133674,1,0,0:0:0:0:
320,192,133905,128,0,134251:0:0:0:0:
64,192,134251,1,0,0:0:0:0:
192,192,134251,1,0,0:0:0:0:
64,192,134482,1,0,0:0:0:0:
320,192,134482,1,0,0:0:0:0:
192,192,134713,1,0,0:0:0:0:
448,192,134713,1,0,0:0:0:0:
320,192,134943,1,0,0:0:0:0:
448,192,134943,128,0,135290:0:0:0:0:
320,192,135174,1,0,0:0:0:0:
192,192,135290,1,0,0:0:0:0:
64,192,135290,128,0,135636:0:0:0:0:
448,192,135405,1,0,0:0:0:0:
192,192,135520,1,0,0:0:0:0:
320,192,135636,1,0,0:0:0:0:
448,192,135636,128,0,136097:0:0:0:0:
64,192,135751,1,0,0:0:0:0:
64,192,136097,1,0,0:0:0:0:
320,192,136097,1,0,0:0:0:0:
192,192,136328,1,0,0:0:0:0:
448,192,136328,1,0,0:0:0:0:
192,192,136559,1,0,0:0:0:0:
64,192,136559,1,0,0:0:0:0:
64,192,136790,1,0,0:0:0:0:
448,192,136790,1,0,0:0:0:0:
192,192,137136,1,0,0:0:0:0:
320,192,137136,1,0,0:0:0:0:
320,192,137482,1,0,0:0:0:0:
448,192,137482,1,0,0:0:0:0:
192,192,137597,1,0,0:0:0:0:
64,192,137713,1,0,0:0:0:0:
448,192,137713,1,0,0:0:0:0:
320,192,137943,1,0,0:0:0:0:
192,192,138059,1,0,0:0:0:0:
64,192,138059,1,0,0:0:0:0:
448,192,138174,1,0,0:0:0:0:
320,192,138405,1,0,0:0:0:0:
192,192,138405,1,0,0:0:0:0:
64,192,138636,1,0,0:0:0:0:
448,192,138636,1,0,0:0:0:0:
192,192,138867,1,0,0:0:0:0:
320,192,138982,1,0,0:0:0:0:
448,192,138982,1,0,0:0:0:0:
64,192,139097,1,0,0:0:0:0:
448,192,139213,1,0,0:0:0:0:
320,192,139328,1,0,0:0:0:0:
64,192,139328,128,0,140020:0:0:0:0:
320,192,140020,1,0,0:0:0:0:
448,192,140020,1,0,0:0:0:0:
64,192,140251,1,0,0:0:0:0:
192,192,140251,1,0,0:0:0:0:
64,192,140482,1,0,0:0:0:0:
448,192,140482,1,0,0:0:0:0:
320,192,140482,1,0,0:0:0:0:
192,192,140713,1,0,0:0:0:0:
64,192,140943,1,0,0:0:0:0:
320,192,140943,1,0,0:0:0:0:
192,192,141059,1,0,0:0:0:0:
448,192,141174,1,0,0:0:0:0:
320,192,141174,1,0,0:0:0:0:
64,192,141290,1,0,0:0:0:0:
448,192,141405,1,0,0:0:0:0:
192,192,141405,1,0,0:0:0:0:
64,192,141636,1,0,0:0:0:0:
192,192,141636,1,0,0:0:0:0:
448,192,141867,1,0,0:0:0:0:
320,192,141867,1,0,0:0:0:0:
448,192,142097,1,0,0:0:0:0:
64,192,142097,1,0,0:0:0:0:
320,192,142328,1,0,0:0:0:0:
192,192,142328,1,0,0:0:0:0:
64,192,142559,1,0,0:0:0:0:
192,192,142790,1,0,0:0:0:0:
448,192,142790,1,0,0:0:0:0:
320,192,142905,1,0,0:0:0:0:
192,192,143136,1,0,0:0:0:0:
64,192,143251,1,0,0:0:0:0:
448,192,143251,1,0,0:0:0:0:
320,192,143482,1,0,0:0:0:0:
192,192,143597,1,0,0:0:0:0:
64,192,143597,1,0,0:0:0:0:
448,192,143713,1,0,0:0:0:0:
320,192,143943,1,0,0:0:0:0:
64,192,143943,1,0,0:0:0:0:
192,192,144174,1,0,0:0:0:0:
448,192,144174,1,0,0:0:0:0:
64,192,144405,1,0,0:0:0:0:
448,192,144636,1,0,0:0:0:0:
192,192,144636,1,0,0:0:0:0:
320,192,144751,1,0,0:0:0:0:
192,192,144982,1,0,0:0:0:0:
64,192,145097,1,0,0:0:0:0:
448,192,145097,1,0,0:0:0:0:
320,192,145328,1,0,0:0:0:0:
192,192,145443,1,0,0:0:0:0:
320,192,145559,1,0,0:0:0:0:
448,192,145559,1,0,0:0:0:0:
448,192,145790,1,0,0:0:0:0:
192,192,145790,1,0,0:0:0:0:
192,192,146020,1,0,0:0:0:0:
64,192,146020,1,0,0:0:0:0:
448,192,146251,1,0,0:0:0:0:
320,192,146251,1,0,0:0:0:0:
64,192,146482,1,0,0:0:0:0:
448,192,146482,1,0,0:0:0:0:
192,192,146713,1,0,0:0:0:0:
320,192,146713,1,0,0:0:0:0:
448,192,146943,128,0,147867:0:0:0:0:
64,192,146943,1,0,0:0:0:0:
64,192,147867,128,0,148097:0:0:0:0:
448,192,148097,1,0,0:0:0:0:
64,192,148213,1,0,0:0:0:0:
320,192,148328,128,0,148559:0:0:0:0:
448,192,148559,1,0,0:0:0:0:
192,192,148674,1,0,0:0:0:0:
192,192,148905,1,0,0:0:0:0:
448,192,149020,1,0,0:0:0:0:
64,192,149136,1,0,0:0:0:0:
320,192,149251,1,0,0:0:0:0:
192,192,149367,1,0,0:0:0:0:
448,192,149482,128,0,149713:0:0:0:0:
64,192,149713,128,0,149943:0:0:0:0:
448,192,149943,1,0,0:0:0:0:
192,192,150059,1,0,0:0:0:0:
320,192,150174,128,0,150405:0:0:0:0:
64,192,150405,1,0,0:0:0:0:
448,192,150520,1,0,0:0:0:0:
192,192,150751,1,0,0:0:0:0:
448,192,150867,1,0,0:0:0:0:
448,192,150982,1,0,0:0:0:0:
64,192,151097,1,0,0:0:0:0:
64,192,151213,1,0,0:0:0:0:
320,192,151328,1,0,0:0:0:0:
192,192,151443,1,0,0:0:0:0:
448,192,151559,128,0,151790:0:0:0:0:
192,192,151790,1,0,0:0:0:0:
448,192,151905,1,0,0:0:0:0:
64,192,152020,128,0,152251:0:0:0:0:
320,192,152251,1,0,0:0:0:0:
64,192,152367,1,0,0:0:0:0:
64,192,152597,1,0,0:0:0:0:
448,192,152713,1,0,0:0:0:0:
192,192,152828,1,0,0:0:0:0:
320,192,152943,1,0,0:0:0:0:
192,192,153059,1,0,0:0:0:0:
448,192,153174,128,0,153405:0:0:0:0:
64,192,153405,128,0,153867:0:0:0:0:
320,192,153636,1,0,0:0:0:0:
192,192,153751,1,0,0:0:0:0:
448,192,153867,128,0,154097:0:0:0:0:
192,192,153982,1,0,0:0:0:0:
320,192,154097,1,0,0:0:0:0:
64,192,154213,1,0,0:0:0:0:
448,192,154443,1,0,0:0:0:0:
192,192,154559,1,0,0:0:0:0:
320,192,154674,1,0,0:0:0:0:
64,192,154790,128,0,154905:0:0:0:0:
192,192,154790,1,0,0:0:0:0:
448,192,154905,128,0,155020:0:0:0:0:
64,192,155020,128,0,155136:0:0:0:0:
192,192,155020,1,0,0:0:0:0:
448,192,155136,128,0,155251:0:0:0:0:
320,192,155251,1,0,0:0:0:0:
64,192,155251,1,0,0:0:0:0:
192,192,155367,1,0,0:0:0:0:
192,192,155482,1,0,0:0:0:0:
320,192,155597,1,0,0:0:0:0:
448,192,155597,1,0,0:0:0:0:
448,192,155713,1,0,0:0:0:0:
64,192,155713,1,0,0:0:0:0:
320,192,155828,1,0,0:0:0:0:
320,192,155943,1,0,0:0:0:0:
192,192,156059,1,0,0:0:0:0:
64,192,156174,1,0,0:0:0:0:
448,192,156174,1,0,0:0:0:0:
320,192,156290,1,0,0:0:0:0:
192,192,156405,1,0,0:0:0:0:
64,192,156405,1,0,0:0:0:0:
64,192,156520,1,0,0:0:0:0:
320,192,156636,1,0,0:0:0:0:
448,192,156636,1,0,0:0:0:0:
448,192,156751,1,0,0:0:0:0:
64,192,156867,1,0,0:0:0:0:
320,192,156867,1,0,0:0:0:0:
192,192,156982,1,0,0:0:0:0:
448,192,157097,1,0,0:0:0:0:
64,192,157097,1,0,0:0:0:0:
320,192,157213,1,0,0:0:0:0:
320,192,157328,1,0,0:0:0:0:
64,192,157443,1,0,0:0:0:0:
192,192,157443,1,0,0:0:0:0:
64,192,157559,1,0,0:0:0:0:
448,192,157559,1,0,0:0:0:0:
192,192,157674,1,0,0:0:0:0:
192,192,157790,1,0,0:0:0:0:
320,192,157905,1,0,0:0:0:0:
448,192,158020,1,0,0:0:0:0:
64,192,158020,1,0,0:0:0:0:
192,192,158136,1,0,0:0:0:0:
320,192,158251,1,0,0:0:0:0:
448,192,158251,1,0,0:0:0:0:
448,192,158367,1,0,0:0:0:0:
192,192,158482,1,0,0:0:0:0:
64,192,158482,1,0,0:0:0:0:
64,192,158597,1,0,0:0:0:0:
448,192,158713,1,0,0:0:0:0:
192,192,158713,1,0,0:0:0:0:
320,192,158828,1,0,0:0:0:0:
64,192,158943,1,0,0:0:0:0:
448,192,158943,1,0,0:0:0:0:
192,192,159059,1,0,0:0:0:0:
192,192,159174,1,0,0:0:0:0:
448,192,159290,1,0,0:0:0:0:
320,192,159290,1,0,0:0:0:0:
448,192,159405,1,0,0:0:0:0:
64,192,159405,1,0,0:0:0:0:
192,192,159520,1,0,0:0:0:0:
320,192,159578,1,0,0:0:0:0:
192,192,159636,1,0,0:0:0:0:
64,192,159693,1,0,0:0:0:0:
448,192,159751,1,0,0:0:0:0:
192,192,159867,1,0,0:0:0:0:
64,192,159867,1,0,0:0:0:0:
320,192,159924,1,0,0:0:0:0:
448,192,159982,1,0,0:0:0:0:
64,192,160097,1,0,0:0:0:0:
448,192,160097,1,0,0:0:0:0:
64,192,160213,1,0,0:0:0:0:
192,192,160328,1,0,0:0:0:0:
448,192,160328,1,0,0:0:0:0:
448,192,160443,1,0,0:0:0:0:
192,192,160559,1,0,0:0:0:0:
64,192,160559,1,0,0:0:0:0:
448,192,160617,1,0,0:0:0:0:
320,192,160674,1,0,0:0:0:0:
192,192,160732,1,0,0:0:0:0:
64,192,160790,1,0,0:0:0:0:
448,192,160790,1,0,0:0:0:0:
320,192,160905,1,0,0:0:0:0:
320,192,161020,1,0,0:0:0:0:
192,192,161136,1,0,0:0:0:0:
64,192,161251,1,0,0:0:0:0:
448,192,161251,1,0,0:0:0:0:
320,192,161367,1,0,0:0:0:0:
192,192,161424,1,0,0:0:0:0:
448,192,161482,1,0,0:0:0:0:
320,192,161540,1,0,0:0:0:0:
192,192,161597,1,0,0:0:0:0:
320,192,161713,1,0,0:0:0:0:
448,192,161713,1,0,0:0:0:0:
64,192,161770,1,0,0:0:0:0:
192,192,161828,1,0,0:0:0:0:
64,192,161943,1,0,0:0:0:0:
448,192,161943,1,0,0:0:0:0:
448,192,162059,1,0,0:0:0:0:
64,192,162174,1,0,0:0:0:0:
192,192,162174,1,0,0:0:0:0:
320,192,162232,1,0,0:0:0:0:
448,192,162232,1,0,0:0:0:0:
192,192,162290,1,0,0:0:0:0:
64,192,162290,1,0,0:0:0:0:
320,192,162347,1,0,0:0:0:0:
448,192,162347,1,0,0:0:0:0:
192,192,162405,1,0,0:0:0:0:
64,192,162405,1,0,0:0:0:0:
320,192,162463,1,0,0:0:0:0:
448,192,162463,1,0,0:0:0:0:
192,192,162520,1,0,0:0:0:0:
64,192,162520,1,0,0:0:0:0:
320,192,162578,1,0,0:0:0:0:
448,192,162578,1,0,0:0:0:0:
192,192,162636,1,0,0:0:0:0:
64,192,162636,128,0,162867:0:0:0:0:
320,192,162867,1,0,0:0:0:0:
448,192,163097,128,0,163213:0:0:0:0:
192,192,163213,128,0,163328:0:0:0:0:
320,192,163328,1,0,0:0:0:0:
64,192,163443,128,0,163559:0:0:0:0:
448,192,163559,1,0,0:0:0:0:
320,192,163617,1,0,0:0:0:0:
192,192,163674,128,0,163790:0:0:0:0:
448,192,163790,128,0,163963:0:0:0:0:
320,192,164020,128,0,164193:0:0:0:0:
192,192,164251,128,0,164367:0:0:0:0:
64,192,164367,128,0,164482:0:0:0:0:
448,192,164482,128,0,164655:0:0:0:0:
64,192,164713,128,0,164828:0:0:0:0:
448,192,164828,1,0,0:0:0:0:
320,192,164886,1,0,0:0:0:0:
192,192,164943,128,0,165059:0:0:0:0:
320,192,165059,128,0,165174:0:0:0:0:
64,192,165174,1,0,0:0:0:0:
192,192,165232,1,0,0:0:0:0:
448,192,165290,128,0,165405:0:0:0:0:
64,192,165405,1,0,0:0:0:0:
192,192,165463,1,0,0:0:0:0:
320,192,165520,128,0,165636:0:0:0:0:
64,192,165636,128,0,165867:0:0:0:0:
448,192,165867,128,0,166040:0:0:0:0:
448,192,166097,128,0,166213:0:0:0:0:
320,192,166213,128,0,166328:0:0:0:0:
192,192,166328,128,0,166501:0:0:0:0:
320,192,166559,128,0,166674:0:0:0:0:
64,192,166674,1,0,0:0:0:0:
192,192,166732,1,0,0:0:0:0:
448,192,166790,128,0,166905:0:0:0:0:
192,192,166905,128,0,167020:0:0:0:0:
320,192,167020,1,0,0:0:0:0:
64,192,167136,128,0,167251:0:0:0:0:
448,192,167251,1,0,0:0:0:0:
320,192,167309,1,0,0:0:0:0:
64,192,167367,128,0,167482:0:0:0:0:
192,192,167482,128,0,167597:0:0:0:0:
448,192,167597,128,0,167713:0:0:0:0:
64,192,167713,128,0,167828:0:0:0:0:
320,192,167828,128,0,167943:0:0:0:0:
192,192,167943,128,0,168059:0:0:0:0:
320,192,168059,128,0,168174:0:0:0:0:
64,192,168174,128,0,168405:0:0:0:0:
320,192,168405,1,0,0:0:0:0:
448,192,168463,1,0,0:0:0:0:
192,192,168520,128,0,168751:0:0:0:0:
448,192,168751,1,0,0:0:0:0:
64,192,168809,1,0,0:0:0:0:
320,192,168867,128,0,169097:0:0:0:0:
64,192,169097,1,0,0:0:0:0:
192,192,169155,1,0,0:0:0:0:
448,192,169213,128,0,169328:0:0:0:0:
192,192,169328,128,0,169501:0:0:0:0:
320,192,169559,128,0,169732:0:0:0:0:
320,192,169790,128,0,169905:0:0:0:0:
192,192,169905,128,0,170020:0:0:0:0:
64,192,170020,1,0,0:0:0:0:
448,192,170020,128,0,170251:0:0:0:0:
64,192,170251,128,0,170367:0:0:0:0:
192,192,170367,1,0,0:0:0:0:
320,192,170424,1,0,0:0:0:0:
448,192,170482,128,0,170597:0:0:0:0:
192,192,170597,128,0,170713:0:0:0:0:
320,192,170713,128,0,170828:0:0:0:0:
64,192,170828,128,0,170943:0:0:0:0:
448,192,170943,1,0,0:0:0:0:
320,192,171001,1,0,0:0:0:0:
64,192,171059,128,0,171174:0:0:0:0:
448,192,171174,128,0,171347:0:0:0:0:
320,192,171405,128,0,171578:0:0:0:0:
64,192,171636,128,0,171751:0:0:0:0:
192,192,171751,128,0,171867:0:0:0:0:
448,192,171867,128,0,172040:0:0:0:0:
320,192,172097,128,0,172213:0:0:0:0:
64,192,172213,1,0,0:0:0:0:
448,192,172270,1,0,0:0:0:0:
192,192,172328,128,0,172443:0:0:0:0:
320,192,172443,128,0,172559:0:0:0:0:
64,192,172559,1,0,0:0:0:0:
192,192,172617,1,0,0:0:0:0:
448,192,172674,128,0,172790:0:0:0:0:
320,192,172790,1,0,0:0:0:0:
192,192,172847,1,0,0:0:0:0:
64,192,172905,128,0,173020:0:0:0:0:
320,192,173020,128,0,173193:0:0:0:0:
192,192,173251,128,0,173424:0:0:0:0:
64,192,173482,128,0,173597:0:0:0:0:
448,192,173597,128,0,173713:0:0:0:0:
320,192,173713,128,0,173886:0:0:0:0:
64,192,173943,128,0,174059:0:0:0:0:
448,192,174059,1,0,0:0:0:0:
320,192,174117,1,0,0:0:0:0:
192,192,174174,128,0,174290:0:0:0:0:
448,192,174290,128,0,174405:0:0:0:0:
64,192,174405,128,0,174520:0:0:0:0:
320,192,174520,128,0,174636:0:0:0:0:
192,192,174636,1,0,0:0:0:0:
64,192,174693,1,0,0:0:0:0:
448,192,174751,128,0,174867:0:0:0:0:
192,192,174867,128,0,175040:0:0:0:0:
320,192,175097,128,0,175270:0:0:0:0:
448,192,175328,128,0,175443:0:0:0:0:
64,192,175443,128,0,175559:0:0:0:0:
448,192,175559,1,0,0:0:0:0:
320,192,175559,1,0,0:0:0:0:
192,192,175674,128,0,175790:0:0:0:0:
448,192,175790,128,0,175905:0:0:0:0:
320,192,175905,1,0,0:0:0:0:
192,192,175963,1,0,0:0:0:0:
64,192,176020,128,0,176136:0:0:0:0:
320,192,176136,128,0,176251:0:0:0:0:
64,192,176251,1,0,0:0:0:0:
320,192,176367,128,0,176540:0:0:0:0:
320,192,176597,128,0,176713:0:0:0:0:
64,192,176713,128,0,176828:0:0:0:0:
192,192,176828,128,0,176943:0:0:0:0:
448,192,176943,128,0,177405:0:0:0:0:
320,192,177001,1,0,0:0:0:0:
192,192,177059,1,0,0:0:0:0:
64,192,177117,1,0,0:0:0:0:
320,192,177174,1,0,0:0:0:0:
192,192,177232,1,0,0:0:0:0:
64,192,177290,1,0,0:0:0:0:
320,192,177347,1,0,0:0:0:0:
192,192,177405,1,0,0:0:0:0:
64,192,177405,1,0,0:0:0:0:
320,192,177520,1,0,0:0:0:0:
64,192,177636,1,0,0:0:0:0:
448,192,177636,1,0,0:0:0:0:
192,192,177751,1,0,0:0:0:0:
320,192,177867,1,0,0:0:0:0:
448,192,177867,1,0,0:0:0:0:
64,192,177982,1,0,0:0:0:0:
192,192,178097,1,0,0:0:0:0:
320,192,178097,1,0,0:0:0:0:
448,192,178213,1,0,0:0:0:0:
64,192,178328,1,0,0:0:0:0:
192,192,178328,1,0,0:0:0:0:
320,192,178328,1,0,0:0:0:0:
448,192,178443,1,0,0:0:0:0:
64,192,178559,1,0,0:0:0:0:
192,192,178559,1,0,0:0:0:0:
320,192,178674,1,0,0:0:0:0:
448,192,178790,1,0,0:0:0:0:
64,192,178790,1,0,0:0:0:0:
192,192,178905,1,0,0:0:0:0:
320,192,179020,1,0,0:0:0:0:
448,192,179020,1,0,0:0:0:0:
192,192,179136,1,0,0:0:0:0:
320,192,179251,1,0,0:0:0:0:
64,192,179251,1,0,0:0:0:0:
448,192,179251,1,0,0:0:0:0:
192,192,179367,1,0,0:0:0:0:
64,192,179482,1,0,0:0:0:0:
448,192,179482,1,0,0:0:0:0:
320,192,179597,1,0,0:0:0:0:
192,192,179713,1,0,0:0:0:0:
64,192,179713,1,0,0:0:0:0:
448,192,179828,1,0,0:0:0:0:
320,192,179943,1,0,0:0:0:0:
192,192,179943,1,0,0:0:0:0:
64,192,180059,1,0,0:0:0:0:
320,192,180174,1,0,0:0:0:0:
448,192,180174,1,0,0:0:0:0:
192,192,180174,1,0,0:0:0:0:
64,192,180290,1,0,0:0:0:0:
320,192,180405,1,0,0:0:0:0:
448,192,180405,1,0,0:0:0:0:
192,192,180520,1,0,0:0:0:0:
64,192,180636,1,0,0:0:0:0:
448,192,180636,1,0,0:0:0:0:
192,192,180751,1,0,0:0:0:0:
320,192,180751,1,0,0:0:0:0:
64,192,180867,1,0,0:0:0:0:
192,192,180867,1,0,0:0:0:0:
448,192,180982,1,0,0:0:0:0:
320,192,180982,1,0,0:0:0:0:
192,192,181040,1,0,0:0:0:0:
64,192,181097,1,0,0:0:0:0:
320,192,181097,1,0,0:0:0:0:
448,192,181097,1,0,0:0:0:0:
192,192,181213,1,0,0:0:0:0:
64,192,181213,1,0,0:0:0:0:
448,192,181328,1,0,0:0:0:0:
192,192,181328,1,0,0:0:0:0:
320,192,181443,1,0,0:0:0:0:
448,192,181443,1,0,0:0:0:0:
64,192,181559,1,0,0:0:0:0:
192,192,181559,1,0,0:0:0:0:
320,192,181559,1,0,0:0:0:0:
64,192,181674,1,0,0:0:0:0:
448,192,181674,1,0,0:0:0:0:
320,192,181790,1,0,0:0:0:0:
448,192,181790,1,0,0:0:0:0:
320,192,181905,1,0,0:0:0:0:
192,192,181905,1,0,0:0:0:0:
64,192,182020,1,0,0:0:0:0:
192,192,182020,1,0,0:0:0:0:
448,192,182020,1,0,0:0:0:0:
320,192,182136,1,0,0:0:0:0:
64,192,182136,1,0,0:0:0:0:
192,192,182251,1,0,0:0:0:0:
320,192,182251,1,0,0:0:0:0:
192,192,182367,1,0,0:0:0:0:
64,192,182367,1,0,0:0:0:0:
64,192,182482,1,0,0:0:0:0:
320,192,182482,1,0,0:0:0:0:
448,192,182482,1,0,0:0:0:0:
192,192,182597,1,0,0:0:0:0:
320,192,182597,1,0,0:0:0:0:
192,192,182713,1,0,0:0:0:0:
448,192,182713,1,0,0:0:0:0:
320,192,182828,1,0,0:0:0:0:
64,192,182828,1,0,0:0:0:0:
64,192,182943,1,0,0:0:0:0:
448,192,182943,1,0,0:0:0:0:
192,192,182943,1,0,0:0:0:0:
192,192,183059,1,0,0:0:0:0:
64,192,183174,1,0,0:0:0:0:
320,192,183174,1,0,0:0:0:0:
448,192,183174,1,0,0:0:0:0:
320,192,183290,1,0,0:0:0:0:
64,192,183405,5,0,0:0:0:0:
192,192,183405,1,0,0:0:0:0:
448,192,183405,1,0,0:0:0:0:
192,192,183520,1,0,0:0:0:0:
64,192,183636,1,0,0:0:0:0:
448,192,183636,1,0,0:0:0:0:
320,192,183636,1,0,0:0:0:0:
320,192,183751,1,0,0:0:0:0:
192,192,183867,1,0,0:0:0:0:
64,192,184559,5,0,0:0:0:0:
448,192,184559,1,0,0:0:0:0:
192,192,184790,1,0,0:0:0:0:
64,192,184790,128,0,185020:0:0:0:0:
320,192,184790,1,0,0:0:0:0:
448,192,184790,1,0,0:0:0:0:
320,192,185020,1,0,0:0:0:0:
192,192,185020,1,0,0:0:0:0:
448,192,185020,1,0,0:0:0:0:
64,192,185136,1,0,0:0:0:0:
192,192,185193,1,0,0:0:0:0:
448,192,185251,128,0,185367:0:0:0:0:
320,192,185251,1,0,0:0:0:0:
64,192,185251,1,0,0:0:0:0:
192,192,185367,128,0,185482:0:0:0:0:
320,192,185482,1,0,0:0:0:0:
448,192,185482,1,0,0:0:0:0:
64,192,185482,1,0,0:0:0:0:
64,192,185597,128,0,185713:0:0:0:0:
448,192,185713,1,0,0:0:0:0:
192,192,185713,1,0,0:0:0:0:
320,192,185770,1,0,0:0:0:0:
192,192,185828,128,0,185943:0:0:0:0:
448,192,185943,128,0,186117:0:0:0:0:
64,192,185943,1,0,0:0:0:0:
320,192,185943,1,0,0:0:0:0:
320,192,186174,128,0,186347:0:0:0:0:
64,192,186174,1,0,0:0:0:0:
192,192,186174,1,0,0:0:0:0:
192,192,186405,128,0,186520:0:0:0:0:
64,192,186405,1,0,0:0:0:0:
448,192,186405,1,0,0:0:0:0:
64,192,186520,128,0,186636:0:0:0:0:
448,192,186636,128,0,186809:0:0:0:0:
192,192,186636,1,0,0:0:0:0:
320,192,186636,1,0,0:0:0:0:
64,192,186867,128,0,186982:0:0:0:0:
192,192,186867,1,0,0:0:0:0:
320,192,186867,1,0,0:0:0:0:
448,192,186982,1,0,0:0:0:0:
320,192,187040,1,0,0:0:0:0:
192,192,187097,128,0,187213:0:0:0:0:
64,192,187097,1,0,0:0:0:0:
448,192,187097,1,0,0:0:0:0:
320,192,187213,128,0,187328:0:0:0:0:
64,192,187328,1,0,0:0:0:0:
448,192,187328,1,0,0:0:0:0:
192,192,187386,1,0,0:0:0:0:
448,192,187443,128,0,187559:0:0:0:0:
64,192,187559,1,0,0:0:0:0:
320,192,187559,1,0,0:0:0:0:
192,192,187617,1,0,0:0:0:0:
320,192,187674,128,0,187790:0:0:0:0:
192,192,187790,1,0,0:0:0:0:
64,192,187790,1,0,0:0:0:0:
192,192,187905,1,0,0:0:0:0:
320,192,187905,1,0,0:0:0:0:
320,192,188020,1,0,0:0:0:0:
448,192,188020,1,0,0:0:0:0:
64,192,188136,1,0,0:0:0:0:
448,192,188136,1,0,0:0:0:0:
64,192,188251,1,0,0:0:0:0:
192,192,188251,1,0,0:0:0:0:
320,192,188309,1,0,0:0:0:0:
448,192,188309,1,0,0:0:0:0:
192,192,188367,1,0,0:0:0:0:
64,192,188367,1,0,0:0:0:0:
320,192,188424,1,0,0:0:0:0:
64,192,188482,1,0,0:0:0:0:
192,192,188482,128,0,188655:0:0:0:0:
448,192,188482,1,0,0:0:0:0:
320,192,188713,128,0,188828:0:0:0:0:
448,192,188713,1,0,0:0:0:0:
192,192,188713,1,0,0:0:0:0:
64,192,188828,1,0,0:0:0:0:
192,192,188886,1,0,0:0:0:0:
448,192,188943,128,0,189059:0:0:0:0:
320,192,188943,1,0,0:0:0:0:
64,192,188943,1,0,0:0:0:0:
192,192,189059,128,0,189174:0:0:0:0:
320,192,189174,1,0,0:0:0:0:
448,192,189174,1,0,0:0:0:0:
64,192,189174,1,0,0:0:0:0:
64,192,189290,128,0,189405:0:0:0:0:
448,192,189405,1,0,0:0:0:0:
192,192,189405,1,0,0:0:0:0:
320,192,189463,1,0,0:0:0:0:
64,192,189520,128,0,189636:0:0:0:0:
192,192,189636,128,0,189751:0:0:0:0:
320,192,189636,1,0,0:0:0:0:
448,192,189636,1,0,0:0:0:0:
448,192,189751,128,0,189867:0:0:0:0:
64,192,189867,128,0,189982:0:0:0:0:
320,192,189867,1,0,0:0:0:0:
192,192,189867,1,0,0:0:0:0:
320,192,189982,128,0,190097:0:0:0:0:
192,192,190097,128,0,190213:0:0:0:0:
64,192,190097,1,0,0:0:0:0:
448,192,190097,1,0,0:0:0:0:
320,192,190213,128,0,190328:0:0:0:0:
64,192,190328,128,0,190559:0:0:0:0:
192,192,190328,1,0,0:0:0:0:
448,192,190328,1,0,0:0:0:0:
320,192,190559,1,0,0:0:0:0:
192,192,190559,1,0,0:0:0:0:
448,192,190617,1,0,0:0:0:0:
192,192,190674,128,0,190963:0:0:0:0:
64,192,190790,1,0,0:0:0:0:
320,192,190790,1,0,0:0:0:0:
448,192,190790,1,0,0:0:0:0:
320,192,191020,128,0,191251:0:0:0:0:
64,192,191020,1,0,0:0:0:0:
448,192,191020,1,0,0:0:0:0:
64,192,191251,1,0,0:0:0:0:
448,192,191251,1,0,0:0:0:0:
192,192,191309,1,0,0:0:0:0:
448,192,191367,128,0,191482:0:0:0:0:
320,192,191367,1,0,0:0:0:0:
64,192,191482,1,0,0:0:0:0:
192,192,191511,1,0,0:0:0:0:
320,192,191540,1,0,0:0:0:0:
448,192,191568,1,0,0:0:0:0:
192,192,191597,1,0,0:0:0:0:
64,192,191597,1,0,0:0:0:0:
448,192,191713,1,0,0:0:0:0:
320,192,191742,1,0,0:0:0:0:
192,192,191770,1,0,0:0:0:0:
64,192,191799,1,0,0:0:0:0:
320,192,191828,1,0,0:0:0:0:
448,192,191828,1,0,0:0:0:0:
192,192,191943,1,0,0:0:0:0:
64,192,191943,1,0,0:0:0:0:
448,192,192059,1,0,0:0:0:0:
320,192,192088,1,0,0:0:0:0:
64,192,192117,1,0,0:0:0:0:
192,192,192145,1,0,0:0:0:0:
448,192,192174,128,0,192405:0:0:0:0:
320,192,192174,1,0,0:0:0:0:
64,192,192405,128,0,192520:0:0:0:0:
192,192,192405,1,0,0:0:0:0:
320,192,192405,1,0,0:0:0:0:
448,192,192520,1,0,0:0:0:0:
320,192,192578,1,0,0:0:0:0:
448,192,192636,128,0,192751:0:0:0:0:
192,192,192636,1,0,0:0:0:0:
64,192,192636,1,0,0:0:0:0:
192,192,192751,128,0,192867:0:0:0:0:
320,192,192867,128,0,192982:0:0:0:0:
448,192,192867,1,0,0:0:0:0:
64,192,192867,1,0,0:0:0:0:
64,192,192982,128,0,193097:0:0:0:0:
448,192,193097,1,0,0:0:0:0:
192,192,193097,1,0,0:0:0:0:
320,192,193155,1,0,0:0:0:0:
64,192,193213,128,0,193328:0:0:0:0:
448,192,193328,128,0,193501:0:0:0:0:
320,192,193328,1,0,0:0:0:0:
192,192,193328,1,0,0:0:0:0:
320,192,193559,128,0,193732:0:0:0:0:
64,192,193559,1,0,0:0:0:0:
192,192,193559,1,0,0:0:0:0:
64,192,193790,128,0,193905:0:0:0:0:
192,192,193790,1,0,0:0:0:0:
448,192,193790,1,0,0:0:0:0:
320,192,193905,128,0,194020:0:0:0:0:
448,192,194020,128,0,194193:0:0:0:0:
192,192,194020,1,0,0:0:0:0:
64,192,194020,1,0,0:0:0:0:
64,192,194251,1,0,0:0:0:0:
448,192,194251,1,0,0:0:0:0:
320,192,194251,1,0,0:0:0:0:
192,192,194367,1,0,0:0:0:0:
64,192,194367,1,0,0:0:0:0:
448,192,194482,1,0,0:0:0:0:
320,192,194511,1,0,0:0:0:0:
64,192,194540,1,0,0:0:0:0:
192,192,194568,1,0,0:0:0:0:
448,192,194597,1,0,0:0:0:0:
320,192,194597,1,0,0:0:0:0:
64,192,194655,1,0,0:0:0:0:
192,192,194655,1,0,0:0:0:0:
320,192,194713,1,0,0:0:0:0:
192,192,194770,1,0,0:0:0:0:
448,192,194828,128,0,194943:0:0:0:0:
64,192,194828,1,0,0:0:0:0:
320,192,194828,1,0,0:0:0:0:
192,192,194943,1,0,0:0:0:0:
320,192,195001,1,0,0:0:0:0:
64,192,195059,128,0,195174:0:0:0:0:
192,192,195059,1,0,0:0:0:0:
448,192,195059,1,0,0:0:0:0:
320,192,195174,128,0,195347:0:0:0:0:
448,192,195174,1,0,0:0:0:0:
192,192,195174,1,0,0:0:0:0:
64,192,195405,1,0,0:0:0:0:
448,192,195405,1,0,0:0:0:0:
192,192,195405,128,0,195578:0:0:0:0:
64,192,195636,128,0,195751:0:0:0:0:
320,192,195636,1,0,0:0:0:0:
448,192,195636,1,0,0:0:0:0:
448,192,195751,128,0,195867:0:0:0:0:
320,192,195867,128,0,196040:0:0:0:0:
64,192,195867,1,0,0:0:0:0:
192,192,195867,1,0,0:0:0:0:
64,192,196097,128,0,196213:0:0:0:0:
320,192,196097,1,0,0:0:0:0:
448,192,196097,1,0,0:0:0:0:
448,192,196213,1,0,0:0:0:0:
320,192,196270,1,0,0:0:0:0:
192,192,196328,128,0,196443:0:0:0:0:
64,192,196328,1,0,0:0:0:0:
448,192,196443,128,0,196559:0:0:0:0:
320,192,196443,1,0,0:0:0:0:
64,192,196559,128,0,196674:0:0:0:0:
192,192,196559,1,0,0:0:0:0:
320,192,196674,128,0,196790:0:0:0:0:
448,192,196674,1,0,0:0:0:0:
192,192,196790,1,0,0:0:0:0:
64,192,196790,1,0,0:0:0:0:
448,192,196847,1,0,0:0:0:0:
320,192,196905,128,0,197020:0:0:0:0:
192,192,197020,128,0,197193:0:0:0:0:
64,192,197020,1,0,0:0:0:0:
448,192,197020,1,0,0:0:0:0:
320,192,197251,128,0,197424:0:0:0:0:
64,192,197251,1,0,0:0:0:0:
192,192,197251,1,0,0:0:0:0:
448,192,197482,128,0,197597:0:0:0:0:
64,192,197482,1,0,0:0:0:0:
192,192,197482,1,0,0:0:0:0:
64,192,197597,128,0,197713:0:0:0:0:
448,192,197713,1,0,0:0:0:0:
320,192,197713,1,0,0:0:0:0:
192,192,197713,1,0,0:0:0:0:
192,192,197828,128,0,197943:0:0:0:0:
64,192,197828,1,0,0:0:0:0:
448,192,197943,128,0,198059:0:0:0:0:
320,192,198059,1,0,0:0:0:0:
192,192,198117,1,0,0:0:0:0:
64,192,198174,128,0,198290:0:0:0:0:
448,192,198174,1,0,0:0:0:0:
320,192,198290,128,0,198405:0:0:0:0:
192,192,198290,1,0,0:0:0:0:
64,192,198405,1,0,0:0:0:0:
320,192,198520,128,0,198636:0:0:0:0:
192,192,198636,1,0,0:0:0:0:
64,192,198636,1,0,0:0:0:0:
448,192,198636,1,0,0:0:0:0:
320,192,198751,1,0,0:0:0:0:
192,192,198809,1,0,0:0:0:0:
448,192,198867,1,0,0:0:0:0:
320,192,198895,1,0,0:0:0:0:
192,192,198924,1,0,0:0:0:0:
64,192,198953,1,0,0:0:0:0:
320,192,198982,1,0,0:0:0:0:
448,192,198982,1,0,0:0:0:0:
64,192,199040,1,0,0:0:0:0:
192,192,199040,1,0,0:0:0:0:
448,192,199097,1,0,0:0:0:0:
320,192,199126,1,0,0:0:0:0:
64,192,199155,1,0,0:0:0:0:
192,192,199184,1,0,0:0:0:0:
320,192,199213,1,0,0:0:0:0:
448,192,199213,1,0,0:0:0:0:
192,192,199270,1,0,0:0:0:0:
64,192,199270,1,0,0:0:0:0:
448,192,199328,1,0,0:0:0:0:
320,192,199357,1,0,0:0:0:0:
64,192,199386,1,0,0:0:0:0:
192,192,199415,1,0,0:0:0:0:
448,192,199443,1,0,0:0:0:0:
320,192,199472,1,0,0:0:0:0:
64,192,199501,1,0,0:0:0:0:
192,192,199530,1,0,0:0:0:0:
320,192,199559,1,0,0:0:0:0:
448,192,199559,1,0,0:0:0:0:
64,192,199674,1,0,0:0:0:0:
192,192,199674,1,0,0:0:0:0:
64,192,199790,1,0,0:0:0:0:
448,192,199790,1,0,0:0:0:0:
320,192,199905,1,0,0:0:0:0:
448,192,199905,1,0,0:0:0:0:
320,192,200020,1,0,0:0:0:0:
64,192,200020,1,0,0:0:0:0:
64,192,200136,1,0,0:0:0:0:
192,192,200136,1,0,0:0:0:0:
192,192,200251,1,0,0:0:0:0:
320,192,200251,1,0,0:0:0:0:
320,192,200367,1,0,0:0:0:0:
448,192,200367,1,0,0:0:0:0:
192,192,200482,1,0,0:0:0:0:
64,192,200482,1,0,0:0:0:0:
64,192,200597,1,0,0:0:0:0:
448,192,200597,1,0,0:0:0:0:
320,192,200713,1,0,0:0:0:0:
448,192,200713,1,0,0:0:0:0:
64,192,200828,1,0,0:0:0:0:
320,192,200828,1,0,0:0:0:0:
64,192,200943,1,0,0:0:0:0:
192,192,200943,1,0,0:0:0:0:
192,192,201059,1,0,0:0:0:0:
448,192,201059,1,0,0:0:0:0:
320,192,201174,1,0,0:0:0:0:
64,192,201174,1,0,0:0:0:0:
320,192,201290,1,0,0:0:0:0:
448,192,201290,1,0,0:0:0:0:
192,192,201347,1,0,0:0:0:0:
64,192,201405,1,0,0:0:0:0:
320,192,201405,1,0,0:0:0:0:
448,192,201405,1,0,0:0:0:0:
192,192,201520,1,0,0:0:0:0:
64,192,201520,1,0,0:0:0:0:
192,192,201636,1,0,0:0:0:0:
448,192,201636,1,0,0:0:0:0:
320,192,201751,1,0,0:0:0:0:
448,192,201751,1,0,0:0:0:0:
192,192,201867,1,0,0:0:0:0:
64,192,201867,1,0,0:0:0:0:
64,192,201982,1,0,0:0:0:0:
320,192,201982,1,0,0:0:0:0:
192,192,202097,1,0,0:0:0:0:
448,192,202097,1,0,0:0:0:0:
320,192,202155,1,0,0:0:0:0:
192,192,202213,1,0,0:0:0:0:
64,192,202213,1,0,0:0:0:0:
320,192,202328,1,0,0:0:0:0:
448,192,202328,1,0,0:0:0:0:
64,192,202443,1,0,0:0:0:0:
448,192,202443,1,0,0:0:0:0:
192,192,202559,1,0,0:0:0:0:
64,192,202559,1,0,0:0:0:0:
192,192,202674,1,0,0:0:0:0:
320,192,202674,1,0,0:0:0:0:
448,192,202790,1,0,0:0:0:0:
320,192,202790,1,0,0:0:0:0:
64,192,202905,1,0,0:0:0:0:
448,192,202905,1,0,0:0:0:0:
64,192,203020,1,0,0:0:0:0:
192,192,203020,1,0,0:0:0:0:
320,192,203078,1,0,0:0:0:0:
448,192,203078,1,0,0:0:0:0:
192,192,203136,1,0,0:0:0:0:
64,192,203136,1,0,0:0:0:0:
320,192,203193,1,0,0:0:0:0:
192,192,203251,1,0,0:0:0:0:
64,192,203251,1,0,0:0:0:0:
448,192,203251,1,0,0:0:0:0:
320,192,203367,1,0,0:0:0:0:
448,192,203367,1,0,0:0:0:0:
320,192,203482,1,0,0:0:0:0:
64,192,203482,1,0,0:0:0:0:
192,192,203597,1,0,0:0:0:0:
448,192,203597,1,0,0:0:0:0:
192,192,203713,1,0,0:0:0:0:
64,192,203713,1,0,0:0:0:0:
64,192,203828,1,0,0:0:0:0:
448,192,203828,1,0,0:0:0:0:
320,192,203943,1,0,0:0:0:0:
448,192,203943,1,0,0:0:0:0:
192,192,204059,1,0,0:0:0:0:
320,192,204059,1,0,0:0:0:0:
64,192,204174,1,0,0:0:0:0:
448,192,204174,1,0,0:0:0:0:
192,192,204174,1,0,0:0:0:0:
64,192,204290,1,0,0:0:0:0:
320,192,204290,1,0,0:0:0:0:
192,192,204405,1,0,0:0:0:0:
448,192,204405,1,0,0:0:0:0:
320,192,204520,1,0,0:0:0:0:
448,192,204520,1,0,0:0:0:0:
320,192,204636,1,0,0:0:0:0:
64,192,204636,1,0,0:0:0:0:
64,192,204751,1,0,0:0:0:0:
192,192,204751,1,0,0:0:0:0:
192,192,204867,1,0,0:0:0:0:
448,192,204867,1,0,0:0:0:0:
320,192,204982,1,0,0:0:0:0:
448,192,204982,1,0,0:0:0:0:
64,192,205097,1,0,0:0:0:0:
192,192,205097,1,0,0:0:0:0:
320,192,205097,1,0,0:0:0:0:
448,192,205155,1,0,0:0:0:0:
64,192,205213,1,0,0:0:0:0:
192,192,205213,1,0,0:0:0:0:
320,192,205328,1,0,0:0:0:0:
448,192,205328,1,0,0:0:0:0:
448,192,205443,1,0,0:0:0:0:
64,192,205443,1,0,0:0:0:0:
192,192,205501,1,0,0:0:0:0:
320,192,205501,1,0,0:0:0:0:
64,192,205559,1,0,0:0:0:0:
448,192,205559,1,0,0:0:0:0:
192,192,205674,1,0,0:0:0:0:
64,192,205674,1,0,0:0:0:0:
320,192,205790,1,0,0:0:0:0:
448,192,205790,1,0,0:0:0:0:
192,192,205847,1,0,0:0:0:0:
64,192,205847,1,0,0:0:0:0:
320,192,205905,1,0,0:0:0:0:
448,192,205905,1,0,0:0:0:0:
448,192,206020,1,0,0:0:0:0:
192,192,206020,1,0,0:0:0:0:
64,192,206136,1,0,0:0:0:0:
320,192,206136,1,0,0:0:0:0:
192,192,206193,1,0,0:0:0:0:
448,192,206193,1,0,0:0:0:0:
320,192,206251,1,0,0:0:0:0:
64,192,206251,1,0,0:0:0:0:
192,192,206367,1,0,0:0:0:0:
64,192,206367,1,0,0:0:0:0:
320,192,206482,1,0,0:0:0:0:
448,192,206482,1,0,0:0:0:0:
192,192,206540,1,0,0:0:0:0:
64,192,206540,1,0,0:0:0:0:
320,192,206597,1,0,0:0:0:0:
448,192,206597,1,0,0:0:0:0:
192,192,206655,1,0,0:0:0:0:
64,192,206655,1,0,0:0:0:0:
448,192,206713,1,0,0:0:0:0:
320,192,206742,1,0,0:0:0:0:
64,192,206770,1,0,0:0:0:0:
192,192,206799,1,0,0:0:0:0:
448,192,206828,1,0,0:0:0:0:
320,192,206857,1,0,0:0:0:0:
64,192,206886,1,0,0:0:0:0:
192,192,206915,1,0,0:0:0:0:
320,192,206943,1,0,0:0:0:0:
448,192,206943,1,0,0:0:0:0:
192,192,207059,1,0,0:0:0:0:
64,192,207059,1,0,0:0:0:0:
192,192,207174,1,0,0:0:0:0:
448,192,207174,1,0,0:0:0:0:
320,192,207290,1,0,0:0:0:0:
448,192,207290,1,0,0:0:0:0:
320,192,207405,1,0,0:0:0:0:
64,192,207405,1,0,0:0:0:0:
64,192,207520,1,0,0:0:0:0:
192,192,207520,1,0,0:0:0:0:
192,192,207636,1,0,0:0:0:0:
320,192,207636,1,0,0:0:0:0:
320,192,207751,1,0,0:0:0:0:
448,192,207751,1,0,0:0:0:0:
448,192,207867,1,0,0:0:0:0:
64,192,207867,1,0,0:0:0:0:
192,192,207982,1,0,0:0:0:0:
320,192,207982,1,0,0:0:0:0:
64,192,208097,1,0,0:0:0:0:
320,192,208097,1,0,0:0:0:0:
192,192,208213,1,0,0:0:0:0:
64,192,208213,1,0,0:0:0:0:
192,192,208328,1,0,0:0:0:0:
448,192,208328,1,0,0:0:0:0:
448,192,208443,1,0,0:0:0:0:
320,192,208443,1,0,0:0:0:0:
320,192,208559,1,0,0:0:0:0:
64,192,208559,1,0,0:0:0:0:
64,192,208674,1,0,0:0:0:0:
192,192,208674,1,0,0:0:0:0:
320,192,208732,1,0,0:0:0:0:
448,192,208790,1,0,0:0:0:0:
192,192,208790,1,0,0:0:0:0:
64,192,208790,1,0,0:0:0:0:
320,192,208905,1,0,0:0:0:0:
448,192,208905,1,0,0:0:0:0:
64,192,208963,1,0,0:0:0:0:
448,192,209020,1,0,0:0:0:0:
320,192,209049,1,0,0:0:0:0:
192,192,209078,1,0,0:0:0:0:
64,192,209107,1,0,0:0:0:0:
448,192,209136,1,0,0:0:0:0:
320,192,209136,1,0,0:0:0:0:
192,192,209193,1,0,0:0:0:0:
320,192,209251,1,0,0:0:0:0:
448,192,209251,1,0,0:0:0:0:
64,192,209251,1,0,0:0:0:0:
64,192,209367,1,0,0:0:0:0:
192,192,209367,1,0,0:0:0:0:
448,192,209367,1,0,0:0:0:0:
64,192,209597,1,0,0:0:0:0:
192,192,209597,1,0,0:0:0:0:
320,192,209597,1,0,0:0:0:0:
448,192,209597,1,0,0:0:0:0:
320,192,209713,1,0,0:0:0:0:
192,192,209770,1,0,0:0:0:0:
64,192,209828,1,0,0:0:0:0:
448,192,209828,1,0,0:0:0:0:
192,192,209943,1,0,0:0:0:0:
320,192,209943,1,0,0:0:0:0:
192,192,210059,1,0,0:0:0:0:
64,192,210059,1,0,0:0:0:0:
64,192,210174,1,0,0:0:0:0:
448,192,210174,1,0,0:0:0:0:
320,192,210290,1,0,0:0:0:0:
448,192,210290,1,0,0:0:0:0:
192,192,210347,1,0,0:0:0:0:
64,192,210347,1,0,0:0:0:0:
448,192,210405,1,0,0:0:0:0:
320,192,210434,1,0,0:0:0:0:
64,192,210463,1,0,0:0:0:0:
192,192,210492,1,0,0:0:0:0:
320,192,210520,1,0,0:0:0:0:
448,192,210549,1,0,0:0:0:0:
64,192,210578,1,0,0:0:0:0:
192,192,210607,1,0,0:0:0:0:
320,192,210636,1,0,0:0:0:0:
448,192,210636,1,0,0:0:0:0:
64,192,210693,1,0,0:0:0:0:
448,192,210751,1,0,0:0:0:0:
192,192,210751,1,0,0:0:0:0:
320,192,210809,1,0,0:0:0:0:
192,192,210867,1,0,0:0:0:0:
64,192,210867,1,0,0:0:0:0:
448,192,210924,1,0,0:0:0:0:
320,192,210982,1,0,0:0:0:0:
64,192,210982,1,0,0:0:0:0:
192,192,211040,1,0,0:0:0:0:
320,192,211097,1,0,0:0:0:0:
448,192,211097,1,0,0:0:0:0:
192,192,211155,1,0,0:0:0:0:
64,192,211213,1,0,0:0:0:0:
448,192,211213,1,0,0:0:0:0:
320,192,211270,1,0,0:0:0:0:
192,192,211328,1,0,0:0:0:0:
64,192,211328,1,0,0:0:0:0:
320,192,211386,1,0,0:0:0:0:
448,192,211443,1,0,0:0:0:0:
192,192,211443,1,0,0:0:0:0:
64,192,211501,1,0,0:0:0:0:
448,192,211559,1,0,0:0:0:0:
320,192,211588,1,0,0:0:0:0:
192,192,211617,1,0,0:0:0:0:
64,192,211645,1,0,0:0:0:0:
448,192,211674,1,0,0:0:0:0:
320,192,211703,1,0,0:0:0:0:
192,192,211732,1,0,0:0:0:0:
64,192,211761,1,0,0:0:0:0:
448,192,211790,1,0,0:0:0:0:
320,192,211818,1,0,0:0:0:0:
192,192,211847,1,0,0:0:0:0:
64,192,211876,1,0,0:0:0:0:
448,192,211905,1,0,0:0:0:0:
320,192,211934,1,0,0:0:0:0:
192,192,211963,1,0,0:0:0:0:
64,192,211992,1,0,0:0:0:0:
448,192,212020,1,0,0:0:0:0:
320,192,212049,1,0,0:0:0:0:
64,192,212078,1,0,0:0:0:0:
192,192,212107,1,0,0:0:0:0:
448,192,212136,1,0,0:0:0:0:
320,192,212165,1,0,0:0:0:0:
64,192,212193,1,0,0:0:0:0:
192,192,212222,1,0,0:0:0:0:
448,192,212251,1,0,0:0:0:0:
320,192,212280,1,0,0:0:0:0:
64,192,212309,1,0,0:0:0:0:
192,192,212338,1,0,0:0:0:0:
448,192,212367,1,0,0:0:0:0:
320,192,212395,1,0,0:0:0:0:
64,192,212424,1,0,0:0:0:0:
192,192,212453,1,0,0:0:0:0:
320,192,212482,1,0,0:0:0:0:
448,192,212482,1,0,0:0:0:0:
64,192,212597,128,0,212713:0:0:0:0:
320,192,212713,128,0,212828:0:0:0:0:
64,192,212828,1,0,0:0:0:0:
192,192,212886,1,0,0:0:0:0:
448,192,212943,128,0,213059:0:0:0:0:
64,192,212943,1,0,0:0:0:0:
320,192,212943,1,0,0:0:0:0:
192,192,213059,128,0,213174:0:0:0:0:
448,192,213174,1,0,0:0:0:0:
192,192,213290,128,0,213405:0:0:0:0:
320,192,213405,1,0,0:0:0:0:
448,192,213405,1,0,0:0:0:0:
320,192,213520,1,0,0:0:0:0:
448,192,213520,1,0,0:0:0:0:
64,192,213636,1,0,0:0:0:0:
192,192,213636,1,0,0:0:0:0:
64,192,213751,1,0,0:0:0:0:
192,192,213751,1,0,0:0:0:0:
320,192,213867,1,0,0:0:0:0:
448,192,213867,1,0,0:0:0:0:
192,192,213924,1,0,0:0:0:0:
64,192,213924,1,0,0:0:0:0:
320,192,213982,1,0,0:0:0:0:
448,192,213982,1,0,0:0:0:0:
192,192,214040,1,0,0:0:0:0:
64,192,214040,1,0,0:0:0:0:
320,192,214097,1,0,0:0:0:0:
448,192,214097,1,0,0:0:0:0:
64,192,214155,1,0,0:0:0:0:
192,192,214155,1,0,0:0:0:0:
320,192,214213,1,0,0:0:0:0:
448,192,214213,1,0,0:0:0:0:
192,192,214270,1,0,0:0:0:0:
320,192,214328,1,0,0:0:0:0:
448,192,214328,1,0,0:0:0:0:
64,192,214328,1,0,0:0:0:0:
64,192,214443,1,0,0:0:0:0:
192,192,214443,1,0,0:0:0:0:
192,192,214559,1,0,0:0:0:0:
448,192,214559,1,0,0:0:0:0:
320,192,214674,1,0,0:0:0:0:
448,192,214674,1,0,0:0:0:0:
320,192,214790,1,0,0:0:0:0:
64,192,214790,1,0,0:0:0:0:
64,192,214905,1,0,0:0:0:0:
192,192,214905,1,0,0:0:0:0:
192,192,215020,1,0,0:0:0:0:
320,192,215020,1,0,0:0:0:0:
320,192,215136,1,0,0:0:0:0:
448,192,215136,1,0,0:0:0:0:
192,192,215251,1,0,0:0:0:0:
64,192,215251,1,0,0:0:0:0:
64,192,215367,1,0,0:0:0:0:
448,192,215367,1,0,0:0:0:0:
320,192,215482,1,0,0:0:0:0:
448,192,215482,1,0,0:0:0:0:
64,192,215597,1,0,0:0:0:0:
320,192,215597,1,0,0:0:0:0:
64,192,215713,1,0,0:0:0:0:
192,192,215713,1,0,0:0:0:0:
192,192,215828,1,0,0:0:0:0:
448,192,215828,1,0,0:0:0:0:
320,192,215943,1,0,0:0:0:0:
64,192,215943,1,0,0:0:0:0:
320,192,216059,1,0,0:0:0:0:
448,192,216059,1,0,0:0:0:0:
192,192,216117,1,0,0:0:0:0:
64,192,216174,1,0,0:0:0:0:
320,192,216174,1,0,0:0:0:0:
448,192,216174,1,0,0:0:0:0:
192,192,216290,1,0,0:0:0:0:
64,192,216290,1,0,0:0:0:0:
192,192,216405,1,0,0:0:0:0:
448,192,216405,1,0,0:0:0:0:
320,192,216520,1,0,0:0:0:0:
448,192,216520,1,0,0:0:0:0:
192,192,216636,1,0,0:0:0:0:
64,192,216636,1,0,0:0:0:0:
64,192,216751,1,0,0:0:0:0:
320,192,216751,1,0,0:0:0:0:
192,192,216867,1,0,0:0:0:0:
448,192,216867,1,0,0:0:0:0:
192,192,216982,1,0,0:0:0:0:
64,192,216982,1,0,0:0:0:0:
320,192,217097,1,0,0:0:0:0:
448,192,217097,1,0,0:0:0:0:
64,192,217213,1,0,0:0:0:0:
448,192,217213,1,0,0:0:0:0:
192,192,217328,1,0,0:0:0:0:
64,192,217328,1,0,0:0:0:0:
320,192,217386,1,0,0:0:0:0:
448,192,217386,1,0,0:0:0:0:
192,192,217443,1,0,0:0:0:0:
64,192,217443,1,0,0:0:0:0:
448,192,217501,1,0,0:0:0:0:
320,192,217501,1,0,0:0:0:0:
192,192,217559,1,0,0:0:0:0:
64,192,217559,1,0,0:0:0:0:
448,192,217674,1,0,0:0:0:0:
320,192,217703,1,0,0:0:0:0:
192,192,217732,1,0,0:0:0:0:
64,192,217761,1,0,0:0:0:0:
320,192,217790,1,0,0:0:0:0:
448,192,217790,1,0,0:0:0:0:
64,192,217905,1,0,0:0:0:0:
192,192,217934,1,0,0:0:0:0:
320,192,217963,1,0,0:0:0:0:
448,192,217992,1,0,0:0:0:0:
192,192,218020,1,0,0:0:0:0:
64,192,218020,1,0,0:0:0:0:
320,192,218136,1,0,0:0:0:0:
448,192,218136,1,0,0:0:0:0:
320,192,218251,1,0,0:0:0:0:
64,192,218251,1,0,0:0:0:0:
192,192,218367,1,0,0:0:0:0:
448,192,218367,1,0,0:0:0:0:
192,192,218482,1,0,0:0:0:0:
64,192,218482,1,0,0:0:0:0:
64,192,218597,1,0,0:0:0:0:
448,192,218597,1,0,0:0:0:0:
320,192,218713,1,0,0:0:0:0:
448,192,218713,1,0,0:0:0:0:
192,192,218828,1,0,0:0:0:0:
320,192,218828,1,0,0:0:0:0:
64,192,218943,1,0,0:0:0:0:
448,192,218943,1,0,0:0:0:0:
192,192,218943,1,0,0:0:0:0:
64,192,219059,1,0,0:0:0:0:
320,192,219059,1,0,0:0:0:0:
192,192,219174,1,0,0:0:0:0:
448,192,219174,1,0,0:0:0:0:
320,192,219290,1,0,0:0:0:0:
448,192,219290,1,0,0:0:0:0:
320,192,219405,1,0,0:0:0:0:
64,192,219405,1,0,0:0:0:0:
64,192,219520,1,0,0:0:0:0:
192,192,219520,1,0,0:0:0:0:
192,192,219636,1,0,0:0:0:0:
448,192,219636,1,0,0:0:0:0:
320,192,219751,1,0,0:0:0:0:
448,192,219751,1,0,0:0:0:0:
192,192,219809,1,0,0:0:0:0:
64,192,219809,1,0,0:0:0:0:
448,192,219867,1,0,0:0:0:0:
320,192,219895,1,0,0:0:0:0:
64,192,219924,1,0,0:0:0:0:
192,192,219953,1,0,0:0:0:0:
320,192,219982,1,0,0:0:0:0:
448,192,219982,1,0,0:0:0:0:
64,192,220097,1,0,0:0:0:0:
320,192,220097,1,0,0:0:0:0:
192,192,220213,1,0,0:0:0:0:
64,192,220213,1,0,0:0:0:0:
448,192,220328,1,0,0:0:0:0:
320,192,220357,1,0,0:0:0:0:
192,192,220386,1,0,0:0:0:0:
64,192,220415,1,0,0:0:0:0:
320,192,220443,1,0,0:0:0:0:
448,192,220443,1,0,0:0:0:0:
448,192,220559,1,0,0:0:0:0:
192,192,220559,1,0,0:0:0:0:
320,192,220674,1,0,0:0:0:0:
64,192,220674,1,0,0:0:0:0:
448,192,220790,128,0,220905:0:0:0:0:
64,192,220905,128,0,221020:0:0:0:0:
320,192,221020,128,0,221136:0:0:0:0:
192,192,221136,1,0,0:0:0:0:
448,192,221251,128,0,221367:0:0:0:0:
320,192,221367,128,0,221482:0:0:0:0:
192,192,221482,128,0,221597:0:0:0:0:
64,192,221597,128,0,221713:0:0:0:0:
320,192,221713,1,0,0:0:0:0:
448,192,221713,1,0,0:0:0:0:
64,192,221828,1,0,0:0:0:0:
192,192,221828,1,0,0:0:0:0:
192,192,221943,1,0,0:0:0:0:
448,192,221943,1,0,0:0:0:0:
320,192,222059,1,0,0:0:0:0:
448,192,222059,1,0,0:0:0:0:
320,192,222174,1,0,0:0:0:0:
64,192,222174,1,0,0:0:0:0:
64,192,222290,1,0,0:0:0:0:
192,192,222290,1,0,0:0:0:0:
192,192,222405,1,0,0:0:0:0:
320,192,222405,1,0,0:0:0:0:
320,192,222520,1,0,0:0:0:0:
448,192,222520,1,0,0:0:0:0:
192,192,222578,1,0,0:0:0:0:
64,192,222578,1,0,0:0:0:0:
320,192,222636,1,0,0:0:0:0:
448,192,222636,1,0,0:0:0:0:
192,192,222751,1,0,0:0:0:0:
64,192,222751,1,0,0:0:0:0:
320,192,222867,1,0,0:0:0:0:
64,192,222867,1,0,0:0:0:0:
448,192,222982,1,0,0:0:0:0:
192,192,222982,1,0,0:0:0:0:
448,192,223097,1,0,0:0:0:0:
320,192,223097,1,0,0:0:0:0:
192,192,223213,1,0,0:0:0:0:
64,192,223213,1,0,0:0:0:0:
320,192,223270,1,0,0:0:0:0:
448,192,223270,1,0,0:0:0:0:
64,192,223328,1,0,0:0:0:0:
192,192,223328,1,0,0:0:0:0:
64,192,223443,1,0,0:0:0:0:
192,192,223472,1,0,0:0:0:0:
320,192,223501,1,0,0:0:0:0:
448,192,223530,1,0,0:0:0:0:
192,192,223559,1,0,0:0:0:0:
64,192,223559,1,0,0:0:0:0:
320,192,223674,1,0,0:0:0:0:
448,192,223674,1,0,0:0:0:0:
320,192,223790,1,0,0:0:0:0:
64,192,223790,1,0,0:0:0:0:
192,192,223905,1,0,0:0:0:0:
64,192,223905,1,0,0:0:0:0:
320,192,224020,1,0,0:0:0:0:
448,192,224020,1,0,0:0:0:0:
448,192,224136,1,0,0:0:0:0:
192,192,224136,1,0,0:0:0:0:
320,192,224251,1,0,0:0:0:0:
64,192,224251,1,0,0:0:0:0:
320,192,224367,1,0,0:0:0:0:
448,192,224367,1,0,0:0:0:0:
192,192,224424,1,0,0:0:0:0:
64,192,224424,1,0,0:0:0:0:
320,192,224482,1,0,0:0:0:0:
448,192,224482,1,0,0:0:0:0:
448,192,224597,1,0,0:0:0:0:
64,192,224597,1,0,0:0:0:0:
192,192,224655,1,0,0:0:0:0:
320,192,224655,1,0,0:0:0:0:
448,192,224713,1,0,0:0:0:0:
64,192,224713,1,0,0:0:0:0:
64,192,224828,1,0,0:0:0:0:
192,192,224828,1,0,0:0:0:0:
320,192,224886,1,0,0:0:0:0:
448,192,224886,1,0,0:0:0:0:
64,192,224943,1,0,0:0:0:0:
192,192,224943,1,0,0:0:0:0:
320,192,225059,1,0,0:0:0:0:
448,192,225059,1,0,0:0:0:0:
320,192,225174,1,0,0:0:0:0:
64,192,225174,1,0,0:0:0:0:
64,192,225290,1,0,0:0:0:0:
192,192,225290,1,0,0:0:0:0:
320,192,225405,1,0,0:0:0:0:
448,192,225405,1,0,0:0:0:0:
64,192,225463,1,0,0:0:0:0:
192,192,225520,1,0,0:0:0:0:
448,192,225520,1,0,0:0:0:0:
320,192,225578,1,0,0:0:0:0:
192,192,225636,1,0,0:0:0:0:
64,192,225636,1,0,0:0:0:0:
448,192,225693,1,0,0:0:0:0:
320,192,225751,1,0,0:0:0:0:
64,192,225751,1,0,0:0:0:0:
192,192,225809,1,0,0:0:0:0:
320,192,225867,1,0,0:0:0:0:
448,192,225867,1,0,0:0:0:0:
64,192,225924,1,0,0:0:0:0:
192,192,225982,1,0,0:0:0:0:
448,192,225982,1,0,0:0:0:0:
320,192,226040,1,0,0:0:0:0:
192,192,226097,1,0,0:0:0:0:
64,192,226097,1,0,0:0:0:0:
320,192,226155,1,0,0:0:0:0:
448,192,226213,1,0,0:0:0:0:
64,192,226213,1,0,0:0:0:0:
192,192,226270,1,0,0:0:0:0:
320,192,226328,1,0,0:0:0:0:
448,192,226328,1,0,0:0:0:0:
64,192,226386,1,0,0:0:0:0:
192,192,226443,1,0,0:0:0:0:
320,192,226443,1,0,0:0:0:0:
448,192,226501,1,0,0:0:0:0:
192,192,226559,1,0,0:0:0:0:
64,192,226559,1,0,0:0:0:0:
448,192,226617,1,0,0:0:0:0:
320,192,226674,1,0,0:0:0:0:
64,192,226674,1,0,0:0:0:0:
192,192,226732,1,0,0:0:0:0:
320,192,226790,1,0,0:0:0:0:
448,192,226790,1,0,0:0:0:0:
192,192,226847,1,0,0:0:0:0:
448,192,226905,1,0,0:0:0:0:
320,192,226934,1,0,0:0:0:0:
64,192,226963,1,0,0:0:0:0:
192,192,226992,1,0,0:0:0:0:
320,192,227020,1,0,0:0:0:0:
448,192,227020,1,0,0:0:0:0:
64,192,227078,1,0,0:0:0:0:
192,192,227136,1,0,0:0:0:0:
320,192,227136,1,0,0:0:0:0:
448,192,227193,1,0,0:0:0:0:
192,192,227251,1,0,0:0:0:0:
64,192,227251,1,0,0:0:0:0:
320,192,227309,1,0,0:0:0:0:
448,192,227309,1,0,0:0:0:0:
192,192,227367,1,0,0:0:0:0:
64,192,227367,1,0,0:0:0:0:
320,192,227424,1,0,0:0:0:0:
448,192,227424,1,0,0:0:0:0:
192,192,227482,1,0,0:0:0:0:
64,192,227482,1,0,0:0:0:0:
320,192,227540,1,0,0:0:0:0:
448,192,227540,1,0,0:0:0:0:
192,192,227597,1,0,0:0:0:0:
64,192,227597,1,0,0:0:0:0:
320,192,227655,1,0,0:0:0:0:
448,192,227655,1,0,0:0:0:0:
64,192,227713,1,0,0:0:0:0:
192,192,227742,1,0,0:0:0:0:
448,192,227770,1,0,0:0:0:0:
320,192,227799,1,0,0:0:0:0:
64,192,227828,1,0,0:0:0:0:
192,192,227857,1,0,0:0:0:0:
448,192,227886,1,0,0:0:0:0:
320,192,227915,1,0,0:0:0:0:
64,192,227943,1,0,0:0:0:0:
192,192,227972,1,0,0:0:0:0:
448,192,228001,1,0,0:0:0:0:
320,192,228030,1,0,0:0:0:0:
64,192,228059,1,0,0:0:0:0:
192,192,228088,1,0,0:0:0:0:
448,192,228117,1,0,0:0:0:0:
320,192,228145,1,0,0:0:0:0:
192,192,228174,1,0,0:0:0:0:
64,192,228174,1,0,0:0:0:0:
64,192,228290,1,0,0:0:0:0:
192,192,228290,1,0,0:0:0:0:
320,192,228405,1,0,0:0:0:0:
448,192,228405,1,0,0:0:0:0:
320,192,228520,1,0,0:0:0:0:
448,192,228520,1,0,0:0:0:0:
448,192,228636,1,0,0:0:0:0:
64,192,228636,128,0,228751:0:0:0:0:
192,192,228751,1,0,0:0:0:0:
64,192,228867,128,0,228982:0:0:0:0:
448,192,228867,1,0,0:0:0:0:
320,192,228982,1,0,0:0:0:0:
64,192,229097,128,0,229559:0:0:0:0:
192,192,229097,128,0,229559:0:0:0:0:
448,192,229097,128,0,231867:0:0:0:0:
