osu file format v14

[General]
AudioFilename: Cross The Finish Line feat. Nanahira (short Ver.).mp3
AudioLeadIn: 0
PreviewTime: 49500
Countdown: 0
SampleSet: None
StackLeniency: 0.7
Mode: 3
LetterboxInBreaks: 0
SpecialStyle: 1
WidescreenStoryboard: 1

[Editor]
DistanceSpacing: 1
BeatDivisor: 8
GridSize: 4
TimelineZoom: 3.1

[Metadata]
Title:Cross The Finish Line feat. Nanahira
TitleUnicode:Cross The Finish Line feat. ななひら
Artist:kobaryo
ArtistUnicode:kobaryo
Creator:PiraTom
Version:SHD
Source:
Tags:nanahira kobaryo candy speed pops
BeatmapID:1116000
BeatmapSetID:525847

[Difficulty]
HPDrainRate:8
CircleSize:4
OverallDifficulty:8
ApproachRate:5
SliderMultiplier:1.4
SliderTickRate:2

[Events]
//Background and Video events
0,0,"cross.jpg",0,0
//Break Periods
//Storyboard Layer 0 (Background)
//Storyboard Layer 1 (Fail)
//Storyboard Layer 2 (Pass)
//Storyboard Layer 3 (Foreground)
//Storyboard Sound Samples

[TimingPoints]
590,461.538461538462,4,1,0,0,1,0
590,-50,4,1,0,0,0,0
5205,230.769230769231,4,1,0,0,1,0
12590,461.538461538462,4,1,0,0,1,0
12590,-50,4,1,0,0,0,0
31051,230.769230769231,4,1,0,0,1,0
38436,461.538461538462,4,1,0,0,1,0
38436,-50,4,1,0,0,0,0
42128,230.769230769231,4,1,0,0,1,0
82743,461.538461538462,4,1,0,0,1,0
82743,-50,4,1,0,0,0,0
90128,230.769230769231,4,1,0,0,1,0
112282,461.538461538462,4,1,0,0,1,0
112282,-50,4,1,0,0,0,0

[HitObjects]
320,192,590,5,0,0:0:0:0:
320,192,820,1,0,0:0:0:0:
320,192,1051,1,0,0:0:0:0:
320,192,1282,1,0,0:0:0:0:
64,192,1513,1,0,0:0:0:0:
192,192,1513,1,0,0:0:0:0:
320,192,1513,1,0,0:0:0:0:
448,192,1513,1,0,0:0:0:0:
64,192,2436,1,0,0:0:0:0:
192,192,2436,1,0,0:0:0:0:
320,192,2436,1,0,0:0:0:0:
448,192,2436,1,0,0:0:0:0:
64,192,3359,1,0,0:0:0:0:
192,192,3359,1,0,0:0:0:0:
320,192,3359,1,0,0:0:0:0:
448,192,3359,1,0,0:0:0:0:
64,192,3820,1,0,0:0:0:0:
192,192,3820,1,0,0:0:0:0:
320,192,3820,1,0,0:0:0:0:
448,192,3820,1,0,0:0:0:0:
64,192,3936,1,0,0:0:0:0:
192,192,3936,1,0,0:0:0:0:
320,192,3936,1,0,0:0:0:0:
448,192,3936,1,0,0:0:0:0:
64,192,4166,1,0,0:0:0:0:
448,192,4195,1,0,0:0:0:0:
192,192,4224,1,0,0:0:0:0:
320,192,4253,1,0,0:0:0:0:
64,192,4282,1,0,0:0:0:0:
448,192,4311,1,0,0:0:0:0:
192,192,4340,1,0,0:0:0:0:
320,192,4368,1,0,0:0:0:0:
64,192,4397,1,0,0:0:0:0:
448,192,4513,1,0,0:0:0:0:
64,192,4743,1,0,0:0:0:0:
448,192,4743,1,0,0:0:0:0:
192,192,4743,1,0,0:0:0:0:
320,192,4743,1,0,0:0:0:0:
320,192,4974,128,0,5032:0:0:0:0:
64,192,5205,1,0,0:0:0:0:
448,192,5205,1,0,0:0:0:0:
320,192,5205,1,0,0:0:0:0:
192,192,5320,1,0,0:0:0:0:
64,192,5435,1,0,0:0:0:0:
192,192,5435,1,0,0:0:0:0:
448,192,5435,1,0,0:0:0:0:
320,192,5551,1,0,0:0:0:0:
192,192,5666,1,0,0:0:0:0:
320,192,5666,1,0,0:0:0:0:
448,192,5666,1,0,0:0:0:0:
448,192,5781,1,0,0:0:0:0:
64,192,5781,1,0,0:0:0:0:
64,192,5897,1,0,0:0:0:0:
192,192,5897,1,0,0:0:0:0:
320,192,5897,1,0,0:0:0:0:
192,192,6012,1,0,0:0:0:0:
448,192,6012,1,0,0:0:0:0:
64,192,6128,1,0,0:0:0:0:
320,192,6128,1,0,0:0:0:0:
448,192,6128,1,0,0:0:0:0:
192,192,6243,1,0,0:0:0:0:
64,192,6358,1,0,0:0:0:0:
320,192,6358,1,0,0:0:0:0:
448,192,6358,1,0,0:0:0:0:
192,192,6474,1,0,0:0:0:0:
320,192,6474,1,0,0:0:0:0:
64,192,6589,1,0,0:0:0:0:
192,192,6589,1,0,0:0:0:0:
448,192,6589,1,0,0:0:0:0:
64,192,6705,1,0,0:0:0:0:
320,192,6705,1,0,0:0:0:0:
192,192,6820,1,0,0:0:0:0:
448,192,6820,1,0,0:0:0:0:
64,192,6935,1,0,0:0:0:0:
448,192,6935,1,0,0:0:0:0:
320,192,6935,1,0,0:0:0:0:
64,192,7051,1,0,0:0:0:0:
192,192,7051,1,0,0:0:0:0:
320,192,7051,1,0,0:0:0:0:
448,192,7166,1,0,0:0:0:0:
64,192,7281,1,0,0:0:0:0:
320,192,7281,1,0,0:0:0:0:
448,192,7281,1,0,0:0:0:0:
192,192,7397,1,0,0:0:0:0:
64,192,7512,1,0,0:0:0:0:
448,192,7512,1,0,0:0:0:0:
320,192,7628,1,0,0:0:0:0:
192,192,7743,1,0,0:0:0:0:
320,192,7743,1,0,0:0:0:0:
448,192,7743,1,0,0:0:0:0:
64,192,7858,1,0,0:0:0:0:
192,192,7858,1,0,0:0:0:0:
64,192,7974,1,0,0:0:0:0:
320,192,7974,1,0,0:0:0:0:
448,192,7974,1,0,0:0:0:0:
192,192,8089,1,0,0:0:0:0:
64,192,8205,1,0,0:0:0:0:
448,192,8205,1,0,0:0:0:0:
320,192,8205,1,0,0:0:0:0:
448,192,8320,1,0,0:0:0:0:
64,192,8435,1,0,0:0:0:0:
192,192,8435,1,0,0:0:0:0:
320,192,8435,1,0,0:0:0:0:
64,192,8551,1,0,0:0:0:0:
192,192,8551,1,0,0:0:0:0:
448,192,8608,1,0,0:0:0:0:
320,192,8608,1,0,0:0:0:0:
192,192,8666,1,0,0:0:0:0:
64,192,8666,1,0,0:0:0:0:
320,192,8781,1,0,0:0:0:0:
192,192,8781,1,0,0:0:0:0:
448,192,8897,1,0,0:0:0:0:
64,192,8897,1,0,0:0:0:0:
320,192,8897,1,0,0:0:0:0:
192,192,9012,1,0,0:0:0:0:
64,192,9128,1,0,0:0:0:0:
192,192,9128,1,0,0:0:0:0:
448,192,9128,1,0,0:0:0:0:
448,192,9243,1,0,0:0:0:0:
64,192,9358,1,0,0:0:0:0:
320,192,9358,1,0,0:0:0:0:
192,192,9358,1,0,0:0:0:0:
64,192,9474,1,0,0:0:0:0:
448,192,9474,1,0,0:0:0:0:
192,192,9589,1,0,0:0:0:0:
320,192,9589,1,0,0:0:0:0:
192,192,9705,1,0,0:0:0:0:
448,192,9705,1,0,0:0:0:0:
64,192,9820,1,0,0:0:0:0:
320,192,9820,1,0,0:0:0:0:
448,192,9820,1,0,0:0:0:0:
64,192,9935,1,0,0:0:0:0:
192,192,9935,1,0,0:0:0:0:
192,192,10051,1,0,0:0:0:0:
448,192,10051,1,0,0:0:0:0:
320,192,10051,1,0,0:0:0:0:
64,192,10166,1,0,0:0:0:0:
320,192,10166,1,0,0:0:0:0:
192,192,10281,1,0,0:0:0:0:
448,192,10281,1,0,0:0:0:0:
448,192,10397,1,0,0:0:0:0:
64,192,10397,1,0,0:0:0:0:
192,192,10512,1,0,0:0:0:0:
320,192,10512,1,0,0:0:0:0:
64,192,10628,1,0,0:0:0:0:
192,192,10628,1,0,0:0:0:0:
448,192,10628,1,0,0:0:0:0:
64,192,10743,1,0,0:0:0:0:
320,192,10743,1,0,0:0:0:0:
192,192,10743,1,0,0:0:0:0:
448,192,10858,1,0,0:0:0:0:
320,192,10974,1,0,0:0:0:0:
448,192,10974,1,0,0:0:0:0:
192,192,10974,1,0,0:0:0:0:
64,192,11089,1,0,0:0:0:0:
448,192,11205,1,0,0:0:0:0:
192,192,11205,1,0,0:0:0:0:
192,192,11320,1,0,0:0:0:0:
320,192,11320,1,0,0:0:0:0:
320,192,11435,1,0,0:0:0:0:
448,192,11435,1,0,0:0:0:0:
64,192,11435,1,0,0:0:0:0:
64,192,11551,1,0,0:0:0:0:
192,192,11551,1,0,0:0:0:0:
320,192,11666,1,0,0:0:0:0:
448,192,11666,1,0,0:0:0:0:
192,192,11666,1,0,0:0:0:0:
448,192,11781,1,0,0:0:0:0:
64,192,11897,1,0,0:0:0:0:
192,192,11897,1,0,0:0:0:0:
320,192,11897,1,0,0:0:0:0:
320,192,12012,1,0,0:0:0:0:
192,192,12128,1,0,0:0:0:0:
448,192,12128,1,0,0:0:0:0:
64,192,12128,128,0,12590:0:0:0:0:
320,192,12589,1,0,0:0:0:0:
448,192,12589,1,0,0:0:0:0:
64,192,12820,1,0,0:0:0:0:
192,192,13051,1,0,0:0:0:0:
448,192,13051,1,0,0:0:0:0:
64,192,13282,1,0,0:0:0:0:
320,192,13397,1,0,0:0:0:0:
448,192,13397,1,0,0:0:0:0:
192,192,13513,1,0,0:0:0:0:
64,192,13513,1,0,0:0:0:0:
64,192,13743,1,0,0:0:0:0:
192,192,13974,1,0,0:0:0:0:
448,192,13974,1,0,0:0:0:0:
320,192,14205,1,0,0:0:0:0:
64,192,14320,1,0,0:0:0:0:
192,192,14320,1,0,0:0:0:0:
320,192,14436,1,0,0:0:0:0:
448,192,14436,1,0,0:0:0:0:
64,192,14666,1,0,0:0:0:0:
192,192,14897,1,0,0:0:0:0:
320,192,14897,1,0,0:0:0:0:
64,192,15128,1,0,0:0:0:0:
320,192,15243,1,0,0:0:0:0:
448,192,15243,1,0,0:0:0:0:
64,192,15359,1,0,0:0:0:0:
192,192,15359,1,0,0:0:0:0:
448,192,15474,1,0,0:0:0:0:
320,192,15474,1,0,0:0:0:0:
64,192,15590,1,0,0:0:0:0:
192,192,15590,1,0,0:0:0:0:
320,192,15647,1,0,0:0:0:0:
448,192,15647,1,0,0:0:0:0:
64,192,15705,1,0,0:0:0:0:
192,192,15705,1,0,0:0:0:0:
448,192,15763,1,0,0:0:0:0:
320,192,15763,1,0,0:0:0:0:
64,192,15820,128,0,16282:0:0:0:0:
192,192,16282,1,0,0:0:0:0:
448,192,16282,1,0,0:0:0:0:
320,192,16513,1,0,0:0:0:0:
64,192,16743,1,0,0:0:0:0:
192,192,16743,1,0,0:0:0:0:
448,192,16974,1,0,0:0:0:0:
64,192,17205,1,0,0:0:0:0:
192,192,17436,1,0,0:0:0:0:
320,192,17436,1,0,0:0:0:0:
64,192,17666,1,0,0:0:0:0:
448,192,17666,1,0,0:0:0:0:
320,192,17897,1,0,0:0:0:0:
192,192,18128,1,0,0:0:0:0:
448,192,18128,1,0,0:0:0:0:
64,192,18359,1,0,0:0:0:0:
320,192,18590,1,0,0:0:0:0:
448,192,18590,1,0,0:0:0:0:
192,192,18820,1,0,0:0:0:0:
64,192,19051,1,0,0:0:0:0:
192,192,19282,1,0,0:0:0:0:
448,192,19282,1,0,0:0:0:0:
64,192,19513,1,0,0:0:0:0:
320,192,19513,1,0,0:0:0:0:
192,192,19743,1,0,0:0:0:0:
64,192,19974,1,0,0:0:0:0:
448,192,19974,1,0,0:0:0:0:
320,192,20205,1,0,0:0:0:0:
448,192,20205,1,0,0:0:0:0:
64,192,20436,1,0,0:0:0:0:
192,192,20436,1,0,0:0:0:0:
320,192,20666,1,0,0:0:0:0:
192,192,20897,1,0,0:0:0:0:
64,192,21128,1,0,0:0:0:0:
320,192,21128,1,0,0:0:0:0:
192,192,21359,1,0,0:0:0:0:
448,192,21359,1,0,0:0:0:0:
320,192,21590,1,0,0:0:0:0:
64,192,21820,1,0,0:0:0:0:
192,192,21820,1,0,0:0:0:0:
320,192,22051,1,0,0:0:0:0:
64,192,22282,1,0,0:0:0:0:
448,192,22282,1,0,0:0:0:0:
320,192,22513,1,0,0:0:0:0:
64,192,22743,1,0,0:0:0:0:
192,192,22974,1,0,0:0:0:0:
448,192,22974,1,0,0:0:0:0:
64,192,23205,1,0,0:0:0:0:
320,192,23205,1,0,0:0:0:0:
448,192,23436,1,0,0:0:0:0:
64,192,23666,1,0,0:0:0:0:
192,192,23666,1,0,0:0:0:0:
320,192,23666,1,0,0:0:0:0:
448,192,23724,1,0,0:0:0:0:
320,192,23782,1,0,0:0:0:0:
192,192,23840,1,0,0:0:0:0:
64,192,23897,1,0,0:0:0:0:
320,192,23955,1,0,0:0:0:0:
192,192,24013,1,0,0:0:0:0:
448,192,24070,1,0,0:0:0:0:
320,192,24128,1,0,0:0:0:0:
64,192,24186,1,0,0:0:0:0:
192,192,24243,1,0,0:0:0:0:
320,192,24301,1,0,0:0:0:0:
192,192,24359,1,0,0:0:0:0:
64,192,24416,1,0,0:0:0:0:
320,192,24474,1,0,0:0:0:0:
192,192,24532,1,0,0:0:0:0:
64,192,24590,1,0,0:0:0:0:
320,192,24590,1,0,0:0:0:0:
448,192,24590,1,0,0:0:0:0:
192,192,24647,1,0,0:0:0:0:
320,192,24705,1,0,0:0:0:0:
448,192,24763,1,0,0:0:0:0:
192,192,24820,1,0,0:0:0:0:
64,192,24878,1,0,0:0:0:0:
320,192,24936,1,0,0:0:0:0:
192,192,24993,1,0,0:0:0:0:
64,192,25051,1,0,0:0:0:0:
320,192,25109,1,0,0:0:0:0:
448,192,25166,1,0,0:0:0:0:
192,192,25224,1,0,0:0:0:0:
320,192,25282,1,0,0:0:0:0:
64,192,25340,1,0,0:0:0:0:
320,192,25397,1,0,0:0:0:0:
192,192,25455,1,0,0:0:0:0:
64,192,25513,1,0,0:0:0:0:
320,192,25513,1,0,0:0:0:0:
448,192,25513,1,0,0:0:0:0:
192,192,25570,1,0,0:0:0:0:
448,192,25628,1,0,0:0:0:0:
320,192,25686,1,0,0:0:0:0:
64,192,25743,1,0,0:0:0:0:
192,192,25801,1,0,0:0:0:0:
320,192,25859,1,0,0:0:0:0:
64,192,25916,1,0,0:0:0:0:
448,192,25974,1,0,0:0:0:0:
320,192,26032,1,0,0:0:0:0:
192,192,26090,1,0,0:0:0:0:
448,192,26147,1,0,0:0:0:0:
64,192,26205,1,0,0:0:0:0:
320,192,26263,1,0,0:0:0:0:
192,192,26320,1,0,0:0:0:0:
448,192,26378,1,0,0:0:0:0:
64,192,26436,1,0,0:0:0:0:
320,192,26436,1,0,0:0:0:0:
192,192,26436,1,0,0:0:0:0:
448,192,26493,1,0,0:0:0:0:
64,192,26551,1,0,0:0:0:0:
320,192,26609,1,0,0:0:0:0:
192,192,26666,1,0,0:0:0:0:
448,192,26724,1,0,0:0:0:0:
320,192,26782,1,0,0:0:0:0:
192,192,26840,1,0,0:0:0:0:
64,192,26897,1,0,0:0:0:0:
448,192,26955,1,0,0:0:0:0:
192,192,27013,1,0,0:0:0:0:
320,192,27070,1,0,0:0:0:0:
64,192,27128,1,0,0:0:0:0:
192,192,27186,1,0,0:0:0:0:
448,192,27243,1,0,0:0:0:0:
320,192,27301,1,0,0:0:0:0:
64,192,27359,1,0,0:0:0:0:
192,192,27359,1,0,0:0:0:0:
448,192,27359,1,0,0:0:0:0:
320,192,27416,1,0,0:0:0:0:
64,192,27474,1,0,0:0:0:0:
192,192,27532,1,0,0:0:0:0:
448,192,27590,1,0,0:0:0:0:
320,192,27647,1,0,0:0:0:0:
64,192,27705,1,0,0:0:0:0:
192,192,27763,1,0,0:0:0:0:
320,192,27820,1,0,0:0:0:0:
448,192,27878,1,0,0:0:0:0:
192,192,27936,1,0,0:0:0:0:
64,192,27993,1,0,0:0:0:0:
448,192,28051,1,0,0:0:0:0:
320,192,28109,1,0,0:0:0:0:
192,192,28166,1,0,0:0:0:0:
64,192,28224,1,0,0:0:0:0:
192,192,28282,1,0,0:0:0:0:
320,192,28282,1,0,0:0:0:0:
448,192,28282,1,0,0:0:0:0:
64,192,28340,1,0,0:0:0:0:
192,192,28397,1,0,0:0:0:0:
448,192,28455,1,0,0:0:0:0:
320,192,28513,1,0,0:0:0:0:
64,192,28570,1,0,0:0:0:0:
192,192,28628,1,0,0:0:0:0:
448,192,28686,1,0,0:0:0:0:
192,192,28743,1,0,0:0:0:0:
64,192,28801,1,0,0:0:0:0:
320,192,28859,1,0,0:0:0:0:
192,192,28916,1,0,0:0:0:0:
448,192,28974,1,0,0:0:0:0:
320,192,29032,1,0,0:0:0:0:
64,192,29090,1,0,0:0:0:0:
192,192,29147,1,0,0:0:0:0:
64,192,29205,1,0,0:0:0:0:
320,192,29205,1,0,0:0:0:0:
448,192,29205,1,0,0:0:0:0:
192,192,29263,1,0,0:0:0:0:
448,192,29320,1,0,0:0:0:0:
64,192,29378,1,0,0:0:0:0:
320,192,29436,1,0,0:0:0:0:
192,192,29493,1,0,0:0:0:0:
448,192,29551,1,0,0:0:0:0:
320,192,29609,1,0,0:0:0:0:
64,192,29666,1,0,0:0:0:0:
448,192,29666,1,0,0:0:0:0:
192,192,29666,1,0,0:0:0:0:
320,192,29724,1,0,0:0:0:0:
192,192,29782,1,0,0:0:0:0:
64,192,29840,1,0,0:0:0:0:
320,192,29897,1,0,0:0:0:0:
192,192,29955,1,0,0:0:0:0:
448,192,30013,1,0,0:0:0:0:
64,192,30070,1,0,0:0:0:0:
320,192,30128,1,0,0:0:0:0:
448,192,30128,1,0,0:0:0:0:
192,192,30128,1,0,0:0:0:0:
64,192,30186,1,0,0:0:0:0:
320,192,30243,1,0,0:0:0:0:
448,192,30301,1,0,0:0:0:0:
192,192,30359,1,0,0:0:0:0:
320,192,30416,1,0,0:0:0:0:
64,192,30474,1,0,0:0:0:0:
448,192,30532,1,0,0:0:0:0:
320,192,30590,1,0,0:0:0:0:
64,192,30590,1,0,0:0:0:0:
192,192,30705,128,0,31051:0:0:0:0:
448,192,30705,1,0,0:0:0:0:
64,192,31051,1,0,0:0:0:0:
320,192,31051,1,0,0:0:0:0:
448,192,31051,1,0,0:0:0:0:
192,192,31166,1,0,0:0:0:0:
64,192,31281,1,0,0:0:0:0:
192,192,31281,1,0,0:0:0:0:
448,192,31281,1,0,0:0:0:0:
320,192,31397,1,0,0:0:0:0:
192,192,31512,1,0,0:0:0:0:
320,192,31512,1,0,0:0:0:0:
448,192,31512,1,0,0:0:0:0:
448,192,31627,1,0,0:0:0:0:
64,192,31627,1,0,0:0:0:0:
64,192,31743,1,0,0:0:0:0:
192,192,31743,1,0,0:0:0:0:
320,192,31743,1,0,0:0:0:0:
192,192,31858,1,0,0:0:0:0:
448,192,31858,1,0,0:0:0:0:
64,192,31974,1,0,0:0:0:0:
320,192,31974,1,0,0:0:0:0:
448,192,31974,1,0,0:0:0:0:
192,192,32089,1,0,0:0:0:0:
64,192,32204,1,0,0:0:0:0:
320,192,32204,1,0,0:0:0:0:
448,192,32204,1,0,0:0:0:0:
192,192,32320,1,0,0:0:0:0:
320,192,32320,1,0,0:0:0:0:
64,192,32435,1,0,0:0:0:0:
192,192,32435,1,0,0:0:0:0:
448,192,32435,1,0,0:0:0:0:
320,192,32551,1,0,0:0:0:0:
448,192,32551,1,0,0:0:0:0:
192,192,32666,1,0,0:0:0:0:
64,192,32666,1,0,0:0:0:0:
64,192,32781,1,0,0:0:0:0:
448,192,32781,1,0,0:0:0:0:
320,192,32781,1,0,0:0:0:0:
192,192,32897,1,0,0:0:0:0:
64,192,32897,1,0,0:0:0:0:
320,192,32897,1,0,0:0:0:0:
448,192,33012,1,0,0:0:0:0:
192,192,33012,1,0,0:0:0:0:
64,192,33127,1,0,0:0:0:0:
320,192,33127,1,0,0:0:0:0:
448,192,33127,1,0,0:0:0:0:
192,192,33243,1,0,0:0:0:0:
64,192,33358,1,0,0:0:0:0:
448,192,33358,1,0,0:0:0:0:
320,192,33474,1,0,0:0:0:0:
192,192,33589,1,0,0:0:0:0:
320,192,33589,1,0,0:0:0:0:
448,192,33589,1,0,0:0:0:0:
64,192,33704,1,0,0:0:0:0:
320,192,33704,1,0,0:0:0:0:
64,192,33820,1,0,0:0:0:0:
192,192,33820,1,0,0:0:0:0:
448,192,33820,1,0,0:0:0:0:
448,192,33935,1,0,0:0:0:0:
64,192,34051,1,0,0:0:0:0:
320,192,34051,1,0,0:0:0:0:
192,192,34051,1,0,0:0:0:0:
64,192,34166,1,0,0:0:0:0:
320,192,34281,1,0,0:0:0:0:
192,192,34281,1,0,0:0:0:0:
448,192,34281,1,0,0:0:0:0:
320,192,34397,1,0,0:0:0:0:
448,192,34397,1,0,0:0:0:0:
192,192,34454,1,0,0:0:0:0:
64,192,34454,1,0,0:0:0:0:
320,192,34512,1,0,0:0:0:0:
448,192,34512,1,0,0:0:0:0:
320,192,34627,1,0,0:0:0:0:
192,192,34627,1,0,0:0:0:0:
448,192,34743,1,0,0:0:0:0:
64,192,34743,1,0,0:0:0:0:
320,192,34743,1,0,0:0:0:0:
192,192,34858,1,0,0:0:0:0:
320,192,34858,1,0,0:0:0:0:
64,192,34974,1,0,0:0:0:0:
192,192,34974,1,0,0:0:0:0:
448,192,34974,1,0,0:0:0:0:
64,192,35089,1,0,0:0:0:0:
320,192,35089,1,0,0:0:0:0:
192,192,35204,1,0,0:0:0:0:
320,192,35204,1,0,0:0:0:0:
448,192,35204,1,0,0:0:0:0:
64,192,35320,1,0,0:0:0:0:
448,192,35320,1,0,0:0:0:0:
64,192,35435,1,0,0:0:0:0:
192,192,35435,1,0,0:0:0:0:
320,192,35435,1,0,0:0:0:0:
192,192,35551,1,0,0:0:0:0:
448,192,35551,1,0,0:0:0:0:
64,192,35666,1,0,0:0:0:0:
320,192,35666,1,0,0:0:0:0:
448,192,35666,1,0,0:0:0:0:
192,192,35781,1,0,0:0:0:0:
320,192,35781,1,0,0:0:0:0:
64,192,35897,1,0,0:0:0:0:
192,192,35897,1,0,0:0:0:0:
448,192,35897,1,0,0:0:0:0:
64,192,36012,1,0,0:0:0:0:
320,192,36012,1,0,0:0:0:0:
192,192,36127,1,0,0:0:0:0:
320,192,36127,1,0,0:0:0:0:
448,192,36127,1,0,0:0:0:0:
64,192,36243,1,0,0:0:0:0:
192,192,36243,1,0,0:0:0:0:
64,192,36358,1,0,0:0:0:0:
320,192,36358,1,0,0:0:0:0:
448,192,36358,1,0,0:0:0:0:
192,192,36474,1,0,0:0:0:0:
448,192,36474,1,0,0:0:0:0:
64,192,36589,1,0,0:0:0:0:
320,192,36589,1,0,0:0:0:0:
192,192,36589,1,0,0:0:0:0:
448,192,36704,1,0,0:0:0:0:
320,192,36704,1,0,0:0:0:0:
64,192,36820,1,0,0:0:0:0:
192,192,36820,1,0,0:0:0:0:
320,192,36877,1,0,0:0:0:0:
448,192,36877,1,0,0:0:0:0:
192,192,36935,1,0,0:0:0:0:
64,192,36935,1,0,0:0:0:0:
320,192,36993,1,0,0:0:0:0:
448,192,36993,1,0,0:0:0:0:
64,192,37051,1,0,0:0:0:0:
192,192,37051,1,0,0:0:0:0:
448,192,37166,1,0,0:0:0:0:
320,192,37166,1,0,0:0:0:0:
192,192,37281,1,0,0:0:0:0:
64,192,37281,1,0,0:0:0:0:
320,192,37339,1,0,0:0:0:0:
448,192,37339,1,0,0:0:0:0:
64,192,37397,1,0,0:0:0:0:
192,192,37397,1,0,0:0:0:0:
320,192,37454,1,0,0:0:0:0:
448,192,37454,1,0,0:0:0:0:
64,192,37512,1,0,0:0:0:0:
192,192,37512,1,0,0:0:0:0:
320,192,37627,1,0,0:0:0:0:
448,192,37627,1,0,0:0:0:0:
320,192,37685,1,0,0:0:0:0:
448,192,37685,1,0,0:0:0:0:
64,192,37743,1,0,0:0:0:0:
192,192,37743,1,0,0:0:0:0:
320,192,37858,1,0,0:0:0:0:
448,192,37858,1,0,0:0:0:0:
320,192,37916,1,0,0:0:0:0:
448,192,37916,1,0,0:0:0:0:
64,192,37974,128,0,38421:0:0:0:0:
192,192,38204,128,0,38421:0:0:0:0:
320,192,38421,1,0,0:0:0:0:
448,192,38421,1,0,0:0:0:0:
64,192,38666,1,0,0:0:0:0:
320,192,38897,1,0,0:0:0:0:
192,192,39128,1,0,0:0:0:0:
448,192,39128,1,0,0:0:0:0:
64,192,39359,1,0,0:0:0:0:
320,192,39359,1,0,0:0:0:0:
192,192,39589,1,0,0:0:0:0:
320,192,39820,1,0,0:0:0:0:
448,192,39820,1,0,0:0:0:0:
64,192,40051,1,0,0:0:0:0:
192,192,40282,1,0,0:0:0:0:
448,192,40282,1,0,0:0:0:0:
320,192,40512,1,0,0:0:0:0:
64,192,40743,1,0,0:0:0:0:
320,192,40974,1,0,0:0:0:0:
448,192,40974,1,0,0:0:0:0:
64,192,41205,1,0,0:0:0:0:
192,192,41205,1,0,0:0:0:0:
320,192,41436,1,0,0:0:0:0:
192,192,41436,1,0,0:0:0:0:
448,192,41666,128,0,42128:0:0:0:0:
64,192,42128,1,0,0:0:0:0:
192,192,42128,1,0,0:0:0:0:
320,192,42185,1,0,0:0:0:0:
448,192,42243,1,0,0:0:0:0:
192,192,42301,1,0,0:0:0:0:
64,192,42358,1,0,0:0:0:0:
320,192,42358,1,0,0:0:0:0:
448,192,42416,1,0,0:0:0:0:
192,192,42474,1,0,0:0:0:0:
320,192,42531,1,0,0:0:0:0:
64,192,42589,1,0,0:0:0:0:
448,192,42589,1,0,0:0:0:0:
320,192,42647,1,0,0:0:0:0:
192,192,42704,1,0,0:0:0:0:
64,192,42762,1,0,0:0:0:0:
320,192,42820,1,0,0:0:0:0:
448,192,42820,1,0,0:0:0:0:
192,192,42878,1,0,0:0:0:0:
320,192,42935,1,0,0:0:0:0:
448,192,42993,1,0,0:0:0:0:
64,192,43051,1,0,0:0:0:0:
320,192,43051,1,0,0:0:0:0:
192,192,43108,1,0,0:0:0:0:
64,192,43166,1,0,0:0:0:0:
320,192,43224,1,0,0:0:0:0:
192,192,43281,1,0,0:0:0:0:
448,192,43281,1,0,0:0:0:0:
64,192,43339,1,0,0:0:0:0:
320,192,43397,1,0,0:0:0:0:
192,192,43454,1,0,0:0:0:0:
64,192,43512,1,0,0:0:0:0:
448,192,43512,1,0,0:0:0:0:
192,192,43570,1,0,0:0:0:0:
320,192,43628,1,0,0:0:0:0:
448,192,43685,1,0,0:0:0:0:
192,192,43743,1,0,0:0:0:0:
64,192,43743,1,0,0:0:0:0:
320,192,43801,1,0,0:0:0:0:
448,192,43858,1,0,0:0:0:0:
192,192,43916,1,0,0:0:0:0:
64,192,43974,1,0,0:0:0:0:
320,192,43974,1,0,0:0:0:0:
448,192,44031,1,0,0:0:0:0:
192,192,44089,1,0,0:0:0:0:
320,192,44147,1,0,0:0:0:0:
64,192,44204,1,0,0:0:0:0:
448,192,44204,1,0,0:0:0:0:
192,192,44262,1,0,0:0:0:0:
320,192,44320,1,0,0:0:0:0:
64,192,44378,1,0,0:0:0:0:
192,192,44435,1,0,0:0:0:0:
448,192,44435,1,0,0:0:0:0:
320,192,44493,1,0,0:0:0:0:
192,192,44551,1,0,0:0:0:0:
448,192,44608,1,0,0:0:0:0:
64,192,44666,1,0,0:0:0:0:
320,192,44666,1,0,0:0:0:0:
192,192,44724,1,0,0:0:0:0:
448,192,44781,1,0,0:0:0:0:
320,192,44839,1,0,0:0:0:0:
192,192,44897,1,0,0:0:0:0:
64,192,44897,1,0,0:0:0:0:
320,192,44954,1,0,0:0:0:0:
64,192,45012,1,0,0:0:0:0:
448,192,45070,1,0,0:0:0:0:
192,192,45128,1,0,0:0:0:0:
320,192,45128,1,0,0:0:0:0:
64,192,45185,1,0,0:0:0:0:
320,192,45243,1,0,0:0:0:0:
448,192,45301,1,0,0:0:0:0:
64,192,45358,1,0,0:0:0:0:
192,192,45358,1,0,0:0:0:0:
320,192,45416,1,0,0:0:0:0:
448,192,45474,1,0,0:0:0:0:
192,192,45531,1,0,0:0:0:0:
320,192,45589,1,0,0:0:0:0:
64,192,45589,1,0,0:0:0:0:
448,192,45647,1,0,0:0:0:0:
192,192,45704,1,0,0:0:0:0:
64,192,45762,1,0,0:0:0:0:
320,192,45820,1,0,0:0:0:0:
448,192,45820,1,0,0:0:0:0:
64,192,45878,1,0,0:0:0:0:
192,192,45935,1,0,0:0:0:0:
448,192,45935,1,0,0:0:0:0:
320,192,45993,1,0,0:0:0:0:
64,192,46051,1,0,0:0:0:0:
192,192,46051,1,0,0:0:0:0:
448,192,46108,1,0,0:0:0:0:
64,192,46166,1,0,0:0:0:0:
320,192,46166,1,0,0:0:0:0:
192,192,46224,1,0,0:0:0:0:
320,192,46281,1,0,0:0:0:0:
448,192,46281,1,0,0:0:0:0:
64,192,46339,1,0,0:0:0:0:
192,192,46397,1,0,0:0:0:0:
448,192,46397,1,0,0:0:0:0:
320,192,46454,1,0,0:0:0:0:
192,192,46512,1,0,0:0:0:0:
64,192,46512,1,0,0:0:0:0:
320,192,46570,1,0,0:0:0:0:
64,192,46628,1,0,0:0:0:0:
448,192,46628,1,0,0:0:0:0:
192,192,46685,1,0,0:0:0:0:
448,192,46743,1,0,0:0:0:0:
320,192,46743,1,0,0:0:0:0:
192,192,46801,1,0,0:0:0:0:
64,192,46858,1,0,0:0:0:0:
448,192,46858,1,0,0:0:0:0:
320,192,46916,1,0,0:0:0:0:
64,192,46974,1,0,0:0:0:0:
192,192,46974,1,0,0:0:0:0:
320,192,47031,1,0,0:0:0:0:
448,192,47089,1,0,0:0:0:0:
64,192,47089,1,0,0:0:0:0:
192,192,47147,1,0,0:0:0:0:
320,192,47204,1,0,0:0:0:0:
448,192,47204,1,0,0:0:0:0:
192,192,47262,1,0,0:0:0:0:
64,192,47320,1,0,0:0:0:0:
448,192,47320,1,0,0:0:0:0:
320,192,47378,1,0,0:0:0:0:
64,192,47435,1,0,0:0:0:0:
192,192,47435,1,0,0:0:0:0:
320,192,47493,1,0,0:0:0:0:
448,192,47551,1,0,0:0:0:0:
64,192,47551,1,0,0:0:0:0:
192,192,47608,1,0,0:0:0:0:
320,192,47666,128,0,48589:0:0:0:0:
448,192,47666,1,0,0:0:0:0:
192,192,48589,128,0,49051:0:0:0:0:
320,192,49051,1,0,0:0:0:0:
448,192,49281,1,0,0:0:0:0:
64,192,49281,1,0,0:0:0:0:
64,192,49512,1,0,0:0:0:0:
192,192,49512,1,0,0:0:0:0:
320,192,49512,1,0,0:0:0:0:
448,192,49512,1,0,0:0:0:0:
192,192,49628,1,0,0:0:0:0:
64,192,49743,1,0,0:0:0:0:
320,192,49743,1,0,0:0:0:0:
448,192,49743,1,0,0:0:0:0:
192,192,49858,1,0,0:0:0:0:
448,192,49858,1,0,0:0:0:0:
64,192,49974,1,0,0:0:0:0:
192,192,49974,1,0,0:0:0:0:
320,192,49974,1,0,0:0:0:0:
64,192,50089,1,0,0:0:0:0:
448,192,50089,1,0,0:0:0:0:
192,192,50204,1,0,0:0:0:0:
320,192,50204,1,0,0:0:0:0:
192,192,50320,1,0,0:0:0:0:
448,192,50320,1,0,0:0:0:0:
64,192,50435,1,0,0:0:0:0:
320,192,50435,1,0,0:0:0:0:
448,192,50435,1,0,0:0:0:0:
64,192,50551,1,0,0:0:0:0:
192,192,50551,1,0,0:0:0:0:
192,192,50666,1,0,0:0:0:0:
448,192,50666,1,0,0:0:0:0:
320,192,50781,1,0,0:0:0:0:
448,192,50781,1,0,0:0:0:0:
64,192,50897,1,0,0:0:0:0:
192,192,50897,1,0,0:0:0:0:
320,192,50897,1,0,0:0:0:0:
64,192,51012,1,0,0:0:0:0:
192,192,51128,1,0,0:0:0:0:
320,192,51128,1,0,0:0:0:0:
448,192,51128,1,0,0:0:0:0:
320,192,51243,1,0,0:0:0:0:
192,192,51358,1,0,0:0:0:0:
448,192,51358,1,0,0:0:0:0:
64,192,51358,1,0,0:0:0:0:
320,192,51474,1,0,0:0:0:0:
448,192,51474,1,0,0:0:0:0:
64,192,51589,1,0,0:0:0:0:
320,192,51589,1,0,0:0:0:0:
192,192,51704,1,0,0:0:0:0:
448,192,51704,1,0,0:0:0:0:
64,192,51820,1,0,0:0:0:0:
192,192,51820,1,0,0:0:0:0:
64,192,51935,1,0,0:0:0:0:
320,192,51935,1,0,0:0:0:0:
192,192,52051,1,0,0:0:0:0:
320,192,52051,1,0,0:0:0:0:
192,192,52166,1,0,0:0:0:0:
448,192,52166,1,0,0:0:0:0:
64,192,52281,1,0,0:0:0:0:
320,192,52281,1,0,0:0:0:0:
448,192,52281,1,0,0:0:0:0:
64,192,52397,1,0,0:0:0:0:
192,192,52397,1,0,0:0:0:0:
320,192,52512,1,0,0:0:0:0:
448,192,52512,1,0,0:0:0:0:
64,192,52628,1,0,0:0:0:0:
320,192,52628,1,0,0:0:0:0:
64,192,52743,1,0,0:0:0:0:
448,192,52743,1,0,0:0:0:0:
192,192,52743,1,0,0:0:0:0:
320,192,52858,1,0,0:0:0:0:
448,192,52858,1,0,0:0:0:0:
192,192,52974,1,0,0:0:0:0:
320,192,52974,1,0,0:0:0:0:
448,192,52974,1,0,0:0:0:0:
64,192,53089,1,0,0:0:0:0:
64,192,53204,1,0,0:0:0:0:
192,192,53204,1,0,0:0:0:0:
320,192,53204,1,0,0:0:0:0:
448,192,53320,1,0,0:0:0:0:
192,192,53435,1,0,0:0:0:0:
320,192,53435,1,0,0:0:0:0:
64,192,53551,1,0,0:0:0:0:
448,192,53551,1,0,0:0:0:0:
192,192,53666,1,0,0:0:0:0:
320,192,53666,1,0,0:0:0:0:
448,192,53666,1,0,0:0:0:0:
64,192,53781,1,0,0:0:0:0:
192,192,53897,1,0,0:0:0:0:
448,192,53897,1,0,0:0:0:0:
64,192,54012,1,0,0:0:0:0:
320,192,54012,1,0,0:0:0:0:
64,192,54128,1,0,0:0:0:0:
192,192,54128,1,0,0:0:0:0:
448,192,54128,1,0,0:0:0:0:
320,192,54243,1,0,0:0:0:0:
192,192,54243,1,0,0:0:0:0:
64,192,54358,1,0,0:0:0:0:
448,192,54358,1,0,0:0:0:0:
192,192,54474,1,0,0:0:0:0:
64,192,54589,1,0,0:0:0:0:
448,192,54589,1,0,0:0:0:0:
320,192,54589,1,0,0:0:0:0:
64,192,54704,1,0,0:0:0:0:
192,192,54704,1,0,0:0:0:0:
192,192,54820,1,0,0:0:0:0:
448,192,54820,1,0,0:0:0:0:
320,192,54935,1,0,0:0:0:0:
64,192,55051,1,0,0:0:0:0:
320,192,55051,1,0,0:0:0:0:
448,192,55051,1,0,0:0:0:0:
192,192,55166,1,0,0:0:0:0:
64,192,55281,1,0,0:0:0:0:
192,192,55281,1,0,0:0:0:0:
320,192,55281,1,0,0:0:0:0:
64,192,55397,1,0,0:0:0:0:
448,192,55397,1,0,0:0:0:0:
192,192,55512,1,0,0:0:0:0:
448,192,55512,1,0,0:0:0:0:
64,192,55628,1,0,0:0:0:0:
320,192,55743,1,0,0:0:0:0:
192,192,55743,1,0,0:0:0:0:
448,192,55743,1,0,0:0:0:0:
64,192,55858,1,0,0:0:0:0:
192,192,55858,1,0,0:0:0:0:
448,192,55974,128,0,56204:0:0:0:0:
320,192,56204,1,0,0:0:0:0:
192,192,56320,1,0,0:0:0:0:
448,192,56435,1,0,0:0:0:0:
320,192,56478,1,0,0:0:0:0:
192,192,56512,1,0,0:0:0:0:
64,192,56551,1,0,0:0:0:0:
320,192,56594,1,0,0:0:0:0:
192,192,56623,1,0,0:0:0:0:
448,192,56666,1,0,0:0:0:0:
320,192,56695,1,0,0:0:0:0:
192,192,56743,1,0,0:0:0:0:
64,192,56781,1,0,0:0:0:0:
448,192,56825,1,0,0:0:0:0:
320,192,56858,1,0,0:0:0:0:
64,192,56897,1,0,0:0:0:0:
192,192,56897,1,0,0:0:0:0:
192,192,57012,1,0,0:0:0:0:
320,192,57012,1,0,0:0:0:0:
64,192,57012,1,0,0:0:0:0:
64,192,57128,1,0,0:0:0:0:
448,192,57128,1,0,0:0:0:0:
320,192,57128,1,0,0:0:0:0:
192,192,57243,1,0,0:0:0:0:
64,192,57358,1,0,0:0:0:0:
320,192,57358,1,0,0:0:0:0:
192,192,57358,1,0,0:0:0:0:
448,192,57474,1,0,0:0:0:0:
192,192,57589,1,0,0:0:0:0:
320,192,57589,1,0,0:0:0:0:
448,192,57589,1,0,0:0:0:0:
64,192,57704,1,0,0:0:0:0:
320,192,57704,1,0,0:0:0:0:
192,192,57704,1,0,0:0:0:0:
448,192,57820,1,0,0:0:0:0:
64,192,57935,1,0,0:0:0:0:
192,192,57935,1,0,0:0:0:0:
320,192,57935,1,0,0:0:0:0:
64,192,58051,1,0,0:0:0:0:
320,192,58051,1,0,0:0:0:0:
448,192,58051,1,0,0:0:0:0:
192,192,58166,1,0,0:0:0:0:
64,192,58281,1,0,0:0:0:0:
320,192,58281,1,0,0:0:0:0:
448,192,58281,1,0,0:0:0:0:
192,192,58397,1,0,0:0:0:0:
320,192,58397,1,0,0:0:0:0:
64,192,58512,1,0,0:0:0:0:
192,192,58512,1,0,0:0:0:0:
320,192,58570,1,0,0:0:0:0:
448,192,58570,1,0,0:0:0:0:
64,192,58628,1,0,0:0:0:0:
192,192,58628,1,0,0:0:0:0:
320,192,58685,1,0,0:0:0:0:
448,192,58685,1,0,0:0:0:0:
64,192,58743,1,0,0:0:0:0:
192,192,58743,1,0,0:0:0:0:
64,192,58858,1,0,0:0:0:0:
448,192,58858,1,0,0:0:0:0:
192,192,58974,1,0,0:0:0:0:
448,192,58974,1,0,0:0:0:0:
320,192,58974,1,0,0:0:0:0:
64,192,59089,1,0,0:0:0:0:
320,192,59089,1,0,0:0:0:0:
64,192,59204,1,0,0:0:0:0:
192,192,59204,1,0,0:0:0:0:
448,192,59204,1,0,0:0:0:0:
320,192,59320,1,0,0:0:0:0:
448,192,59320,1,0,0:0:0:0:
64,192,59435,1,0,0:0:0:0:
192,192,59435,1,0,0:0:0:0:
192,192,59551,1,0,0:0:0:0:
320,192,59551,1,0,0:0:0:0:
448,192,59551,1,0,0:0:0:0:
448,192,59666,1,0,0:0:0:0:
320,192,59666,1,0,0:0:0:0:
64,192,59666,1,0,0:0:0:0:
320,192,59781,1,0,0:0:0:0:
64,192,59897,1,0,0:0:0:0:
448,192,59897,1,0,0:0:0:0:
192,192,59897,1,0,0:0:0:0:
320,192,60012,1,0,0:0:0:0:
64,192,60012,1,0,0:0:0:0:
192,192,60012,1,0,0:0:0:0:
192,192,60128,1,0,0:0:0:0:
320,192,60128,1,0,0:0:0:0:
448,192,60128,1,0,0:0:0:0:
64,192,60243,1,0,0:0:0:0:
320,192,60358,1,0,0:0:0:0:
448,192,60358,1,0,0:0:0:0:
192,192,60416,1,0,0:0:0:0:
64,192,60416,1,0,0:0:0:0:
320,192,60474,1,0,0:0:0:0:
448,192,60474,1,0,0:0:0:0:
64,192,60531,1,0,0:0:0:0:
192,192,60531,1,0,0:0:0:0:
320,192,60589,1,0,0:0:0:0:
448,192,60589,1,0,0:0:0:0:
64,192,60704,1,0,0:0:0:0:
448,192,60704,1,0,0:0:0:0:
64,192,60820,1,0,0:0:0:0:
320,192,60820,1,0,0:0:0:0:
192,192,60935,1,0,0:0:0:0:
448,192,60935,1,0,0:0:0:0:
64,192,61051,1,0,0:0:0:0:
320,192,61051,1,0,0:0:0:0:
448,192,61051,1,0,0:0:0:0:
192,192,61166,1,0,0:0:0:0:
64,192,61281,1,0,0:0:0:0:
320,192,61281,1,0,0:0:0:0:
448,192,61281,1,0,0:0:0:0:
192,192,61397,1,0,0:0:0:0:
320,192,61397,1,0,0:0:0:0:
448,192,61397,1,0,0:0:0:0:
64,192,61512,1,0,0:0:0:0:
320,192,61628,1,0,0:0:0:0:
192,192,61628,1,0,0:0:0:0:
448,192,61628,1,0,0:0:0:0:
64,192,61743,1,0,0:0:0:0:
192,192,61743,1,0,0:0:0:0:
320,192,61743,1,0,0:0:0:0:
448,192,61858,1,0,0:0:0:0:
192,192,61974,1,0,0:0:0:0:
320,192,61974,1,0,0:0:0:0:
64,192,62089,1,0,0:0:0:0:
320,192,62089,1,0,0:0:0:0:
64,192,62204,1,0,0:0:0:0:
192,192,62204,1,0,0:0:0:0:
448,192,62204,1,0,0:0:0:0:
448,192,62320,1,0,0:0:0:0:
192,192,62435,1,0,0:0:0:0:
64,192,62435,1,0,0:0:0:0:
320,192,62435,1,0,0:0:0:0:
192,192,62551,1,0,0:0:0:0:
320,192,62551,1,0,0:0:0:0:
64,192,62666,1,0,0:0:0:0:
448,192,62666,1,0,0:0:0:0:
192,192,62781,1,0,0:0:0:0:
64,192,62897,1,0,0:0:0:0:
448,192,62897,1,0,0:0:0:0:
320,192,62897,1,0,0:0:0:0:
192,192,63012,1,0,0:0:0:0:
448,192,63012,1,0,0:0:0:0:
64,192,63128,1,0,0:0:0:0:
192,192,63128,1,0,0:0:0:0:
320,192,63128,1,0,0:0:0:0:
448,192,63243,1,0,0:0:0:0:
64,192,63243,1,0,0:0:0:0:
192,192,63358,1,0,0:0:0:0:
320,192,63474,1,0,0:0:0:0:
64,192,63474,1,0,0:0:0:0:
448,192,63474,1,0,0:0:0:0:
64,192,63589,1,0,0:0:0:0:
192,192,63589,1,0,0:0:0:0:
448,192,63589,1,0,0:0:0:0:
320,192,63704,1,0,0:0:0:0:
192,192,63820,128,0,63935:0:0:0:0:
64,192,63935,1,0,0:0:0:0:
448,192,63935,1,0,0:0:0:0:
320,192,63993,1,0,0:0:0:0:
192,192,64051,128,0,64281:0:0:0:0:
64,192,64051,1,0,0:0:0:0:
64,192,64281,1,0,0:0:0:0:
320,192,64281,1,0,0:0:0:0:
448,192,64281,1,0,0:0:0:0:
192,192,64397,1,0,0:0:0:0:
320,192,64397,1,0,0:0:0:0:
64,192,64512,1,0,0:0:0:0:
448,192,64512,1,0,0:0:0:0:
192,192,64512,1,0,0:0:0:0:
64,192,64628,1,0,0:0:0:0:
320,192,64628,1,0,0:0:0:0:
192,192,64743,1,0,0:0:0:0:
320,192,64743,1,0,0:0:0:0:
448,192,64743,1,0,0:0:0:0:
64,192,64858,1,0,0:0:0:0:
448,192,64858,1,0,0:0:0:0:
64,192,64974,1,0,0:0:0:0:
192,192,64974,1,0,0:0:0:0:
320,192,64974,1,0,0:0:0:0:
192,192,65089,1,0,0:0:0:0:
448,192,65089,1,0,0:0:0:0:
64,192,65204,1,0,0:0:0:0:
320,192,65204,1,0,0:0:0:0:
448,192,65204,1,0,0:0:0:0:
192,192,65320,1,0,0:0:0:0:
320,192,65320,1,0,0:0:0:0:
64,192,65378,1,0,0:0:0:0:
192,192,65435,1,0,0:0:0:0:
448,192,65435,1,0,0:0:0:0:
64,192,65551,1,0,0:0:0:0:
320,192,65551,128,0,65781:0:0:0:0:
192,192,65781,1,0,0:0:0:0:
64,192,65897,1,0,0:0:0:0:
192,192,65897,1,0,0:0:0:0:
448,192,65897,1,0,0:0:0:0:
64,192,66128,1,0,0:0:0:0:
320,192,66128,1,0,0:0:0:0:
448,192,66128,1,0,0:0:0:0:
192,192,66243,1,0,0:0:0:0:
320,192,66243,1,0,0:0:0:0:
64,192,66358,1,0,0:0:0:0:
192,192,66358,1,0,0:0:0:0:
448,192,66358,1,0,0:0:0:0:
64,192,66474,1,0,0:0:0:0:
320,192,66474,1,0,0:0:0:0:
192,192,66589,1,0,0:0:0:0:
320,192,66589,1,0,0:0:0:0:
448,192,66589,1,0,0:0:0:0:
64,192,66704,1,0,0:0:0:0:
448,192,66704,1,0,0:0:0:0:
192,192,66820,1,0,0:0:0:0:
64,192,66820,1,0,0:0:0:0:
320,192,66820,1,0,0:0:0:0:
192,192,66935,1,0,0:0:0:0:
448,192,66935,1,0,0:0:0:0:
64,192,67051,1,0,0:0:0:0:
320,192,67051,1,0,0:0:0:0:
448,192,67051,1,0,0:0:0:0:
64,192,67166,1,0,0:0:0:0:
192,192,67166,1,0,0:0:0:0:
320,192,67224,1,0,0:0:0:0:
192,192,67281,1,0,0:0:0:0:
448,192,67281,1,0,0:0:0:0:
320,192,67397,128,0,67628:0:0:0:0:
64,192,67397,1,0,0:0:0:0:
192,192,67628,1,0,0:0:0:0:
64,192,67743,1,0,0:0:0:0:
192,192,67743,1,0,0:0:0:0:
448,192,67743,1,0,0:0:0:0:
192,192,67974,1,0,0:0:0:0:
320,192,67974,1,0,0:0:0:0:
448,192,67974,1,0,0:0:0:0:
64,192,68089,1,0,0:0:0:0:
192,192,68089,1,0,0:0:0:0:
320,192,68089,1,0,0:0:0:0:
64,192,68204,1,0,0:0:0:0:
448,192,68204,1,0,0:0:0:0:
320,192,68262,1,0,0:0:0:0:
192,192,68320,1,0,0:0:0:0:
448,192,68320,1,0,0:0:0:0:
64,192,68435,1,0,0:0:0:0:
192,192,68435,1,0,0:0:0:0:
320,192,68435,1,0,0:0:0:0:
64,192,68551,1,0,0:0:0:0:
320,192,68551,1,0,0:0:0:0:
448,192,68551,1,0,0:0:0:0:
192,192,68608,1,0,0:0:0:0:
448,192,68666,1,0,0:0:0:0:
320,192,68666,1,0,0:0:0:0:
192,192,68724,1,0,0:0:0:0:
64,192,68781,1,0,0:0:0:0:
448,192,68781,1,0,0:0:0:0:
64,192,68897,1,0,0:0:0:0:
192,192,68897,1,0,0:0:0:0:
320,192,68897,1,0,0:0:0:0:
320,192,69012,1,0,0:0:0:0:
448,192,69012,1,0,0:0:0:0:
192,192,69070,1,0,0:0:0:0:
64,192,69128,1,0,0:0:0:0:
448,192,69128,1,0,0:0:0:0:
320,192,69243,1,0,0:0:0:0:
192,192,69243,128,0,69474:0:0:0:0:
64,192,69474,1,0,0:0:0:0:
320,192,69474,1,0,0:0:0:0:
192,192,69589,1,0,0:0:0:0:
320,192,69589,1,0,0:0:0:0:
448,192,69704,1,0,0:0:0:0:
64,192,69704,1,0,0:0:0:0:
192,192,69762,1,0,0:0:0:0:
320,192,69820,1,0,0:0:0:0:
448,192,69820,1,0,0:0:0:0:
192,192,69935,1,0,0:0:0:0:
64,192,69935,1,0,0:0:0:0:
320,192,69993,1,0,0:0:0:0:
448,192,70051,1,0,0:0:0:0:
192,192,70051,1,0,0:0:0:0:
448,192,70166,1,0,0:0:0:0:
320,192,70166,1,0,0:0:0:0:
64,192,70224,1,0,0:0:0:0:
192,192,70281,1,0,0:0:0:0:
320,192,70281,1,0,0:0:0:0:
192,192,70397,1,0,0:0:0:0:
64,192,70397,1,0,0:0:0:0:
320,192,70454,1,0,0:0:0:0:
64,192,70512,1,0,0:0:0:0:
448,192,70512,1,0,0:0:0:0:
192,192,70628,1,0,0:0:0:0:
320,192,70628,1,0,0:0:0:0:
320,192,70743,1,0,0:0:0:0:
64,192,70743,1,0,0:0:0:0:
192,192,70801,1,0,0:0:0:0:
448,192,70858,1,0,0:0:0:0:
320,192,70858,1,0,0:0:0:0:
64,192,70916,1,0,0:0:0:0:
192,192,70974,1,0,0:0:0:0:
448,192,71003,1,0,0:0:0:0:
320,192,71060,1,0,0:0:0:0:
64,192,71089,1,0,0:0:0:0:
192,192,71204,1,0,0:0:0:0:
320,192,71204,1,0,0:0:0:0:
64,192,71262,1,0,0:0:0:0:
192,192,71262,1,0,0:0:0:0:
448,192,71320,1,0,0:0:0:0:
320,192,71435,1,0,0:0:0:0:
448,192,71435,1,0,0:0:0:0:
192,192,71493,1,0,0:0:0:0:
320,192,71493,1,0,0:0:0:0:
64,192,71608,1,0,0:0:0:0:
192,192,71666,1,0,0:0:0:0:
448,192,71666,128,0,74435:0:0:0:0:
64,192,72128,1,0,0:0:0:0:
192,192,72358,1,0,0:0:0:0:
64,192,72589,1,0,0:0:0:0:
320,192,72589,1,0,0:0:0:0:
192,192,72820,1,0,0:0:0:0:
64,192,72935,1,0,0:0:0:0:
192,192,73166,1,0,0:0:0:0:
64,192,73281,1,0,0:0:0:0:
192,192,73512,1,0,0:0:0:0:
320,192,73512,1,0,0:0:0:0:
192,192,74435,1,0,0:0:0:0:
192,192,74666,1,0,0:0:0:0:
192,192,74897,1,0,0:0:0:0:
192,192,75128,1,0,0:0:0:0:
64,192,75358,1,0,0:0:0:0:
192,192,75358,1,0,0:0:0:0:
320,192,75358,1,0,0:0:0:0:
448,192,75358,1,0,0:0:0:0:
64,192,76281,1,0,0:0:0:0:
192,192,76281,1,0,0:0:0:0:
320,192,76281,1,0,0:0:0:0:
448,192,76281,1,0,0:0:0:0:
64,192,77204,1,0,0:0:0:0:
192,192,77204,1,0,0:0:0:0:
320,192,77204,1,0,0:0:0:0:
448,192,77204,1,0,0:0:0:0:
64,192,77666,1,0,0:0:0:0:
192,192,77666,1,0,0:0:0:0:
320,192,77666,1,0,0:0:0:0:
448,192,77666,1,0,0:0:0:0:
192,192,77781,1,0,0:0:0:0:
64,192,77781,1,0,0:0:0:0:
320,192,77781,1,0,0:0:0:0:
448,192,77781,1,0,0:0:0:0:
448,192,78012,1,0,0:0:0:0:
192,192,78041,1,0,0:0:0:0:
320,192,78070,1,0,0:0:0:0:
64,192,78099,1,0,0:0:0:0:
448,192,78128,1,0,0:0:0:0:
192,192,78156,1,0,0:0:0:0:
320,192,78185,1,0,0:0:0:0:
64,192,78214,1,0,0:0:0:0:
192,192,78243,1,0,0:0:0:0:
320,192,78358,1,0,0:0:0:0:
192,192,78589,1,0,0:0:0:0:
448,192,78589,1,0,0:0:0:0:
64,192,78589,1,0,0:0:0:0:
320,192,78820,128,0,78878:0:0:0:0:
64,192,79051,1,0,0:0:0:0:
192,192,79051,1,0,0:0:0:0:
320,192,79051,1,0,0:0:0:0:
448,192,79051,1,0,0:0:0:0:
64,192,79281,1,0,0:0:0:0:
320,192,79281,1,0,0:0:0:0:
192,192,79512,1,0,0:0:0:0:
448,192,79512,1,0,0:0:0:0:
320,192,79512,1,0,0:0:0:0:
64,192,79512,1,0,0:0:0:0:
192,192,79743,1,0,0:0:0:0:
448,192,79743,1,0,0:0:0:0:
64,192,79974,1,0,0:0:0:0:
192,192,79974,1,0,0:0:0:0:
320,192,79974,1,0,0:0:0:0:
448,192,79974,1,0,0:0:0:0:
64,192,80204,1,0,0:0:0:0:
320,192,80204,1,0,0:0:0:0:
64,192,80435,1,0,0:0:0:0:
192,192,80435,1,0,0:0:0:0:
320,192,80435,1,0,0:0:0:0:
448,192,80435,1,0,0:0:0:0:
192,192,80666,1,0,0:0:0:0:
448,192,80666,1,0,0:0:0:0:
448,192,80897,1,0,0:0:0:0:
320,192,80897,1,0,0:0:0:0:
64,192,80897,1,0,0:0:0:0:
192,192,80897,1,0,0:0:0:0:
64,192,81128,1,0,0:0:0:0:
192,192,81128,1,0,0:0:0:0:
320,192,81128,1,0,0:0:0:0:
192,192,81358,1,0,0:0:0:0:
320,192,81358,1,0,0:0:0:0:
448,192,81358,1,0,0:0:0:0:
64,192,81474,1,0,0:0:0:0:
192,192,81474,1,0,0:0:0:0:
448,192,81474,1,0,0:0:0:0:
320,192,81474,1,0,0:0:0:0:
64,192,81647,1,0,0:0:0:0:
320,192,81676,1,0,0:0:0:0:
192,192,81704,1,0,0:0:0:0:
448,192,81733,1,0,0:0:0:0:
64,192,81762,1,0,0:0:0:0:
320,192,81791,1,0,0:0:0:0:
192,192,81820,1,0,0:0:0:0:
448,192,81849,1,0,0:0:0:0:
320,192,81878,1,0,0:0:0:0:
192,192,81993,1,0,0:0:0:0:
192,192,82281,128,0,82743:0:0:0:0:
64,192,82281,1,0,0:0:0:0:
320,192,82281,1,0,0:0:0:0:
448,192,82281,1,0,0:0:0:0:
448,192,82743,1,0,0:0:0:0:
320,192,82743,1,0,0:0:0:0:
320,192,83089,1,0,0:0:0:0:
320,192,83435,1,0,0:0:0:0:
192,192,83666,1,0,0:0:0:0:
192,192,84012,1,0,0:0:0:0:
192,192,84358,1,0,0:0:0:0:
448,192,84589,1,0,0:0:0:0:
448,192,84935,1,0,0:0:0:0:
448,192,85281,1,0,0:0:0:0:
192,192,85512,1,0,0:0:0:0:
192,192,85858,1,0,0:0:0:0:
192,192,86204,1,0,0:0:0:0:
64,192,86435,1,0,0:0:0:0:
192,192,86550,1,0,0:0:0:0:
320,192,86666,1,0,0:0:0:0:
448,192,86781,1,0,0:0:0:0:
64,192,86896,1,0,0:0:0:0:
320,192,87012,1,0,0:0:0:0:
192,192,87127,1,0,0:0:0:0:
448,192,87243,1,0,0:0:0:0:
64,192,87358,128,0,87416:0:0:0:0:
192,192,87473,128,0,87531:0:0:0:0:
320,192,87589,128,0,87646:0:0:0:0:
448,192,87704,128,0,87762:0:0:0:0:
64,192,87819,128,0,87877:0:0:0:0:
320,192,87935,128,0,87993:0:0:0:0:
192,192,88050,128,0,88108:0:0:0:0:
448,192,88166,128,0,88223:0:0:0:0:
64,192,88281,128,0,88396:0:0:0:0:
192,192,88396,128,0,88512:0:0:0:0:
320,192,88512,128,0,88627:0:0:0:0:
448,192,88627,128,0,88743:0:0:0:0:
64,192,88743,128,0,88858:0:0:0:0:
320,192,88858,128,0,88973:0:0:0:0:
192,192,88973,128,0,89089:0:0:0:0:
448,192,89089,128,0,89204:0:0:0:0:
64,192,89204,1,0,0:0:0:0:
192,192,89204,1,0,0:0:0:0:
320,192,89204,1,0,0:0:0:0:
192,192,89435,1,0,0:0:0:0:
320,192,89550,1,0,0:0:0:0:
192,192,89666,1,0,0:0:0:0:
320,192,89666,1,0,0:0:0:0:
448,192,89666,1,0,0:0:0:0:
64,192,89666,128,0,90128:0:0:0:0:
448,192,90128,1,0,0:0:0:0:
320,192,90128,1,0,0:0:0:0:
320,192,90243,1,0,0:0:0:0:
192,192,90243,1,0,0:0:0:0:
64,192,90243,1,0,0:0:0:0:
448,192,90358,1,0,0:0:0:0:
64,192,90358,1,0,0:0:0:0:
192,192,90358,1,0,0:0:0:0:
320,192,90474,1,0,0:0:0:0:
448,192,90589,1,0,0:0:0:0:
320,192,90589,1,0,0:0:0:0:
64,192,90589,1,0,0:0:0:0:
192,192,90704,1,0,0:0:0:0:
320,192,90820,1,0,0:0:0:0:
192,192,90820,1,0,0:0:0:0:
64,192,90820,1,0,0:0:0:0:
448,192,90935,1,0,0:0:0:0:
192,192,90935,1,0,0:0:0:0:
320,192,90935,1,0,0:0:0:0:
64,192,91051,1,0,0:0:0:0:
448,192,91166,1,0,0:0:0:0:
320,192,91166,1,0,0:0:0:0:
192,192,91166,1,0,0:0:0:0:
448,192,91281,1,0,0:0:0:0:
192,192,91281,1,0,0:0:0:0:
64,192,91281,1,0,0:0:0:0:
320,192,91397,1,0,0:0:0:0:
448,192,91512,1,0,0:0:0:0:
192,192,91512,1,0,0:0:0:0:
64,192,91512,1,0,0:0:0:0:
320,192,91628,1,0,0:0:0:0:
192,192,91628,1,0,0:0:0:0:
448,192,91743,1,0,0:0:0:0:
320,192,91743,1,0,0:0:0:0:
192,192,91801,1,0,0:0:0:0:
64,192,91801,1,0,0:0:0:0:
448,192,91858,1,0,0:0:0:0:
320,192,91858,1,0,0:0:0:0:
192,192,91916,1,0,0:0:0:0:
64,192,91916,1,0,0:0:0:0:
448,192,91974,1,0,0:0:0:0:
320,192,91974,1,0,0:0:0:0:
320,192,92089,1,0,0:0:0:0:
192,192,92089,1,0,0:0:0:0:
320,192,92204,1,0,0:0:0:0:
64,192,92204,1,0,0:0:0:0:
448,192,92204,1,0,0:0:0:0:
448,192,92320,1,0,0:0:0:0:
192,192,92320,1,0,0:0:0:0:
192,192,92435,1,0,0:0:0:0:
320,192,92435,1,0,0:0:0:0:
64,192,92435,1,0,0:0:0:0:
448,192,92551,1,0,0:0:0:0:
64,192,92551,1,0,0:0:0:0:
192,192,92666,1,0,0:0:0:0:
320,192,92666,1,0,0:0:0:0:
320,192,92781,1,0,0:0:0:0:
64,192,92781,1,0,0:0:0:0:
64,192,92897,1,0,0:0:0:0:
192,192,92897,1,0,0:0:0:0:
448,192,92897,1,0,0:0:0:0:
448,192,93012,1,0,0:0:0:0:
192,192,93128,1,0,0:0:0:0:
64,192,93128,1,0,0:0:0:0:
320,192,93128,1,0,0:0:0:0:
192,192,93243,1,0,0:0:0:0:
448,192,93243,1,0,0:0:0:0:
320,192,93358,1,0,0:0:0:0:
448,192,93358,1,0,0:0:0:0:
64,192,93358,1,0,0:0:0:0:
320,192,93474,1,0,0:0:0:0:
192,192,93589,1,0,0:0:0:0:
64,192,93589,1,0,0:0:0:0:
320,192,93647,1,0,0:0:0:0:
448,192,93647,1,0,0:0:0:0:
192,192,93704,1,0,0:0:0:0:
64,192,93704,1,0,0:0:0:0:
448,192,93762,1,0,0:0:0:0:
320,192,93762,1,0,0:0:0:0:
192,192,93820,1,0,0:0:0:0:
64,192,93820,1,0,0:0:0:0:
448,192,93935,1,0,0:0:0:0:
64,192,93935,1,0,0:0:0:0:
448,192,94051,1,0,0:0:0:0:
192,192,94051,1,0,0:0:0:0:
320,192,94166,1,0,0:0:0:0:
64,192,94166,1,0,0:0:0:0:
320,192,94281,1,0,0:0:0:0:
192,192,94281,1,0,0:0:0:0:
448,192,94281,1,0,0:0:0:0:
64,192,94397,1,0,0:0:0:0:
448,192,94512,1,0,0:0:0:0:
192,192,94512,1,0,0:0:0:0:
64,192,94512,1,0,0:0:0:0:
320,192,94628,1,0,0:0:0:0:
192,192,94628,1,0,0:0:0:0:
448,192,94628,1,0,0:0:0:0:
320,192,94743,1,0,0:0:0:0:
192,192,94858,1,0,0:0:0:0:
448,192,94858,1,0,0:0:0:0:
64,192,94858,1,0,0:0:0:0:
448,192,94974,1,0,0:0:0:0:
320,192,94974,1,0,0:0:0:0:
192,192,94974,1,0,0:0:0:0:
64,192,95089,1,0,0:0:0:0:
448,192,95204,1,0,0:0:0:0:
192,192,95204,1,0,0:0:0:0:
320,192,95320,1,0,0:0:0:0:
192,192,95320,1,0,0:0:0:0:
448,192,95435,1,0,0:0:0:0:
320,192,95435,1,0,0:0:0:0:
64,192,95435,1,0,0:0:0:0:
192,192,95551,1,0,0:0:0:0:
448,192,95666,1,0,0:0:0:0:
64,192,95666,1,0,0:0:0:0:
192,192,95666,1,0,0:0:0:0:
320,192,95781,1,0,0:0:0:0:
448,192,95781,1,0,0:0:0:0:
320,192,95897,1,0,0:0:0:0:
64,192,95897,1,0,0:0:0:0:
192,192,96012,1,0,0:0:0:0:
448,192,96128,1,0,0:0:0:0:
64,192,96128,1,0,0:0:0:0:
320,192,96128,1,0,0:0:0:0:
320,192,96243,1,0,0:0:0:0:
192,192,96243,1,0,0:0:0:0:
64,192,96358,1,0,0:0:0:0:
320,192,96358,1,0,0:0:0:0:
192,192,96358,1,0,0:0:0:0:
64,192,96474,1,0,0:0:0:0:
448,192,96474,1,0,0:0:0:0:
320,192,96589,1,0,0:0:0:0:
192,192,96704,1,0,0:0:0:0:
448,192,96704,1,0,0:0:0:0:
64,192,96704,1,0,0:0:0:0:
448,192,96820,1,0,0:0:0:0:
320,192,96820,1,0,0:0:0:0:
64,192,96820,1,0,0:0:0:0:
192,192,96935,1,0,0:0:0:0:
320,192,97051,128,0,97166:0:0:0:0:
64,192,97166,1,0,0:0:0:0:
192,192,97166,1,0,0:0:0:0:
448,192,97224,1,0,0:0:0:0:
320,192,97281,128,0,97512:0:0:0:0:
64,192,97281,1,0,0:0:0:0:
448,192,97512,1,0,0:0:0:0:
192,192,97512,1,0,0:0:0:0:
64,192,97512,1,0,0:0:0:0:
320,192,97628,1,0,0:0:0:0:
192,192,97628,1,0,0:0:0:0:
448,192,97743,1,0,0:0:0:0:
64,192,97743,1,0,0:0:0:0:
320,192,97743,1,0,0:0:0:0:
448,192,97858,1,0,0:0:0:0:
192,192,97858,1,0,0:0:0:0:
320,192,97974,1,0,0:0:0:0:
192,192,97974,1,0,0:0:0:0:
64,192,97974,1,0,0:0:0:0:
448,192,98089,1,0,0:0:0:0:
64,192,98089,1,0,0:0:0:0:
448,192,98204,1,0,0:0:0:0:
320,192,98204,1,0,0:0:0:0:
192,192,98204,1,0,0:0:0:0:
320,192,98320,1,0,0:0:0:0:
64,192,98320,1,0,0:0:0:0:
448,192,98435,1,0,0:0:0:0:
192,192,98435,1,0,0:0:0:0:
64,192,98435,1,0,0:0:0:0:
320,192,98551,1,0,0:0:0:0:
192,192,98551,1,0,0:0:0:0:
448,192,98608,1,0,0:0:0:0:
320,192,98666,1,0,0:0:0:0:
64,192,98666,1,0,0:0:0:0:
448,192,98781,1,0,0:0:0:0:
192,192,98781,128,0,99012:0:0:0:0:
320,192,99012,1,0,0:0:0:0:
448,192,99128,1,0,0:0:0:0:
320,192,99128,1,0,0:0:0:0:
64,192,99128,1,0,0:0:0:0:
448,192,99358,1,0,0:0:0:0:
192,192,99358,1,0,0:0:0:0:
64,192,99358,1,0,0:0:0:0:
320,192,99474,1,0,0:0:0:0:
192,192,99474,1,0,0:0:0:0:
448,192,99589,1,0,0:0:0:0:
320,192,99589,1,0,0:0:0:0:
64,192,99589,1,0,0:0:0:0:
448,192,99704,1,0,0:0:0:0:
192,192,99704,1,0,0:0:0:0:
320,192,99820,1,0,0:0:0:0:
192,192,99820,1,0,0:0:0:0:
64,192,99820,1,0,0:0:0:0:
448,192,99935,1,0,0:0:0:0:
64,192,99935,1,0,0:0:0:0:
320,192,100051,1,0,0:0:0:0:
448,192,100051,1,0,0:0:0:0:
192,192,100051,1,0,0:0:0:0:
320,192,100166,1,0,0:0:0:0:
64,192,100166,1,0,0:0:0:0:
448,192,100281,1,0,0:0:0:0:
192,192,100281,1,0,0:0:0:0:
64,192,100281,1,0,0:0:0:0:
448,192,100397,1,0,0:0:0:0:
320,192,100397,1,0,0:0:0:0:
192,192,100454,1,0,0:0:0:0:
320,192,100512,1,0,0:0:0:0:
64,192,100512,1,0,0:0:0:0:
192,192,100628,128,0,100858:0:0:0:0:
448,192,100628,1,0,0:0:0:0:
320,192,100858,1,0,0:0:0:0:
448,192,100974,1,0,0:0:0:0:
320,192,100974,1,0,0:0:0:0:
64,192,100974,1,0,0:0:0:0:
320,192,101204,1,0,0:0:0:0:
192,192,101204,1,0,0:0:0:0:
64,192,101204,1,0,0:0:0:0:
448,192,101320,1,0,0:0:0:0:
64,192,101320,1,0,0:0:0:0:
192,192,101435,1,0,0:0:0:0:
320,192,101435,1,0,0:0:0:0:
448,192,101435,1,0,0:0:0:0:
320,192,101551,1,0,0:0:0:0:
64,192,101551,1,0,0:0:0:0:
448,192,101666,1,0,0:0:0:0:
192,192,101666,1,0,0:0:0:0:
64,192,101666,1,0,0:0:0:0:
192,192,101781,1,0,0:0:0:0:
320,192,101781,1,0,0:0:0:0:
64,192,101897,1,0,0:0:0:0:
320,192,101897,1,0,0:0:0:0:
448,192,101897,1,0,0:0:0:0:
192,192,102012,1,0,0:0:0:0:
448,192,102012,1,0,0:0:0:0:
320,192,102128,1,0,0:0:0:0:
64,192,102128,1,0,0:0:0:0:
192,192,102128,1,0,0:0:0:0:
64,192,102243,1,0,0:0:0:0:
448,192,102243,1,0,0:0:0:0:
192,192,102301,1,0,0:0:0:0:
448,192,102358,1,0,0:0:0:0:
320,192,102358,1,0,0:0:0:0:
320,192,102474,1,0,0:0:0:0:
64,192,102474,128,0,102704:0:0:0:0:
448,192,102704,1,0,0:0:0:0:
192,192,102704,1,0,0:0:0:0:
320,192,102820,1,0,0:0:0:0:
192,192,102820,1,0,0:0:0:0:
64,192,103051,1,0,0:0:0:0:
320,192,103051,1,0,0:0:0:0:
320,192,103166,1,0,0:0:0:0:
192,192,103166,1,0,0:0:0:0:
192,192,103281,1,0,0:0:0:0:
448,192,103281,1,0,0:0:0:0:
64,192,103397,1,0,0:0:0:0:
320,192,103397,1,0,0:0:0:0:
64,192,103512,1,0,0:0:0:0:
192,192,103512,1,0,0:0:0:0:
320,192,103628,1,0,0:0:0:0:
448,192,103628,1,0,0:0:0:0:
192,192,103743,1,0,0:0:0:0:
448,192,103743,1,0,0:0:0:0:
64,192,103858,1,0,0:0:0:0:
320,192,103858,1,0,0:0:0:0:
64,192,103974,1,0,0:0:0:0:
192,192,103974,1,0,0:0:0:0:
320,192,104031,1,0,0:0:0:0:
448,192,104089,1,0,0:0:0:0:
64,192,104147,1,0,0:0:0:0:
320,192,104204,1,0,0:0:0:0:
192,192,104204,128,0,104262:0:0:0:0:
448,192,104320,1,0,0:0:0:0:
64,192,104320,128,0,104378:0:0:0:0:
192,192,104435,1,0,0:0:0:0:
320,192,104435,128,0,104666:0:0:0:0:
64,192,104666,1,0,0:0:0:0:
64,192,104897,1,0,0:0:0:0:
320,192,104897,1,0,0:0:0:0:
448,192,104897,1,0,0:0:0:0:
192,192,105012,1,0,0:0:0:0:
320,192,105012,1,0,0:0:0:0:
64,192,105070,1,0,0:0:0:0:
320,192,105128,1,0,0:0:0:0:
448,192,105128,1,0,0:0:0:0:
64,192,105243,1,0,0:0:0:0:
192,192,105243,1,0,0:0:0:0:
320,192,105301,1,0,0:0:0:0:
448,192,105301,1,0,0:0:0:0:
64,192,105358,1,0,0:0:0:0:
192,192,105358,1,0,0:0:0:0:
64,192,105474,1,0,0:0:0:0:
320,192,105474,1,0,0:0:0:0:
448,192,105474,1,0,0:0:0:0:
192,192,105531,1,0,0:0:0:0:
64,192,105589,1,0,0:0:0:0:
448,192,105589,1,0,0:0:0:0:
192,192,105704,1,0,0:0:0:0:
320,192,105704,1,0,0:0:0:0:
448,192,105762,1,0,0:0:0:0:
64,192,105820,1,0,0:0:0:0:
192,192,105820,1,0,0:0:0:0:
320,192,105935,1,0,0:0:0:0:
448,192,105935,1,0,0:0:0:0:
64,192,105993,1,0,0:0:0:0:
192,192,105993,1,0,0:0:0:0:
448,192,106051,1,0,0:0:0:0:
320,192,106051,1,0,0:0:0:0:
64,192,106166,1,0,0:0:0:0:
192,192,106166,1,0,0:0:0:0:
320,192,106224,1,0,0:0:0:0:
64,192,106281,1,0,0:0:0:0:
448,192,106281,1,0,0:0:0:0:
192,192,106339,1,0,0:0:0:0:
320,192,106397,1,0,0:0:0:0:
448,192,106397,1,0,0:0:0:0:
64,192,106454,1,0,0:0:0:0:
320,192,106512,1,0,0:0:0:0:
192,192,106512,1,0,0:0:0:0:
192,192,106743,1,0,0:0:0:0:
320,192,106743,1,0,0:0:0:0:
448,192,106743,1,0,0:0:0:0:
64,192,106858,1,0,0:0:0:0:
320,192,106858,1,0,0:0:0:0:
192,192,106916,1,0,0:0:0:0:
320,192,106974,1,0,0:0:0:0:
448,192,106974,1,0,0:0:0:0:
64,192,107089,1,0,0:0:0:0:
192,192,107089,1,0,0:0:0:0:
320,192,107147,1,0,0:0:0:0:
448,192,107147,1,0,0:0:0:0:
64,192,107204,1,0,0:0:0:0:
192,192,107204,1,0,0:0:0:0:
64,192,107320,1,0,0:0:0:0:
320,192,107320,1,0,0:0:0:0:
448,192,107320,1,0,0:0:0:0:
192,192,107378,1,0,0:0:0:0:
64,192,107435,1,0,0:0:0:0:
320,192,107435,1,0,0:0:0:0:
192,192,107551,1,0,0:0:0:0:
448,192,107551,1,0,0:0:0:0:
320,192,107608,1,0,0:0:0:0:
64,192,107666,1,0,0:0:0:0:
192,192,107666,1,0,0:0:0:0:
448,192,107781,1,0,0:0:0:0:
320,192,107810,1,0,0:0:0:0:
192,192,107839,1,0,0:0:0:0:
64,192,107868,1,0,0:0:0:0:
320,192,107897,1,0,0:0:0:0:
448,192,107897,1,0,0:0:0:0:
320,192,108012,1,0,0:0:0:0:
192,192,108012,1,0,0:0:0:0:
64,192,108128,1,0,0:0:0:0:
192,192,108156,1,0,0:0:0:0:
448,192,108185,1,0,0:0:0:0:
320,192,108214,1,0,0:0:0:0:
64,192,108243,1,0,0:0:0:0:
192,192,108272,1,0,0:0:0:0:
448,192,108301,1,0,0:0:0:0:
320,192,108329,1,0,0:0:0:0:
64,192,108358,128,0,108589:0:0:0:0:
320,192,108589,1,0,0:0:0:0:
448,192,108589,1,0,0:0:0:0:
192,192,108647,1,0,0:0:0:0:
64,192,108704,1,0,0:0:0:0:
448,192,108704,1,0,0:0:0:0:
320,192,108762,1,0,0:0:0:0:
64,192,108820,1,0,0:0:0:0:
192,192,108820,1,0,0:0:0:0:
448,192,108878,1,0,0:0:0:0:
320,192,108935,1,0,0:0:0:0:
192,192,108935,1,0,0:0:0:0:
64,192,108993,1,0,0:0:0:0:
320,192,109051,1,0,0:0:0:0:
448,192,109051,1,0,0:0:0:0:
64,192,109108,1,0,0:0:0:0:
448,192,109166,1,0,0:0:0:0:
192,192,109166,1,0,0:0:0:0:
320,192,109224,1,0,0:0:0:0:
64,192,109281,1,0,0:0:0:0:
192,192,109281,1,0,0:0:0:0:
320,192,109339,1,0,0:0:0:0:
64,192,109397,1,0,0:0:0:0:
448,192,109397,1,0,0:0:0:0:
192,192,109454,1,0,0:0:0:0:
448,192,109512,1,0,0:0:0:0:
320,192,109512,1,0,0:0:0:0:
64,192,109570,1,0,0:0:0:0:
192,192,109628,1,0,0:0:0:0:
320,192,109628,1,0,0:0:0:0:
448,192,109685,1,0,0:0:0:0:
320,192,109743,1,0,0:0:0:0:
64,192,109743,1,0,0:0:0:0:
192,192,109801,1,0,0:0:0:0:
64,192,109858,1,0,0:0:0:0:
448,192,109887,1,0,0:0:0:0:
320,192,109916,1,0,0:0:0:0:
192,192,109945,1,0,0:0:0:0:
448,192,109974,1,0,0:0:0:0:
64,192,110003,1,0,0:0:0:0:
192,192,110031,1,0,0:0:0:0:
320,192,110060,1,0,0:0:0:0:
64,192,110089,1,0,0:0:0:0:
448,192,110118,1,0,0:0:0:0:
320,192,110147,1,0,0:0:0:0:
192,192,110176,1,0,0:0:0:0:
64,192,110204,1,0,0:0:0:0:
320,192,110320,1,0,0:0:0:0:
448,192,110320,1,0,0:0:0:0:
64,192,110435,5,0,0:0:0:0:
192,192,110435,1,0,0:0:0:0:
320,192,110493,1,0,0:0:0:0:
448,192,110493,1,0,0:0:0:0:
64,192,110551,1,0,0:0:0:0:
192,192,110551,1,0,0:0:0:0:
320,192,110608,1,0,0:0:0:0:
448,192,110608,1,0,0:0:0:0:
64,192,110666,1,0,0:0:0:0:
192,192,110666,1,0,0:0:0:0:
320,192,110724,1,0,0:0:0:0:
448,192,110724,1,0,0:0:0:0:
64,192,110781,1,0,0:0:0:0:
192,192,110781,1,0,0:0:0:0:
320,192,110839,1,0,0:0:0:0:
448,192,110839,1,0,0:0:0:0:
64,192,110897,1,0,0:0:0:0:
192,192,110897,1,0,0:0:0:0:
320,192,110954,1,0,0:0:0:0:
448,192,110954,1,0,0:0:0:0:
64,192,111012,1,0,0:0:0:0:
192,192,111012,1,0,0:0:0:0:
320,192,111070,1,0,0:0:0:0:
448,192,111070,1,0,0:0:0:0:
64,192,111128,1,0,0:0:0:0:
192,192,111128,1,0,0:0:0:0:
320,192,111185,1,0,0:0:0:0:
448,192,111185,1,0,0:0:0:0:
64,192,111243,1,0,0:0:0:0:
192,192,111243,1,0,0:0:0:0:
320,192,111301,1,0,0:0:0:0:
448,192,111301,1,0,0:0:0:0:
64,192,111358,1,0,0:0:0:0:
192,192,111387,1,0,0:0:0:0:
320,192,111416,1,0,0:0:0:0:
448,192,111445,1,0,0:0:0:0:
64,192,111474,1,0,0:0:0:0:
192,192,111503,1,0,0:0:0:0:
320,192,111531,1,0,0:0:0:0:
448,192,111560,1,0,0:0:0:0:
64,192,111589,1,0,0:0:0:0:
192,192,111618,1,0,0:0:0:0:
320,192,111647,1,0,0:0:0:0:
448,192,111676,1,0,0:0:0:0:
64,192,111704,1,0,0:0:0:0:
192,192,111733,1,0,0:0:0:0:
320,192,111762,1,0,0:0:0:0:
448,192,111791,1,0,0:0:0:0:
64,192,111820,1,0,0:0:0:0:
192,192,111849,1,0,0:0:0:0:
320,192,111878,1,0,0:0:0:0:
448,192,111906,1,0,0:0:0:0:
64,192,111935,1,0,0:0:0:0:
192,192,111964,1,0,0:0:0:0:
320,192,111993,1,0,0:0:0:0:
448,192,112022,1,0,0:0:0:0:
64,192,112051,1,0,0:0:0:0:
192,192,112079,1,0,0:0:0:0:
320,192,112108,1,0,0:0:0:0:
448,192,112137,1,0,0:0:0:0:
64,192,112166,1,0,0:0:0:0:
192,192,112195,1,0,0:0:0:0:
320,192,112224,1,0,0:0:0:0:
448,192,112253,1,0,0:0:0:0:
192,192,112281,1,0,0:0:0:0:
64,192,112282,128,0,114128:0:0:0:0:
320,192,112743,1,0,0:0:0:0:
192,192,112974,1,0,0:0:0:0:
448,192,113205,1,0,0:0:0:0:
320,192,113205,1,0,0:0:0:0:
192,192,113435,1,0,0:0:0:0:
448,192,113551,1,0,0:0:0:0:
192,192,113782,1,0,0:0:0:0:
320,192,113897,1,0,0:0:0:0:
448,192,114128,1,0,0:0:0:0:
320,192,114128,128,0,115051:0:0:0:0:
192,192,115051,1,0,0:0:0:0:
192,192,115282,1,0,0:0:0:0:
192,192,115512,1,0,0:0:0:0:
192,192,115743,1,0,0:0:0:0:
64,192,115974,1,0,0:0:0:0:
192,192,115974,1,0,0:0:0:0:
448,192,115974,1,0,0:0:0:0:
320,192,115974,1,0,0:0:0:0:
64,192,116897,1,0,0:0:0:0:
192,192,116897,1,0,0:0:0:0:
320,192,116897,1,0,0:0:0:0:
448,192,116897,1,0,0:0:0:0:
64,192,117820,1,0,0:0:0:0:
192,192,117820,1,0,0:0:0:0:
320,192,117820,1,0,0:0:0:0:
448,192,117820,1,0,0:0:0:0:
64,192,118282,1,0,0:0:0:0:
192,192,118282,1,0,0:0:0:0:
448,192,118282,1,0,0:0:0:0:
320,192,118282,1,0,0:0:0:0:
64,192,118397,1,0,0:0:0:0:
192,192,118397,1,0,0:0:0:0:
320,192,118397,1,0,0:0:0:0:
448,192,118397,1,0,0:0:0:0:
64,192,118628,1,0,0:0:0:0:
448,192,118657,1,0,0:0:0:0:
192,192,118685,1,0,0:0:0:0:
320,192,118714,1,0,0:0:0:0:
64,192,118743,1,0,0:0:0:0:
448,192,118772,1,0,0:0:0:0:
192,192,118801,1,0,0:0:0:0:
320,192,118830,1,0,0:0:0:0:
64,192,118858,1,0,0:0:0:0:
448,192,118974,1,0,0:0:0:0:
320,192,119205,1,0,0:0:0:0:
64,192,119205,1,0,0:0:0:0:
192,192,119205,1,0,0:0:0:0:
448,192,119435,128,0,119493:0:0:0:0:
64,192,119666,1,0,0:0:0:0:
192,192,119666,1,0,0:0:0:0:
320,192,119666,1,0,0:0:0:0:
448,192,119666,1,0,0:0:0:0:
64,192,119897,1,0,0:0:0:0:
320,192,119897,1,0,0:0:0:0:
192,192,120128,1,0,0:0:0:0:
448,192,120128,1,0,0:0:0:0:
320,192,120128,1,0,0:0:0:0:
64,192,120128,1,0,0:0:0:0:
192,192,120358,1,0,0:0:0:0:
448,192,120358,1,0,0:0:0:0:
64,192,120589,1,0,0:0:0:0:
192,192,120589,1,0,0:0:0:0:
320,192,120589,1,0,0:0:0:0:
448,192,120589,1,0,0:0:0:0:
64,192,120820,1,0,0:0:0:0:
320,192,120820,1,0,0:0:0:0:
64,192,121051,1,0,0:0:0:0:
192,192,121051,1,0,0:0:0:0:
320,192,121051,1,0,0:0:0:0:
448,192,121051,1,0,0:0:0:0:
192,192,121282,1,0,0:0:0:0:
448,192,121282,1,0,0:0:0:0:
448,192,121512,1,0,0:0:0:0:
320,192,121512,1,0,0:0:0:0:
64,192,121512,1,0,0:0:0:0:
192,192,121512,1,0,0:0:0:0:
64,192,121743,1,0,0:0:0:0:
320,192,121743,1,0,0:0:0:0:
448,192,121743,1,0,0:0:0:0:
192,192,121974,1,0,0:0:0:0:
448,192,121974,1,0,0:0:0:0:
64,192,121974,1,0,0:0:0:0:
64,192,122089,1,0,0:0:0:0:
192,192,122089,1,0,0:0:0:0:
448,192,122089,1,0,0:0:0:0:
320,192,122089,1,0,0:0:0:0:
64,192,122320,1,0,0:0:0:0:
448,192,122349,1,0,0:0:0:0:
192,192,122378,1,0,0:0:0:0:
320,192,122407,1,0,0:0:0:0:
64,192,122435,1,0,0:0:0:0:
448,192,122464,1,0,0:0:0:0:
192,192,122493,1,0,0:0:0:0:
320,192,122522,1,0,0:0:0:0:
64,192,122551,1,0,0:0:0:0:
192,192,122666,1,0,0:0:0:0:
320,192,122666,1,0,0:0:0:0:
448,192,122666,1,0,0:0:0:0:
64,192,123012,1,0,0:0:0:0:
192,192,123012,1,0,0:0:0:0:
448,192,123012,1,0,0:0:0:0:
64,192,123358,128,0,127051:0:0:0:0:
320,192,123358,1,0,0:0:0:0:
448,192,123358,128,0,125205:0:0:0:0:
192,192,123358,128,0,124282:0:0:0:0:
192,192,125205,1,0,0:0:0:0:
320,192,125551,1,0,0:0:0:0:
