osu file format v14

[General]
AudioFilename: audio.mp3
AudioLeadIn: 0
PreviewTime: 16246
Countdown: 0
SampleSet: Normal
StackLeniency: 0.7
Mode: 1
LetterboxInBreaks: 0
WidescreenStoryboard: 0

[Editor]
Bookmarks: 16257,48799,65070,81341,97613,132189,148456
DistanceSpacing: 1
BeatDivisor: 12
GridSize: 32
TimelineZoom: 1.76

[Metadata]
Title:retrograde
TitleUnicode:retrograde
Artist:knapsack
ArtistUnicode:knapsack
Creator:Ulqui
Version:lonely
Source:
Tags:electronic english future haven't havent seen you lately demos
BeatmapID:2665243
BeatmapSetID:1283361

[Difficulty]
HPDrainRate:6
CircleSize:2
OverallDifficulty:5.5
ApproachRate:10
SliderMultiplier:1.4
SliderTickRate:1

[Events]
//Background and Video events
0,0,"Konachan.com - 304071 sample.jpg",0,-85
//Break Periods
2,65323,80309
//Storyboard Layer 0 (Background)
//Storyboard Layer 1 (Fail)
//Storyboard Layer 2 (Pass)
//Storyboard Layer 3 (Foreground)
//Storyboard Layer 4 (Overlay)
//Storyboard Sound Samples

[TimingPoints]
39,508.474576271186,4,1,0,5,1,0
39,-166.666666666667,4,1,0,5,0,0
8015,-166.666666666667,4,1,0,40,0,0
14689,-147.058823529412,4,1,0,40,0,0
15198,-131.578947368422,4,1,0,45,0,0
15579,-121.951219512195,4,1,0,50,0,0
15706,-119.047619047619,4,1,0,55,0,0
15960,-113.636363636364,4,1,0,60,0,0
16088,-111.111111111111,4,1,0,75,0,0
16215,-100,4,1,0,80,0,0
32930,-111.111111111111,4,1,0,80,0,0
33312,-125,4,1,0,80,0,0
33820,-142.857142857143,4,1,0,80,0,0
33947,-133.333333333333,4,1,0,80,0,0
34074,-125,4,1,0,80,0,0
34329,-111.111111111111,4,1,0,80,0,0
34456,-105.263157894737,4,1,0,80,0,0
34583,-100,4,1,0,80,0,0
48852,-100,4,1,0,40,0,0
49074,-125,4,1,0,40,0,0
57909,-89.2857142857143,4,1,0,80,0,0
58163,-90.9090909090909,4,1,0,80,0,0
58290,-92.5925925925926,4,1,0,80,0,0
58417,-94.3396226415094,4,1,0,80,0,0
58671,-96.1538461538461,4,1,0,80,0,0
58798,-98.0392156862745,4,1,0,80,0,0
58926,-100,4,1,0,80,0,0
64329,-95.2380952380952,4,1,0,80,0,0
64583,-90.9090909090909,4,1,0,80,0,0
64837,-86.9565217391304,4,1,0,80,0,0
65091,-83.3333333333333,4,1,0,80,0,0
65218,-166.666666666667,4,1,0,5,0,0
80663,-142.857142857143,4,1,0,80,0,0
81362,-142.857142857143,4,1,0,80,0,0
97570,-142.857142857143,4,1,0,40,0,0
97951,-166.666666666667,4,1,0,40,0,0
126045,-100,4,1,0,80,0,0
130112,-100,4,1,0,5,0,0
132146,-100,4,1,0,60,0,0
132242,-200,4,1,0,60,0,1
148513,-200,4,1,0,60,0,0

[HitObjects]
136,158,8174,5,0,0:0:0:0:
170,158,8428,1,8,0:0:0:0:
170,159,8683,1,8,0:0:0:0:
170,160,8937,1,8,0:0:0:0:
169,99,9318,1,0,0:0:0:0:
180,129,10208,1,0,0:0:0:0:
180,129,10462,1,8,0:0:0:0:
180,129,10844,1,8,0:0:0:0:
180,129,10971,1,8,0:0:0:0:
180,129,11352,1,0,0:0:0:0:
190,111,12242,1,0,0:0:0:0:
190,111,12496,1,8,0:0:0:0:
190,111,12750,1,8,0:0:0:0:
191,133,13005,1,8,0:0:0:0:
191,134,13513,1,0,0:0:0:0:
176,87,13767,1,0,0:0:0:0:
176,87,14022,1,0,0:0:0:0:
186,126,14276,1,8,0:0:0:0:
131,107,14784,1,8,0:0:0:0:
135,100,15293,1,8,0:0:0:0:
192,118,15674,1,8,0:0:0:0:
192,118,15801,1,8,0:0:0:0:
173,87,16055,1,8,0:0:0:0:
173,87,16183,1,8,0:0:0:0:
173,87,16310,1,0,0:0:0:0:
181,128,16564,1,8,0:0:0:0:
181,128,16691,1,0,0:0:0:0:
181,128,16818,1,8,0:0:0:0:
181,128,16945,1,0,0:0:0:0:
181,128,17072,1,0,0:0:0:0:
181,128,17200,1,8,0:0:0:0:
181,128,17454,1,8,0:0:0:0:
181,128,17581,1,0,0:0:0:0:
181,128,17708,1,0,0:0:0:0:
181,128,17835,1,8,0:0:0:0:
181,128,18089,1,8,0:0:0:0:
181,128,18216,1,0,0:0:0:0:
181,128,18344,1,0,0:0:0:0:
177,73,18598,1,0,0:0:0:0:
177,73,18725,1,8,0:0:0:0:
177,73,18852,1,8,0:0:0:0:
177,73,18979,1,0,0:0:0:0:
177,73,19106,1,0,0:0:0:0:
177,73,19233,1,8,0:0:0:0:
184,69,19488,1,8,0:0:0:0:
184,69,19615,1,0,0:0:0:0:
184,69,19742,1,8,0:0:0:0:
184,69,19869,1,8,0:0:0:0:
184,69,20123,1,8,0:0:0:0:
184,70,20250,1,8,0:0:0:0:
184,69,20377,1,0,0:0:0:0:
184,69,20632,1,8,0:0:0:0:
184,69,20759,1,0,0:0:0:0:
184,69,20886,1,8,0:0:0:0:
184,69,21013,1,0,0:0:0:0:
184,69,21140,1,0,0:0:0:0:
184,70,21267,1,8,0:0:0:0:
184,69,21522,1,8,0:0:0:0:
184,69,21649,1,0,0:0:0:0:
184,69,21776,1,0,0:0:0:0:
184,69,21903,1,8,0:0:0:0:
184,69,22157,1,8,0:0:0:0:
184,70,22284,1,0,0:0:0:0:
184,69,22411,1,0,0:0:0:0:
184,69,22666,1,0,0:0:0:0:
184,69,22793,1,8,0:0:0:0:
184,69,22920,1,8,0:0:0:0:
184,69,23047,1,0,0:0:0:0:
184,69,23174,1,0,0:0:0:0:
184,70,23301,1,8,0:0:0:0:
184,69,23555,1,8,0:0:0:0:
184,69,23683,1,0,0:0:0:0:
184,69,23810,1,8,0:0:0:0:
184,69,23937,1,8,0:0:0:0:
184,69,24064,1,0,0:0:0:0:
184,69,24191,1,8,0:0:0:0:
184,70,24318,1,8,0:0:0:0:
184,69,24445,1,0,0:0:0:0:
166,99,24700,1,8,0:0:0:0:
166,99,24827,1,0,0:0:0:0:
166,99,24954,1,8,0:0:0:0:
166,99,25081,1,0,0:0:0:0:
166,99,25208,1,0,0:0:0:0:
166,99,25335,1,8,0:0:0:0:
166,99,25589,1,8,0:0:0:0:
166,99,25716,1,0,0:0:0:0:
166,99,25844,1,0,0:0:0:0:
166,99,25971,1,8,0:0:0:0:
166,99,26225,1,8,0:0:0:0:
166,99,26352,1,0,0:0:0:0:
166,99,26479,1,0,0:0:0:0:
166,99,26733,1,0,0:0:0:0:
166,99,26861,1,8,0:0:0:0:
166,99,26988,1,8,0:0:0:0:
166,99,27115,1,0,0:0:0:0:
166,99,27242,1,0,0:0:0:0:
166,99,27369,1,8,0:0:0:0:
166,99,27623,1,8,0:0:0:0:
166,99,27750,1,0,0:0:0:0:
166,99,27877,1,8,0:0:0:0:
166,99,28005,1,8,0:0:0:0:
166,99,28259,1,8,0:0:0:0:
166,99,28386,1,8,0:0:0:0:
166,99,28513,1,0,0:0:0:0:
166,99,28767,1,8,0:0:0:0:
166,99,28894,1,0,0:0:0:0:
166,99,29022,1,8,0:0:0:0:
166,99,29149,1,0,0:0:0:0:
166,99,29276,1,0,0:0:0:0:
166,99,29403,1,8,0:0:0:0:
166,99,29657,1,8,0:0:0:0:
166,99,29784,1,0,0:0:0:0:
166,99,29911,1,0,0:0:0:0:
166,99,30038,1,8,0:0:0:0:
166,99,30293,1,8,0:0:0:0:
166,99,30420,1,0,0:0:0:0:
166,99,30547,1,0,0:0:0:0:
166,99,30801,1,0,0:0:0:0:
166,99,30928,1,8,0:0:0:0:
166,99,31055,1,8,0:0:0:0:
166,99,31183,1,0,0:0:0:0:
166,99,31310,1,0,0:0:0:0:
166,99,31437,1,8,0:0:0:0:
166,99,31691,1,8,0:0:0:0:
166,99,31818,1,0,0:0:0:0:
166,99,31945,1,8,0:0:0:0:
166,99,32072,1,8,0:0:0:0:
166,99,32200,1,0,0:0:0:0:
166,99,32327,1,8,0:0:0:0:
166,99,32454,1,8,0:0:0:0:
166,99,32581,1,0,0:0:0:0:
183,153,32962,1,0,0:0:0:0:
183,153,33344,1,0,0:0:0:0:
183,153,33852,1,0,0:0:0:0:
183,153,33979,1,8,0:0:0:0:
183,153,34106,1,8,0:0:0:0:
183,153,34361,1,8,0:0:0:0:
183,153,34488,1,0,0:0:0:0:
183,153,34615,1,0,0:0:0:0:
205,97,34869,1,0,0:0:0:0:
205,97,34996,1,8,0:0:0:0:
205,97,35123,1,8,0:0:0:0:
205,97,35250,1,8,0:0:0:0:
205,97,35377,1,0,0:0:0:0:
205,97,35505,1,8,0:0:0:0:
205,97,35759,1,8,0:0:0:0:
205,97,35886,1,0,0:0:0:0:
205,97,36013,1,8,0:0:0:0:
205,97,36140,1,8,0:0:0:0:
205,97,36394,1,8,0:0:0:0:
205,97,36522,1,8,0:0:0:0:
205,97,36649,1,0,0:0:0:0:
205,97,36903,1,8,0:0:0:0:
205,97,37030,1,0,0:0:0:0:
205,97,37157,1,8,0:0:0:0:
205,97,37284,1,8,0:0:0:0:
205,97,37411,1,0,0:0:0:0:
205,97,37538,1,8,0:0:0:0:
205,97,37793,1,8,0:0:0:0:
205,97,37920,1,0,0:0:0:0:
205,97,38047,1,0,0:0:0:0:
205,97,38174,1,8,0:0:0:0:
205,97,38428,1,8,0:0:0:0:
205,97,38555,1,0,0:0:0:0:
205,97,38683,1,0,0:0:0:0:
205,97,38937,1,0,0:0:0:0:
205,97,39064,1,8,0:0:0:0:
205,97,39191,1,8,0:0:0:0:
205,97,39318,1,8,0:0:0:0:
205,97,39445,1,0,0:0:0:0:
205,97,39572,1,8,0:0:0:0:
205,97,39827,1,8,0:0:0:0:
205,97,39954,1,0,0:0:0:0:
205,97,40081,1,8,0:0:0:0:
205,97,40208,1,8,0:0:0:0:
205,97,40335,1,0,0:0:0:0:
205,97,40462,1,0,0:0:0:0:
205,97,40589,1,8,0:0:0:0:
205,97,40716,1,0,0:0:0:0:
205,97,40971,1,8,0:0:0:0:
205,97,41098,1,0,0:0:0:0:
205,97,41225,1,8,0:0:0:0:
205,97,41352,1,8,0:0:0:0:
205,97,41479,1,0,0:0:0:0:
205,97,41606,1,8,0:0:0:0:
205,97,41861,1,8,0:0:0:0:
205,97,41988,1,0,0:0:0:0:
205,97,42115,1,0,0:0:0:0:
205,97,42242,1,8,0:0:0:0:
205,97,42496,1,8,0:0:0:0:
205,97,42623,1,0,0:0:0:0:
205,97,42750,1,0,0:0:0:0:
205,97,43005,1,0,0:0:0:0:
205,97,43132,1,8,0:0:0:0:
205,97,43259,1,8,0:0:0:0:
205,97,43386,1,8,0:0:0:0:
205,97,43513,1,0,0:0:0:0:
205,97,43640,1,8,0:0:0:0:
205,97,43894,1,8,0:0:0:0:
205,97,44022,1,0,0:0:0:0:
205,97,44149,1,8,0:0:0:0:
205,97,44276,1,8,0:0:0:0:
205,97,44530,1,8,0:0:0:0:
205,97,44657,1,8,0:0:0:0:
205,97,44784,1,0,0:0:0:0:
205,97,45038,1,8,0:0:0:0:
205,97,45166,1,0,0:0:0:0:
205,97,45293,1,8,0:0:0:0:
205,97,45420,1,8,0:0:0:0:
205,97,45547,1,0,0:0:0:0:
205,97,45674,1,8,0:0:0:0:
205,97,45928,1,8,0:0:0:0:
205,97,46055,1,0,0:0:0:0:
205,97,46183,1,0,0:0:0:0:
205,97,46310,1,8,0:0:0:0:
205,97,46564,1,8,0:0:0:0:
205,97,46691,1,0,0:0:0:0:
205,97,46818,1,0,0:0:0:0:
205,97,47072,1,0,0:0:0:0:
205,97,47200,1,8,0:0:0:0:
205,97,47327,1,8,0:0:0:0:
205,97,47454,1,8,0:0:0:0:
205,97,47581,1,0,0:0:0:0:
205,97,47708,1,8,0:0:0:0:
205,97,47962,1,8,0:0:0:0:
205,97,48089,1,0,0:0:0:0:
205,97,48216,1,8,0:0:0:0:
205,97,48344,1,8,0:0:0:0:
221,82,48471,1,0,0:0:0:0:
205,97,48598,1,0,0:0:0:0:
177,81,48725,1,8,0:0:0:0:
205,97,48852,1,0,0:0:0:0:
205,58,48937,1,8,0:0:0:0:
183,87,50123,1,8,0:0:0:0:
196,47,50886,1,0,0:0:0:0:
176,67,52920,1,0,0:0:0:0:
176,67,53005,1,8,0:0:0:0:
163,81,54191,1,8,0:0:0:0:
163,81,54445,1,8,0:0:0:0:
163,81,54700,1,0,0:0:0:0:
163,81,54954,1,0,0:0:0:0:
169,75,55038,1,8,0:0:0:0:
176,75,55335,1,0,0:0:0:0:
167,57,56988,5,0,0:0:0:0:
154,50,57072,1,8,0:0:0:0:
176,72,57496,1,0,0:0:0:0:
154,50,57581,1,8,0:0:0:0:
180,139,58005,5,0,0:0:0:0:
160,129,58259,1,8,0:0:0:0:
160,129,58386,1,8,0:0:0:0:
160,129,58513,1,8,0:0:0:0:
159,129,58767,1,8,0:0:0:0:
212,57,58894,1,0,0:0:0:0:
160,129,59022,1,0,0:0:0:0:
178,99,59276,1,8,0:0:0:0:
178,99,59530,1,8,0:0:0:0:
197,82,60038,1,0,0:0:0:0:
191,62,60293,1,8,0:0:0:0:
191,67,60547,1,8,0:0:0:0:
173,77,60801,1,8,0:0:0:0:
173,82,60928,1,8,0:0:0:0:
172,82,61055,1,0,0:0:0:0:
177,94,61310,1,8,0:0:0:0:
177,94,61564,1,8,0:0:0:0:
177,94,62072,1,0,0:0:0:0:
190,91,62327,1,8,0:0:0:0:
190,91,62581,1,8,0:0:0:0:
185,102,62835,1,8,0:0:0:0:
184,103,62962,1,0,0:0:0:0:
184,103,63089,1,0,0:0:0:0:
168,97,63344,1,8,0:0:0:0:
168,97,63598,1,8,0:0:0:0:
184,103,64106,1,0,0:0:0:0:
182,104,64361,1,8,0:0:0:0:
182,104,64615,1,8,0:0:0:0:
184,103,64869,1,8,0:0:0:0:
110,88,65123,1,0,0:0:0:0:
176,172,80759,5,8,0:0:0:0:
176,172,80886,1,8,0:0:0:0:
136,124,81394,1,0,0:0:0:0:
136,124,81776,1,0,0:0:0:0:
177,67,81903,1,8,0:0:0:0:
136,124,82157,1,0,0:0:0:0:
136,124,82666,1,0,0:0:0:0:
136,124,82793,1,8,0:0:0:0:
136,124,82920,1,8,0:0:0:0:
136,124,83174,1,8,0:0:0:0:
136,124,83301,1,0,0:0:0:0:
136,124,83428,1,0,0:0:0:0:
125,132,83810,1,0,0:0:0:0:
191,66,83937,1,8,0:0:0:0:
125,132,84191,1,0,0:0:0:0:
125,132,84700,1,0,0:0:0:0:
125,132,84827,1,8,0:0:0:0:
125,132,84954,1,8,0:0:0:0:
125,132,85208,1,0,0:0:0:0:
125,132,85335,1,8,0:0:0:0:
125,132,85462,1,0,0:0:0:0:
161,113,85844,1,0,0:0:0:0:
189,64,85971,1,8,0:0:0:0:
160,122,86225,1,0,0:0:0:0:
156,124,86733,1,0,0:0:0:0:
160,122,86861,1,8,0:0:0:0:
160,122,86988,1,8,0:0:0:0:
191,73,87242,1,8,0:0:0:0:
191,73,87369,1,0,0:0:0:0:
191,73,87496,1,0,0:0:0:0:
189,91,87877,1,0,0:0:0:0:
181,80,88005,1,8,0:0:0:0:
189,94,88259,1,0,0:0:0:0:
189,91,88767,1,0,0:0:0:0:
188,101,88894,1,8,0:0:0:0:
188,101,89022,1,8,0:0:0:0:
189,94,89276,1,0,0:0:0:0:
189,91,89403,1,8,0:0:0:0:
189,91,89530,1,0,0:0:0:0:
161,126,89911,1,0,0:0:0:0:
181,80,90038,1,8,0:0:0:0:
161,126,90293,1,0,0:0:0:0:
154,78,90420,1,0,0:0:0:0:
187,158,90674,1,8,0:0:0:0:
161,126,90801,1,0,0:0:0:0:
161,126,90928,1,8,0:0:0:0:
161,126,91055,1,8,0:0:0:0:
161,126,91310,1,8,0:0:0:0:
161,126,91437,1,0,0:0:0:0:
161,126,91564,1,0,0:0:0:0:
161,126,91945,1,0,0:0:0:0:
156,77,92072,1,8,0:0:0:0:
161,126,92327,1,0,0:0:0:0:
156,77,92454,1,0,0:0:0:0:
192,66,92708,1,8,0:0:0:0:
161,126,92835,1,0,0:0:0:0:
161,126,92962,1,8,0:0:0:0:
161,126,93089,1,8,0:0:0:0:
161,126,93344,1,0,0:0:0:0:
166,129,93471,1,8,0:0:0:0:
166,129,93598,1,0,0:0:0:0:
166,129,93979,1,0,0:0:0:0:
176,96,94106,1,8,0:0:0:0:
169,129,94361,1,0,0:0:0:0:
176,96,94488,1,0,0:0:0:0:
176,96,94742,1,8,0:0:0:0:
166,129,94869,1,0,0:0:0:0:
166,129,94996,1,8,0:0:0:0:
169,129,95123,1,8,0:0:0:0:
169,129,95377,1,8,0:0:0:0:
166,129,95505,1,0,0:0:0:0:
166,129,95632,1,0,0:0:0:0:
166,129,96013,1,0,0:0:0:0:
201,82,96140,1,8,0:0:0:0:
169,129,96394,1,0,0:0:0:0:
201,82,96522,1,0,0:0:0:0:
210,85,96776,1,8,0:0:0:0:
166,129,96903,1,0,0:0:0:0:
166,129,97030,1,8,0:0:0:0:
169,129,97157,1,8,0:0:0:0:
169,129,97411,1,0,0:0:0:0:
166,129,97538,1,8,0:0:0:0:
201,127,97666,1,0,0:0:0:0:
187,134,98047,1,0,0:0:0:0:
187,134,98428,1,0,0:0:0:0:
187,134,98937,1,0,0:0:0:0:
187,134,99191,1,0,0:0:0:0:
187,134,99445,1,0,0:0:0:0:
187,134,99700,1,0,0:0:0:0:
187,134,100081,1,0,0:0:0:0:
187,134,100462,1,0,0:0:0:0:
187,134,100971,1,0,0:0:0:0:
187,134,101225,1,0,0:0:0:0:
187,134,101479,1,0,0:0:0:0:
187,134,101733,1,0,0:0:0:0:
187,134,102115,1,0,0:0:0:0:
187,134,102496,1,0,0:0:0:0:
187,134,103005,1,0,0:0:0:0:
187,134,103259,1,0,0:0:0:0:
187,134,103513,1,0,0:0:0:0:
187,134,103767,1,0,0:0:0:0:
187,134,104149,1,0,0:0:0:0:
187,134,104530,1,0,0:0:0:0:
187,134,105038,1,0,0:0:0:0:
187,134,105293,1,0,0:0:0:0:
187,134,105547,1,0,0:0:0:0:
75,94,105801,1,0,0:0:0:0:
147,124,106055,1,8,0:0:0:0:
173,88,106564,1,0,0:0:0:0:
173,88,106945,1,0,0:0:0:0:
176,95,108089,1,8,0:0:0:0:
176,95,108471,1,8,0:0:0:0:
184,95,108598,1,0,0:0:0:0:
184,95,108979,1,0,0:0:0:0:
184,95,109615,1,0,0:0:0:0:
170,94,110123,1,8,0:0:0:0:
170,94,110632,1,0,0:0:0:0:
181,101,111013,1,0,0:0:0:0:
181,101,112157,1,8,0:0:0:0:
181,101,112538,1,8,0:0:0:0:
181,101,112666,1,0,0:0:0:0:
181,101,113047,1,0,0:0:0:0:
199,95,113683,1,8,0:0:0:0:
199,95,113810,1,8,0:0:0:0:
199,95,113937,1,0,0:0:0:0:
184,83,114191,1,8,0:0:0:0:
191,84,114700,1,0,0:0:0:0:
172,122,114954,1,8,0:0:0:0:
172,122,115208,1,8,0:0:0:0:
172,122,115462,1,0,0:0:0:0:
172,122,115716,1,8,0:0:0:0:
172,122,115971,1,0,0:0:0:0:
172,122,116225,1,0,0:0:0:0:
172,122,116479,1,0,0:0:0:0:
172,122,116733,1,8,0:0:0:0:
172,122,117242,1,0,0:0:0:0:
186,88,118005,1,0,0:0:0:0:
188,77,118259,1,8,0:0:0:0:
192,83,118767,1,0,0:0:0:0:
134,122,119022,1,8,0:0:0:0:
134,122,119276,1,8,0:0:0:0:
134,122,119530,1,0,0:0:0:0:
134,122,119784,1,8,0:0:0:0:
134,122,120038,1,0,0:0:0:0:
134,122,120293,1,0,0:0:0:0:
134,122,120547,1,0,0:0:0:0:
134,122,120801,1,8,0:0:0:0:
134,122,121310,1,0,0:0:0:0:
134,122,121564,1,8,0:0:0:0:
134,122,121818,1,8,0:0:0:0:
169,95,122072,1,0,0:0:0:0:
191,81,122835,1,0,0:0:0:0:
176,64,123344,1,0,0:0:0:0:
167,105,123598,1,8,0:0:0:0:
167,105,123852,1,8,0:0:0:0:
167,105,124361,1,8,0:0:0:0:
167,105,124869,1,8,0:0:0:0:
167,105,125377,1,0,0:0:0:0:
167,105,125886,1,0,0:0:0:0:
181,134,126140,5,8,0:0:0:0:
191,62,126394,1,0,0:0:0:0:
181,134,126649,1,8,0:0:0:0:
181,134,127157,1,8,0:0:0:0:
181,134,127666,1,8,0:0:0:0:
193,66,127920,1,0,0:0:0:0:
181,134,128174,1,8,0:0:0:0:
197,116,128683,1,8,0:0:0:0:
197,117,128937,1,8,0:0:0:0:
197,117,129064,1,8,0:0:0:0:
197,116,129191,1,8,0:0:0:0:
169,97,129445,1,0,0:0:0:0:
197,116,129572,1,8,0:0:0:0:
197,116,129700,1,8,0:0:0:0:
197,117,129827,1,8,0:0:0:0:
197,117,129954,1,8,0:0:0:0:
197,117,130081,1,8,0:0:0:0:
190,147,132242,1,0,0:0:0:0:
190,147,132369,1,8,0:0:0:0:
190,147,132496,1,8,0:0:0:0:
190,147,132623,1,0,0:0:0:0:
190,147,132750,1,0,0:0:0:0:
190,147,132877,1,8,0:0:0:0:
190,147,133005,1,8,0:0:0:0:
190,147,133132,1,0,0:0:0:0:
190,147,133259,1,8,0:0:0:0:
170,93,133386,1,0,0:0:0:0:
170,93,133513,1,0,0:0:0:0:
170,93,133640,1,8,0:0:0:0:
191,87,133704,1,8,0:0:0:0:
170,93,133767,1,0,0:0:0:0:
176,112,133894,1,8,0:0:0:0:
172,117,134022,1,0,0:0:0:0:
171,117,134149,1,0,0:0:0:0:
171,118,134276,1,0,0:0:0:0:
171,118,134403,1,8,0:0:0:0:
168,121,134530,1,8,0:0:0:0:
151,67,134657,1,0,0:0:0:0:
151,67,134784,1,0,0:0:0:0:
151,67,134911,1,8,0:0:0:0:
151,67,135038,1,8,0:0:0:0:
151,67,135166,1,0,0:0:0:0:
142,62,135293,1,8,0:0:0:0:
145,105,135420,1,0,0:0:0:0:
145,106,135547,1,0,0:0:0:0:
145,105,135674,1,8,0:0:0:0:
172,50,135738,1,8,0:0:0:0:
145,105,135801,1,0,0:0:0:0:
181,102,135928,1,8,0:0:0:0:
180,102,136055,1,0,0:0:0:0:
179,102,136183,1,0,0:0:0:0:
179,102,136310,1,0,0:0:0:0:
146,116,136437,1,8,0:0:0:0:
146,116,136564,1,8,0:0:0:0:
146,116,136691,1,0,0:0:0:0:
146,116,136818,1,0,0:0:0:0:
146,116,136945,1,8,0:0:0:0:
146,116,137072,1,8,0:0:0:0:
150,105,137200,1,0,0:0:0:0:
146,116,137327,1,8,0:0:0:0:
161,123,137454,1,0,0:0:0:0:
158,127,137581,1,0,0:0:0:0:
157,127,137708,1,8,0:0:0:0:
156,127,137772,1,8,0:0:0:0:
156,127,137835,1,0,0:0:0:0:
142,86,137962,1,8,0:0:0:0:
141,87,138089,1,0,0:0:0:0:
141,87,138216,1,0,0:0:0:0:
141,87,138344,1,0,0:0:0:0:
142,86,138471,1,8,0:0:0:0:
142,86,138598,1,8,0:0:0:0:
142,92,138725,1,0,0:0:0:0:
142,92,138852,1,0,0:0:0:0:
141,92,138979,1,8,0:0:0:0:
141,87,139106,1,8,0:0:0:0:
141,87,139233,1,0,0:0:0:0:
152,80,139361,1,8,0:0:0:0:
187,38,139488,1,8,0:0:0:0:
142,86,139615,1,0,0:0:0:0:
142,92,139742,1,8,0:0:0:0:
162,50,139805,1,8,0:0:0:0:
142,92,139869,1,8,0:0:0:0:
141,92,139996,1,8,0:0:0:0:
156,93,140123,1,0,0:0:0:0:
155,96,140250,1,8,0:0:0:0:
190,147,140377,1,0,0:0:0:0:
190,147,140505,1,8,0:0:0:0:
190,147,140632,1,8,0:0:0:0:
190,147,140759,1,0,0:0:0:0:
190,147,140886,1,0,0:0:0:0:
190,147,141013,1,8,0:0:0:0:
190,147,141140,1,8,0:0:0:0:
190,147,141267,1,0,0:0:0:0:
190,147,141394,1,8,0:0:0:0:
170,93,141522,1,0,0:0:0:0:
170,93,141649,1,0,0:0:0:0:
170,93,141776,1,8,0:0:0:0:
191,87,141839,1,8,0:0:0:0:
170,93,141903,1,0,0:0:0:0:
176,112,142030,1,8,0:0:0:0:
172,117,142157,1,0,0:0:0:0:
171,117,142284,1,0,0:0:0:0:
171,118,142411,1,0,0:0:0:0:
171,118,142538,1,8,0:0:0:0:
168,121,142666,1,8,0:0:0:0:
151,67,142793,1,0,0:0:0:0:
151,67,142920,1,0,0:0:0:0:
151,67,143047,1,8,0:0:0:0:
151,67,143174,1,8,0:0:0:0:
151,67,143301,1,0,0:0:0:0:
142,62,143428,1,8,0:0:0:0:
145,105,143555,1,0,0:0:0:0:
145,106,143683,1,0,0:0:0:0:
145,105,143810,1,8,0:0:0:0:
172,50,143873,1,8,0:0:0:0:
145,105,143937,1,0,0:0:0:0:
181,102,144064,1,8,0:0:0:0:
180,102,144191,1,0,0:0:0:0:
179,102,144318,1,0,0:0:0:0:
179,102,144445,1,0,0:0:0:0:
146,116,144572,1,8,0:0:0:0:
146,116,144700,1,8,0:0:0:0:
146,116,144827,1,0,0:0:0:0:
146,116,144954,1,0,0:0:0:0:
146,116,145081,1,8,0:0:0:0:
146,116,145208,1,8,0:0:0:0:
150,105,145335,1,0,0:0:0:0:
146,116,145462,1,8,0:0:0:0:
161,123,145589,1,0,0:0:0:0:
158,127,145716,1,0,0:0:0:0:
157,127,145844,1,8,0:0:0:0:
156,127,145907,1,8,0:0:0:0:
156,127,145971,1,0,0:0:0:0:
142,86,146098,1,8,0:0:0:0:
141,87,146225,1,0,0:0:0:0:
141,87,146352,1,0,0:0:0:0:
141,87,146479,1,0,0:0:0:0:
142,86,146606,1,8,0:0:0:0:
142,86,146733,1,8,0:0:0:0:
142,92,146861,1,0,0:0:0:0:
142,92,146988,1,0,0:0:0:0:
141,92,147115,1,8,0:0:0:0:
141,87,147242,1,8,0:0:0:0:
141,87,147369,1,0,0:0:0:0:
152,80,147496,1,8,0:0:0:0:
142,86,147623,1,0,0:0:0:0:
142,86,147750,1,0,0:0:0:0:
142,92,147877,1,8,0:0:0:0:
162,50,147941,1,8,0:0:0:0:
142,92,148005,1,0,0:0:0:0:
141,92,148132,1,8,0:0:0:0:
156,93,148259,1,0,0:0:0:0:
179,51,148513,1,0,0:0:0:0:
