osu file format v14

[General]
AudioFilename: audio.mp3
AudioLeadIn: 0
PreviewTime: -1
Countdown: 0
SampleSet: None
StackLeniency: 0.7
Mode: 3
LetterboxInBreaks: 0
SpecialStyle: 0
WidescreenStoryboard: 0

[Editor]
DistanceSpacing: 0.8
BeatDivisor: 4
GridSize: 4
TimelineZoom: 1.5

[Metadata]
Title:Sweet Child of Mine ?
TitleUnicode:Sweet Child of Mine ?
Artist:kmac2021
ArtistUnicode:kmac2021
Creator:Enygmatique
Version:Undertale
Source:
Tags:
BeatmapID:1961700
BeatmapSetID:939153

[Difficulty]
HPDrainRate:6
CircleSize:4
OverallDifficulty:6
ApproachRate:5
SliderMultiplier:1.4
SliderTickRate:1

[Events]
//Background and Video events
0,0,"hqdefault.jpg",0,0
//Break Periods
//Storyboard Layer 0 (Background)
//Storyboard Layer 1 (Fail)
//Storyboard Layer 2 (Pass)
//Storyboard Layer 3 (Foreground)
//Storyboard Sound Samples

[TimingPoints]
166,230.769230769231,4,1,0,0,1,0

[HitObjects]
64,192,166,128,0,396:0:0:0:0:
192,192,396,128,0,627:0:0:0:0:
448,192,627,128,0,858:0:0:0:0:
320,192,858,128,0,1089:0:0:0:0:
192,192,1089,128,0,1319:0:0:0:0:
320,192,1319,128,0,1550:0:0:0:0:
448,192,1550,128,0,1781:0:0:0:0:
192,192,1781,128,0,2012:0:0:0:0:
64,192,2012,128,0,2242:0:0:0:0:
192,192,2242,128,0,2473:0:0:0:0:
448,192,2473,128,0,2704:0:0:0:0:
320,192,2704,128,0,2935:0:0:0:0:
64,192,2935,128,0,3166:0:0:0:0:
192,192,3166,128,0,3396:0:0:0:0:
448,192,3396,128,0,3627:0:0:0:0:
192,192,3627,128,0,3858:0:0:0:0:
320,192,3858,128,0,4089:0:0:0:0:
64,192,4089,128,0,4319:0:0:0:0:
192,192,4319,128,0,4550:0:0:0:0:
320,192,4550,128,0,4781:0:0:0:0:
64,192,4781,128,0,5012:0:0:0:0:
192,192,5012,128,0,5242:0:0:0:0:
448,192,5242,128,0,5473:0:0:0:0:
320,192,5473,128,0,5704:0:0:0:0:
192,192,5704,128,0,5935:0:0:0:0:
448,192,5935,128,0,6166:0:0:0:0:
320,192,6166,128,0,6396:0:0:0:0:
192,192,6396,128,0,6627:0:0:0:0:
448,192,6627,128,0,6858:0:0:0:0:
64,192,6858,128,0,7089:0:0:0:0:
192,192,7089,128,0,7319:0:0:0:0:
320,192,7319,128,0,7492:0:0:0:0:
320,192,7550,128,0,7781:0:0:0:0:
448,192,7781,128,0,8012:0:0:0:0:
320,192,8012,128,0,8242:0:0:0:0:
192,192,8242,128,0,8473:0:0:0:0:
448,192,8473,128,0,8704:0:0:0:0:
64,192,8704,128,0,8935:0:0:0:0:
192,192,8935,128,0,9166:0:0:0:0:
64,192,9166,128,0,9339:0:0:0:0:
64,192,9396,128,0,9627:0:0:0:0:
192,192,9627,128,0,9858:0:0:0:0:
320,192,9858,128,0,10089:0:0:0:0:
448,192,10089,128,0,10319:0:0:0:0:
192,192,10319,128,0,10550:0:0:0:0:
448,192,10550,128,0,10781:0:0:0:0:
320,192,10781,128,0,11012:0:0:0:0:
192,192,11012,128,0,11242:0:0:0:0:
64,192,11242,1,0,0:0:0:0:
448,192,11242,1,0,0:0:0:0:
64,192,11473,1,0,0:0:0:0:
448,192,11473,1,0,0:0:0:0:
192,192,11473,1,0,0:0:0:0:
64,192,11704,1,0,0:0:0:0:
320,192,11704,1,0,0:0:0:0:
448,192,11704,1,0,0:0:0:0:
64,192,11935,1,0,0:0:0:0:
192,192,11935,1,0,0:0:0:0:
448,192,11935,1,0,0:0:0:0:
64,192,12166,1,0,0:0:0:0:
320,192,12166,1,0,0:0:0:0:
448,192,12166,1,0,0:0:0:0:
64,192,12396,1,0,0:0:0:0:
192,192,12396,1,0,0:0:0:0:
448,192,12396,1,0,0:0:0:0:
64,192,12627,1,0,0:0:0:0:
320,192,12627,1,0,0:0:0:0:
448,192,12627,1,0,0:0:0:0:
64,192,12858,1,0,0:0:0:0:
192,192,12858,1,0,0:0:0:0:
448,192,12858,1,0,0:0:0:0:
448,192,13089,1,0,0:0:0:0:
448,192,13204,1,0,0:0:0:0:
320,192,13319,1,0,0:0:0:0:
192,192,13550,1,0,0:0:0:0:
64,192,13896,1,0,0:0:0:0:
192,192,14127,1,0,0:0:0:0:
320,192,14358,1,0,0:0:0:0:
448,192,14589,1,0,0:0:0:0:
320,192,14704,1,0,0:0:0:0:
192,192,14819,1,0,0:0:0:0:
320,192,14935,1,0,0:0:0:0:
448,192,14935,1,0,0:0:0:0:
192,192,14992,1,0,0:0:0:0:
64,192,15050,1,0,0:0:0:0:
320,192,15108,1,0,0:0:0:0:
192,192,15166,1,0,0:0:0:0:
448,192,15166,1,0,0:0:0:0:
320,192,15223,1,0,0:0:0:0:
192,192,15281,1,0,0:0:0:0:
448,192,15339,1,0,0:0:0:0:
64,192,15396,1,0,0:0:0:0:
320,192,15396,1,0,0:0:0:0:
448,192,15454,1,0,0:0:0:0:
192,192,15512,1,0,0:0:0:0:
64,192,15569,1,0,0:0:0:0:
320,192,15627,1,0,0:0:0:0:
448,192,15627,1,0,0:0:0:0:
192,192,15685,1,0,0:0:0:0:
320,192,15742,1,0,0:0:0:0:
448,192,15742,1,0,0:0:0:0:
192,192,15800,1,0,0:0:0:0:
64,192,15858,1,0,0:0:0:0:
448,192,15916,1,0,0:0:0:0:
320,192,15916,1,0,0:0:0:0:
64,192,15973,1,0,0:0:0:0:
448,192,16031,1,0,0:0:0:0:
192,192,16089,1,0,0:0:0:0:
320,192,16089,1,0,0:0:0:0:
448,192,16146,1,0,0:0:0:0:
64,192,16204,1,0,0:0:0:0:
320,192,16262,1,0,0:0:0:0:
192,192,16319,1,0,0:0:0:0:
64,192,16377,1,0,0:0:0:0:
448,192,16435,1,0,0:0:0:0:
64,192,16492,1,0,0:0:0:0:
192,192,16550,1,0,0:0:0:0:
320,192,16550,1,0,0:0:0:0:
448,192,16608,1,0,0:0:0:0:
192,192,16666,1,0,0:0:0:0:
320,192,16723,1,0,0:0:0:0:
64,192,16781,1,0,0:0:0:0:
320,192,16839,1,0,0:0:0:0:
448,192,16896,1,0,0:0:0:0:
320,192,16954,1,0,0:0:0:0:
64,192,17012,1,0,0:0:0:0:
192,192,17012,1,0,0:0:0:0:
320,192,17069,1,0,0:0:0:0:
192,192,17127,1,0,0:0:0:0:
448,192,17127,1,0,0:0:0:0:
64,192,17185,1,0,0:0:0:0:
192,192,17242,1,0,0:0:0:0:
448,192,17300,1,0,0:0:0:0:
320,192,17358,1,0,0:0:0:0:
448,192,17416,1,0,0:0:0:0:
64,192,17473,1,0,0:0:0:0:
192,192,17473,1,0,0:0:0:0:
320,192,17531,1,0,0:0:0:0:
448,192,17589,1,0,0:0:0:0:
64,192,17646,1,0,0:0:0:0:
192,192,17704,1,0,0:0:0:0:
448,192,17762,1,0,0:0:0:0:
320,192,17819,1,0,0:0:0:0:
448,192,17877,1,0,0:0:0:0:
64,192,17935,1,0,0:0:0:0:
192,192,17935,1,0,0:0:0:0:
320,192,17992,1,0,0:0:0:0:
192,192,18050,1,0,0:0:0:0:
64,192,18108,1,0,0:0:0:0:
448,192,18108,1,0,0:0:0:0:
320,192,18166,1,0,0:0:0:0:
192,192,18223,1,0,0:0:0:0:
320,192,18281,1,0,0:0:0:0:
448,192,18339,1,0,0:0:0:0:
192,192,18396,1,0,0:0:0:0:
64,192,18396,1,0,0:0:0:0:
320,192,18454,1,0,0:0:0:0:
448,192,18512,1,0,0:0:0:0:
64,192,18569,1,0,0:0:0:0:
192,192,18627,1,0,0:0:0:0:
320,192,18685,1,0,0:0:0:0:
64,192,18742,1,0,0:0:0:0:
192,192,18800,1,0,0:0:0:0:
320,192,18858,1,0,0:0:0:0:
448,192,18858,1,0,0:0:0:0:
192,192,18916,1,0,0:0:0:0:
320,192,18973,1,0,0:0:0:0:
64,192,18973,1,0,0:0:0:0:
448,192,19031,1,0,0:0:0:0:
192,192,19089,1,0,0:0:0:0:
320,192,19146,1,0,0:0:0:0:
64,192,19204,1,0,0:0:0:0:
192,192,19262,1,0,0:0:0:0:
320,192,19319,1,0,0:0:0:0:
448,192,19319,1,0,0:0:0:0:
192,192,19377,1,0,0:0:0:0:
64,192,19435,1,0,0:0:0:0:
320,192,19492,1,0,0:0:0:0:
192,192,19550,1,0,0:0:0:0:
448,192,19608,1,0,0:0:0:0:
64,192,19666,1,0,0:0:0:0:
192,192,19723,1,0,0:0:0:0:
320,192,19781,1,0,0:0:0:0:
448,192,19781,1,0,0:0:0:0:
192,192,19839,1,0,0:0:0:0:
64,192,19896,1,0,0:0:0:0:
448,192,19954,1,0,0:0:0:0:
320,192,20012,1,0,0:0:0:0:
64,192,20069,1,0,0:0:0:0:
192,192,20127,1,0,0:0:0:0:
64,192,20185,1,0,0:0:0:0:
320,192,20242,1,0,0:0:0:0:
448,192,20242,1,0,0:0:0:0:
192,192,20300,1,0,0:0:0:0:
320,192,20358,1,0,0:0:0:0:
192,192,20416,1,0,0:0:0:0:
448,192,20473,1,0,0:0:0:0:
64,192,20473,1,0,0:0:0:0:
320,192,20531,1,0,0:0:0:0:
192,192,20589,1,0,0:0:0:0:
448,192,20646,1,0,0:0:0:0:
64,192,20704,1,0,0:0:0:0:
320,192,20704,1,0,0:0:0:0:
192,192,20762,1,0,0:0:0:0:
320,192,20819,1,0,0:0:0:0:
448,192,20877,1,0,0:0:0:0:
64,192,20877,1,0,0:0:0:0:
192,192,20935,1,0,0:0:0:0:
320,192,20992,1,0,0:0:0:0:
64,192,21050,1,0,0:0:0:0:
192,192,21108,1,0,0:0:0:0:
64,192,21166,1,0,0:0:0:0:
320,192,21166,1,0,0:0:0:0:
448,192,21223,1,0,0:0:0:0:
192,192,21281,1,0,0:0:0:0:
448,192,21339,1,0,0:0:0:0:
64,192,21339,1,0,0:0:0:0:
320,192,21396,1,0,0:0:0:0:
192,192,21454,1,0,0:0:0:0:
64,192,21512,1,0,0:0:0:0:
320,192,21512,1,0,0:0:0:0:
448,192,21569,1,0,0:0:0:0:
320,192,21627,1,0,0:0:0:0:
192,192,21685,1,0,0:0:0:0:
448,192,21685,1,0,0:0:0:0:
64,192,21742,1,0,0:0:0:0:
320,192,21742,1,0,0:0:0:0:
192,192,21800,1,0,0:0:0:0:
64,192,21858,1,0,0:0:0:0:
192,192,21916,1,0,0:0:0:0:
320,192,21973,1,0,0:0:0:0:
448,192,22031,1,0,0:0:0:0:
320,192,22089,1,0,0:0:0:0:
192,192,22146,1,0,0:0:0:0:
448,192,22146,1,0,0:0:0:0:
64,192,22204,1,0,0:0:0:0:
320,192,22204,1,0,0:0:0:0:
192,192,22262,1,0,0:0:0:0:
320,192,22319,1,0,0:0:0:0:
448,192,22319,1,0,0:0:0:0:
192,192,22377,1,0,0:0:0:0:
64,192,22435,1,0,0:0:0:0:
320,192,22492,1,0,0:0:0:0:
192,192,22550,1,0,0:0:0:0:
448,192,22550,1,0,0:0:0:0:
320,192,22608,1,0,0:0:0:0:
192,192,22666,1,0,0:0:0:0:
448,192,22723,1,0,0:0:0:0:
64,192,22781,1,0,0:0:0:0:
320,192,22781,1,0,0:0:0:0:
448,192,22839,1,0,0:0:0:0:
192,192,22896,1,0,0:0:0:0:
64,192,22954,1,0,0:0:0:0:
320,192,23012,1,0,0:0:0:0:
448,192,23012,1,0,0:0:0:0:
192,192,23069,1,0,0:0:0:0:
320,192,23127,1,0,0:0:0:0:
448,192,23127,1,0,0:0:0:0:
192,192,23185,1,0,0:0:0:0:
64,192,23242,1,0,0:0:0:0:
448,192,23300,1,0,0:0:0:0:
320,192,23300,1,0,0:0:0:0:
64,192,23358,1,0,0:0:0:0:
448,192,23416,1,0,0:0:0:0:
192,192,23473,1,0,0:0:0:0:
320,192,23473,1,0,0:0:0:0:
448,192,23531,1,0,0:0:0:0:
64,192,23589,1,0,0:0:0:0:
320,192,23646,1,0,0:0:0:0:
192,192,23704,1,0,0:0:0:0:
64,192,23762,1,0,0:0:0:0:
448,192,23819,1,0,0:0:0:0:
64,192,23877,1,0,0:0:0:0:
192,192,23935,1,0,0:0:0:0:
320,192,23935,1,0,0:0:0:0:
448,192,23992,1,0,0:0:0:0:
192,192,24050,1,0,0:0:0:0:
320,192,24108,1,0,0:0:0:0:
64,192,24166,1,0,0:0:0:0:
320,192,24223,1,0,0:0:0:0:
448,192,24281,1,0,0:0:0:0:
320,192,24339,1,0,0:0:0:0:
64,192,24396,1,0,0:0:0:0:
192,192,24396,1,0,0:0:0:0:
320,192,24454,1,0,0:0:0:0:
192,192,24512,1,0,0:0:0:0:
448,192,24512,1,0,0:0:0:0:
64,192,24569,1,0,0:0:0:0:
192,192,24627,1,0,0:0:0:0:
448,192,24685,1,0,0:0:0:0:
320,192,24742,1,0,0:0:0:0:
448,192,24800,1,0,0:0:0:0:
64,192,24858,1,0,0:0:0:0:
192,192,24858,1,0,0:0:0:0:
320,192,24916,1,0,0:0:0:0:
448,192,24973,1,0,0:0:0:0:
64,192,25031,1,0,0:0:0:0:
192,192,25089,1,0,0:0:0:0:
448,192,25146,1,0,0:0:0:0:
320,192,25204,1,0,0:0:0:0:
64,192,25204,1,0,0:0:0:0:
448,192,25262,1,0,0:0:0:0:
64,192,25319,1,0,0:0:0:0:
192,192,25319,1,0,0:0:0:0:
320,192,25377,1,0,0:0:0:0:
192,192,25435,1,0,0:0:0:0:
64,192,25492,1,0,0:0:0:0:
448,192,25492,1,0,0:0:0:0:
320,192,25550,1,0,0:0:0:0:
192,192,25608,1,0,0:0:0:0:
320,192,25666,1,0,0:0:0:0:
64,192,25666,1,0,0:0:0:0:
448,192,25723,1,0,0:0:0:0:
192,192,25781,1,0,0:0:0:0:
64,192,25781,1,0,0:0:0:0:
320,192,25839,1,0,0:0:0:0:
448,192,25896,1,0,0:0:0:0:
192,192,25896,1,0,0:0:0:0:
64,192,25954,1,0,0:0:0:0:
320,192,25954,1,0,0:0:0:0:
192,192,26012,1,0,0:0:0:0:
320,192,26069,1,0,0:0:0:0:
64,192,26127,1,0,0:0:0:0:
448,192,26127,1,0,0:0:0:0:
192,192,26185,1,0,0:0:0:0:
320,192,26242,1,0,0:0:0:0:
448,192,26242,1,0,0:0:0:0:
64,192,26242,1,0,0:0:0:0:
192,192,26300,1,0,0:0:0:0:
320,192,26358,1,0,0:0:0:0:
64,192,26358,1,0,0:0:0:0:
448,192,26416,1,0,0:0:0:0:
192,192,26473,1,0,0:0:0:0:
64,192,26473,1,0,0:0:0:0:
320,192,26531,1,0,0:0:0:0:
64,192,26589,1,0,0:0:0:0:
448,192,26589,1,0,0:0:0:0:
192,192,26646,1,0,0:0:0:0:
320,192,26704,1,0,0:0:0:0:
448,192,26704,1,0,0:0:0:0:
64,192,26704,1,0,0:0:0:0:
192,192,26762,1,0,0:0:0:0:
64,192,26819,1,0,0:0:0:0:
448,192,26819,1,0,0:0:0:0:
320,192,26877,1,0,0:0:0:0:
192,192,26935,1,0,0:0:0:0:
448,192,26992,1,0,0:0:0:0:
64,192,27050,1,0,0:0:0:0:
320,192,27050,1,0,0:0:0:0:
192,192,27108,1,0,0:0:0:0:
448,192,27166,1,0,0:0:0:0:
192,192,27223,1,0,0:0:0:0:
320,192,27223,1,0,0:0:0:0:
64,192,27281,1,0,0:0:0:0:
448,192,27339,1,0,0:0:0:0:
192,192,27339,1,0,0:0:0:0:
320,192,27396,1,0,0:0:0:0:
64,192,27454,1,0,0:0:0:0:
448,192,27454,1,0,0:0:0:0:
192,192,27512,1,0,0:0:0:0:
320,192,27512,1,0,0:0:0:0:
64,192,27569,1,0,0:0:0:0:
320,192,27627,1,0,0:0:0:0:
448,192,27627,1,0,0:0:0:0:
192,192,27685,1,0,0:0:0:0:
320,192,27742,1,0,0:0:0:0:
64,192,27742,1,0,0:0:0:0:
192,192,27800,1,0,0:0:0:0:
448,192,27858,1,0,0:0:0:0:
64,192,27858,1,0,0:0:0:0:
320,192,27916,1,0,0:0:0:0:
192,192,27973,1,0,0:0:0:0:
64,192,27973,1,0,0:0:0:0:
448,192,28031,1,0,0:0:0:0:
64,192,28089,1,0,0:0:0:0:
320,192,28089,1,0,0:0:0:0:
192,192,28146,1,0,0:0:0:0:
320,192,28204,1,0,0:0:0:0:
448,192,28262,1,0,0:0:0:0:
64,192,28262,1,0,0:0:0:0:
192,192,28319,1,0,0:0:0:0:
448,192,28377,1,0,0:0:0:0:
64,192,28435,1,0,0:0:0:0:
320,192,28435,1,0,0:0:0:0:
192,192,28492,1,0,0:0:0:0:
448,192,28492,1,0,0:0:0:0:
64,192,28550,1,0,0:0:0:0:
320,192,28550,1,0,0:0:0:0:
448,192,28608,1,0,0:0:0:0:
192,192,28666,1,0,0:0:0:0:
448,192,28723,1,0,0:0:0:0:
64,192,28723,1,0,0:0:0:0:
320,192,28781,1,0,0:0:0:0:
192,192,28839,1,0,0:0:0:0:
448,192,28839,1,0,0:0:0:0:
64,192,28896,1,0,0:0:0:0:
320,192,28896,1,0,0:0:0:0:
448,192,28954,1,0,0:0:0:0:
192,192,28954,1,0,0:0:0:0:
320,192,29012,1,0,0:0:0:0:
192,192,29069,1,0,0:0:0:0:
448,192,29069,1,0,0:0:0:0:
64,192,29127,1,0,0:0:0:0:
320,192,29127,1,0,0:0:0:0:
192,192,29185,1,0,0:0:0:0:
448,192,29185,1,0,0:0:0:0:
64,192,29242,1,0,0:0:0:0:
320,192,29242,1,0,0:0:0:0:
192,192,29300,1,0,0:0:0:0:
448,192,29300,1,0,0:0:0:0:
320,192,29358,1,0,0:0:0:0:
64,192,29358,1,0,0:0:0:0:
448,192,29416,1,0,0:0:0:0:
192,192,29416,1,0,0:0:0:0:
320,192,29473,1,0,0:0:0:0:
64,192,29473,1,0,0:0:0:0:
192,192,29531,1,0,0:0:0:0:
448,192,29531,1,0,0:0:0:0:
64,192,29589,1,0,0:0:0:0:
320,192,29589,1,0,0:0:0:0:
192,192,29646,1,0,0:0:0:0:
448,192,29646,1,0,0:0:0:0:
448,192,31089,128,0,31319:0:0:0:0:
192,192,31319,128,0,32012:0:0:0:0:
64,192,31319,128,0,31550:0:0:0:0:
448,192,31550,128,0,31781:0:0:0:0:
320,192,31781,128,0,32012:0:0:0:0:
64,192,32012,128,0,32473:0:0:0:0:
448,192,32012,128,0,32242:0:0:0:0:
320,192,32242,128,0,32473:0:0:0:0:
192,192,32473,128,0,32704:0:0:0:0:
448,192,32473,128,0,32704:0:0:0:0:
320,192,32704,128,0,32935:0:0:0:0:
64,192,32704,128,0,32935:0:0:0:0:
448,192,32935,128,0,33166:0:0:0:0:
192,192,33166,128,0,33627:0:0:0:0:
320,192,33166,128,0,33396:0:0:0:0:
448,192,33396,128,0,33627:0:0:0:0:
64,192,33627,128,0,33858:0:0:0:0:
320,192,33627,128,0,33858:0:0:0:0:
192,192,33858,128,0,34089:0:0:0:0:
448,192,33858,128,0,34089:0:0:0:0:
320,192,34089,128,0,34319:0:0:0:0:
64,192,34089,128,0,34319:0:0:0:0:
448,192,34319,128,0,34550:0:0:0:0:
192,192,34550,128,0,35012:0:0:0:0:
64,192,34550,128,0,34781:0:0:0:0:
448,192,34781,128,0,35012:0:0:0:0:
320,192,35012,128,0,35242:0:0:0:0:
64,192,35012,128,0,35242:0:0:0:0:
320,192,35935,1,0,0:0:0:0:
448,192,35935,1,0,0:0:0:0:
192,192,35992,1,0,0:0:0:0:
320,192,35992,1,0,0:0:0:0:
64,192,36050,1,0,0:0:0:0:
192,192,36050,1,0,0:0:0:0:
448,192,36050,128,0,36396:0:0:0:0:
