osu file format v14

[General]
AudioFilename: audio.mp3
AudioLeadIn: 0
PreviewTime: 67578
Countdown: 0
SampleSet: Normal
StackLeniency: 0.7
Mode: 1
LetterboxInBreaks: 0
WidescreenStoryboard: 0

[Editor]
Bookmarks: 14613,67578,94061,120544,133785,145902,167844
DistanceSpacing: 0.8
BeatDivisor: 4
GridSize: 16
TimelineZoom: 3.559999

[Metadata]
Title:WTFRN
TitleUnicode:WTFRN
Artist:klink
ArtistUnicode:klink
Creator:Ulqui
Version:hate
Source:
Tags:dubstep bass hardcore electro rap tyler the creator
BeatmapID:1909360
BeatmapSetID:914131

[Difficulty]
HPDrainRate:10
CircleSize:2
OverallDifficulty:0
ApproachRate:0
SliderMultiplier:1.4
SliderTickRate:1

[Events]
//Background and Video events
0,0,"Konachan.com - 262742 sample.jpg",0,0
//Break Periods
//Storyboard Layer 0 (Background)
//Storyboard Layer 1 (Fail)
//Storyboard Layer 2 (Pass)
//Storyboard Layer 3 (Foreground)
//Storyboard Layer 4 (Overlay)
//Storyboard Sound Samples

[TimingPoints]
14613,413.793103448276,4,1,0,60,1,0
14613,-25,4,1,0,60,0,0
15026,-200,4,1,0,60,0,0
21233,-25,4,1,0,60,0,0
21647,-200,4,1,0,60,0,0
27854,-25,4,1,0,60,0,0
28268,-200,4,1,0,60,0,0
34475,-25,4,1,0,60,0,0
34888,-200,4,1,0,60,0,0
40984,-25,4,1,0,60,0,0
41398,-200,4,1,0,30,0,0
67578,-40,4,1,0,100,0,0
72337,-66.6666666666667,4,1,0,100,0,0
74199,-40,4,1,0,100,0,0
77509,-66.6666666666667,4,1,0,100,0,0
80819,-40,4,1,0,100,0,0
92406,-66.6666666666667,4,1,0,100,0,0
94061,-33.3333333333333,4,1,0,100,0,1
94164,-41.6666666666667,4,1,0,100,0,1
95664,-38.4615384615385,4,1,0,100,0,1
96492,-35.7142857142857,4,1,0,100,0,1
97319,-33.3333333333334,4,1,0,100,0,1
98147,-31.25,4,1,0,100,0,1
98975,-29.4117647058823,4,1,0,100,0,1
99802,-27.7777777777778,4,1,0,100,0,1
100681,-25,4,1,0,100,0,1
101095,-50,4,1,0,100,0,1
101147,-41.6666666666667,4,1,0,100,0,1
102285,-38.4615384615385,4,1,0,100,0,1
103113,-35.7142857142857,4,1,0,100,0,1
103940,-33.3333333333334,4,1,0,100,0,1
104768,-31.25,4,1,0,100,0,1
105596,-29.4117647058823,4,1,0,100,0,1
106423,-27.7777777777778,4,1,0,100,0,1
106475,-25,4,1,0,100,0,0
107302,-66.6666666666667,4,1,0,100,0,0
108130,-50,4,1,0,100,0,1
108544,-50,4,1,0,100,0,1
108750,-66.6666666666667,4,1,0,100,0,1
108854,-25,4,1,0,100,0,1
109371,-66.6666666666667,4,1,0,100,0,1
109423,-25,4,1,0,100,0,1
109992,-66.6666666666667,4,1,0,100,0,1
110044,-25,4,1,0,100,0,1
110613,-66.6666666666667,4,1,0,100,0,1
110664,-25,4,1,0,100,0,1
111233,-66.6666666666667,4,1,0,100,0,1
111285,-25,4,1,0,100,0,1
112061,-66.6666666666667,4,1,0,100,0,1
112113,-25,4,1,0,100,0,1
112681,-66.6666666666667,4,1,0,100,0,1
112733,-25,4,1,0,100,0,1
113923,-50,4,1,0,100,0,1
115371,-66.6666666666667,4,1,0,100,0,1
115423,-25,4,1,0,100,0,1
115992,-66.6666666666667,4,1,0,100,0,1
116044,-25,4,1,0,100,0,1
117233,-66.6666666666667,4,1,0,100,0,1
117285,-25,4,1,0,100,0,1
117854,-66.6666666666667,4,1,0,100,0,1
117906,-25,4,1,0,100,0,1
118681,-66.6666666666667,4,1,0,100,0,1
118733,-25,4,1,0,100,0,1
119302,-66.6666666666667,4,1,0,100,0,1
119354,-25,4,1,0,100,0,1
119716,-66.6666666666667,4,1,0,100,0,0
120544,-40,4,1,0,100,0,0
120750,-100,4,1,0,100,0,0
121113,-40,4,1,0,100,0,0
121526,-100,4,1,0,100,0,0
121733,-40,4,1,0,100,0,0
121940,-100,4,1,0,100,0,0
122561,-40,4,1,0,100,0,0
122768,-100,4,1,0,100,0,0
122975,-40,4,1,0,100,0,0
123181,-100,4,1,0,100,0,0
123595,-40,4,1,0,100,0,0
123957,-100,4,1,0,100,0,0
124216,-40,4,1,0,100,0,0
124423,-100,4,1,0,100,0,0
124630,-40,4,1,0,100,0,0
124837,-100,4,1,0,100,0,0
125044,-40,4,1,0,100,0,0
125250,-100,4,1,0,100,0,0
125871,-40,4,1,0,100,0,0
126078,-100,4,1,0,100,0,0
126285,-40,4,1,0,100,0,0
126492,-100,4,1,0,100,0,0
126647,-100,4,1,0,100,0,0
127113,-40,4,1,0,100,0,0
127268,-100,4,1,0,100,0,0
127733,-40,4,1,0,100,0,0
128095,-100,4,1,0,100,0,0
128354,-40,4,1,0,100,0,0
128561,-100,4,1,0,100,0,0
129181,-40,4,1,0,100,0,0
129388,-100,4,1,0,100,0,0
129595,-40,4,1,0,100,0,0
129802,-100,4,1,0,100,0,0
130216,-40,4,1,0,100,0,0
130630,-100,4,1,0,100,0,0
130837,-40,4,1,0,100,0,0
130992,-100,4,1,0,100,0,0
131250,-40,4,1,0,100,0,0
131457,-100,4,1,0,100,0,0
133785,413.793103448276,4,1,0,100,1,0
133785,-66.6666666666667,4,1,0,100,0,0
135440,400,4,1,0,100,1,0
135440,-66.6666666666667,4,1,0,100,0,0
137040,392.156862745098,4,1,0,100,1,0
137040,-66.6666666666667,4,1,0,100,0,0
138608,389.61038961039,4,1,0,100,1,0
138608,-66.6666666666667,4,1,0,100,0,0
140166,375,4,1,0,100,1,0
140166,-66.6666666666667,4,1,0,100,0,0
140541,-62.5,4,1,0,100,0,0
140916,-58.8235294117647,4,1,0,100,0,0
141291,-55.5555555555556,4,1,0,100,0,0
141666,363.636363636364,4,1,0,100,1,0
141666,-55.5555555555556,4,1,0,100,0,0
142029,-52.6315789473684,4,1,0,100,0,0
142393,-50,4,1,0,100,0,0
142756,-47.6190476190476,4,1,0,100,0,0
143120,352.941176470588,4,1,0,100,1,0
143120,-41.6666666666667,4,1,0,100,0,0
144531,342.857142857143,4,1,0,100,1,0
144531,-43.4782608695652,4,1,0,100,0,0
144873,-47.6190476190476,4,1,0,100,0,0
145216,-52.6315789473684,4,1,0,100,0,0
145559,-58.8235294117647,4,1,0,100,0,0
145902,342.857142857143,4,1,0,100,1,0
145902,-25,4,1,0,100,0,1
146244,-50,4,1,0,100,0,1
146587,-47.6190476190476,4,1,0,100,0,1
146930,-45.4545454545455,4,1,0,100,0,1
147273,-43.4782608695652,4,1,0,100,0,1
147616,-41.6666666666667,4,1,0,100,0,1
147959,-40,4,1,0,100,0,1
148302,-38.4615384615385,4,1,0,100,0,1
148644,-37.037037037037,4,1,0,100,0,1
148987,-35.7142857142857,4,1,0,100,0,1
149330,-34.4827586206897,4,1,0,100,0,1
149673,-33.3333333333333,4,1,0,100,0,1
150016,-32.258064516129,4,1,0,100,0,1
150187,-31.25,4,1,0,100,0,1
150359,-30.3030303030303,4,1,0,100,0,1
150530,-29.4117647058824,4,1,0,100,0,1
150702,-28.5714285714286,4,1,0,100,0,1
150873,-27.7777777777778,4,1,0,100,0,1
151044,-27.027027027027,4,1,0,100,0,1
151216,-26.3157894736842,4,1,0,100,0,1
151387,-25,4,1,0,100,0,1
151730,-50,4,1,0,100,0,1
152052,-50,4,1,0,100,0,1
152395,-47.6190476190476,4,1,0,100,0,1
152738,-45.4545454545455,4,1,0,100,0,1
153081,-43.4782608695652,4,1,0,100,0,1
153424,-41.6666666666667,4,1,0,100,0,1
153767,-40,4,1,0,100,0,1
154110,-38.4615384615385,4,1,0,100,0,1
154452,-37.037037037037,4,1,0,100,0,1
154795,-35.7142857142857,4,1,0,100,0,1
155138,-34.4827586206897,4,1,0,100,0,1
155481,-33.3333333333333,4,1,0,100,0,1
155824,-32.258064516129,4,1,0,100,0,1
156187,-25,4,1,0,100,0,1
156359,-24.390243902439,4,1,0,100,0,1
156530,-23.8095238095238,4,1,0,100,0,1
156702,-23.2558139534884,4,1,0,100,0,1
157559,-50,4,1,0,100,0,1
157902,-40,4,1,0,100,0,1
158073,-66.6666666666667,4,1,0,100,0,1
158159,-25,4,1,0,100,0,1
158587,-66.6666666666667,4,1,0,100,0,1
158673,-25,4,1,0,100,0,1
159616,-66.6666666666667,4,1,0,100,0,1
159704,-25,4,1,0,100,0,1
160130,-66.6666666666667,4,1,0,100,0,1
160178,-25,4,1,0,100,0,1
160816,-66.6666666666667,4,1,0,100,0,1
160904,-25,4,1,0,100,0,1
161330,-66.6666666666667,4,1,0,100,0,1
161414,-25,4,1,0,100,0,1
162359,-40,4,1,0,100,0,1
163559,-66.6666666666667,4,1,0,100,0,1
163648,-25,4,1,0,100,0,1
164073,-66.6666666666667,4,1,0,100,0,1
164154,-25,4,1,0,100,0,1
165102,-66.6666666666667,4,1,0,100,0,1
165224,-25,4,1,0,100,0,1
165616,-66.6666666666667,4,1,0,100,0,1
165710,-25,4,1,0,100,0,1
166302,-66.6666666666667,4,1,0,100,0,1
166375,-25,4,1,0,100,0,1
166816,-66.6666666666667,4,1,0,100,0,1
166903,-25,4,1,0,100,0,1
167159,-66.6666666666667,4,1,0,100,0,1
167844,-33.3333333333333,4,1,0,100,0,0

[HitObjects]
64,216,14613,5,4,0:0:0:0:
208,101,15026,1,0,0:0:0:0:
107,225,15440,1,8,0:0:0:0:
144,104,16061,1,0,0:0:0:0:
144,104,16475,1,8,0:0:0:0:
185,93,16681,1,0,0:0:0:0:
146,141,17095,1,8,0:0:0:0:
167,103,17923,1,0,0:0:0:0:
131,213,18750,1,8,0:0:0:0:
161,140,19371,1,8,0:0:0:0:
165,133,19785,1,8,0:0:0:0:
165,133,19992,1,0,0:0:0:0:
217,75,20199,1,0,0:0:0:0:
162,98,20406,1,8,0:0:0:0:
155,103,21233,1,4,0:0:0:0:
165,107,21647,1,0,0:0:0:0:
165,107,22061,1,8,0:0:0:0:
165,107,22681,1,8,0:0:0:0:
165,107,23095,1,8,0:0:0:0:
165,107,23302,1,0,0:0:0:0:
165,107,23716,1,8,0:0:0:0:
165,107,24544,1,0,0:0:0:0:
165,107,25371,1,8,0:0:0:0:
158,118,25992,1,8,0:0:0:0:
159,119,26406,1,8,0:0:0:0:
158,118,26613,1,0,0:0:0:0:
242,70,26819,1,0,0:0:0:0:
172,102,27026,1,8,0:0:0:0:
163,134,27854,1,4,0:0:0:0:
151,129,28268,1,0,0:0:0:0:
151,129,28681,1,8,0:0:0:0:
151,129,29302,1,8,0:0:0:0:
151,129,29716,1,8,0:0:0:0:
151,129,29923,1,0,0:0:0:0:
151,129,30337,1,8,0:0:0:0:
151,129,31164,1,0,0:0:0:0:
197,31,31371,1,0,0:0:0:0:
165,91,31578,1,0,0:0:0:0:
171,96,31992,1,8,0:0:0:0:
189,34,32613,1,8,0:0:0:0:
171,96,33026,1,8,0:0:0:0:
171,96,33233,1,0,0:0:0:0:
171,96,33440,1,0,0:0:0:0:
171,96,33647,1,8,0:0:0:0:
171,96,34475,1,4,0:0:0:0:
172,81,34888,1,0,0:0:0:0:
172,81,35302,1,8,0:0:0:0:
160,110,35716,1,0,0:0:0:0:
160,110,35923,1,8,0:0:0:0:
160,110,36337,1,8,0:0:0:0:
160,110,36544,1,0,0:0:0:0:
160,110,36957,1,8,0:0:0:0:
161,114,37785,1,0,0:0:0:0:
196,85,38199,1,8,0:0:0:0:
155,73,38613,1,8,0:0:0:0:
155,73,39026,1,8,0:0:0:0:
155,73,39233,1,0,0:0:0:0:
155,73,39647,1,8,0:0:0:0:
196,85,39854,1,0,0:0:0:0:
196,85,40061,1,0,0:0:0:0:
196,85,40268,1,8,0:0:0:0:
169,68,40475,1,0,0:0:0:0:
169,68,40681,1,8,0:0:0:0:
169,68,40785,1,8,0:0:0:0:
64,216,41095,5,4,0:0:0:0:
132,169,41923,1,8,0:0:0:0:
132,169,42544,1,0,0:0:0:0:
132,169,43164,1,0,0:0:0:0:
132,169,43578,1,8,0:0:0:0:
159,181,44406,1,0,0:0:0:0:
159,181,45233,1,8,0:0:0:0:
159,181,45854,1,0,0:0:0:0:
159,181,46475,1,0,0:0:0:0:
159,181,46888,1,8,0:0:0:0:
155,192,47716,1,0,0:0:0:0:
155,192,47923,1,8,0:0:0:0:
155,192,48544,1,0,0:0:0:0:
155,192,49164,1,0,0:0:0:0:
155,192,49578,1,8,0:0:0:0:
155,192,49785,1,0,0:0:0:0:
155,192,50199,1,8,0:0:0:0:
155,192,51026,1,0,0:0:0:0:
155,192,51854,1,8,0:0:0:0:
155,192,52475,1,0,0:0:0:0:
155,192,53095,1,0,0:0:0:0:
155,192,53509,1,8,0:0:0:0:
155,192,53716,1,0,0:0:0:0:
189,200,54337,1,0,0:0:0:0:
186,202,55164,1,8,0:0:0:0:
186,202,55371,1,8,0:0:0:0:
186,202,55785,1,0,0:0:0:0:
186,202,56406,1,0,0:0:0:0:
186,202,56819,1,8,0:0:0:0:
186,202,57026,1,8,0:0:0:0:
186,202,57647,1,0,0:0:0:0:
186,202,58475,1,8,0:0:0:0:
186,202,58681,1,8,0:0:0:0:
186,202,59095,1,0,0:0:0:0:
186,202,59509,1,8,0:0:0:0:
186,202,59716,1,0,0:0:0:0:
186,202,60130,1,8,0:0:0:0:
186,202,60337,1,8,0:0:0:0:
186,202,60957,1,0,0:0:0:0:
186,202,61785,1,8,0:0:0:0:
186,202,62406,1,0,0:0:0:0:
186,202,63026,1,0,0:0:0:0:
186,202,63440,1,8,0:0:0:0:
186,202,64268,1,0,0:0:0:0:
186,202,65095,1,8,0:0:0:0:
186,202,65716,1,0,0:0:0:0:
213,168,66130,1,8,0:0:0:0:
213,168,66337,1,0,0:0:0:0:
159,74,66544,1,0,0:0:0:0:
213,168,67371,1,8,0:0:0:0:
165,183,67578,5,0,0:0:0:0:
181,103,67630,1,0,0:0:0:0:
139,193,67681,1,0,0:0:0:0:
148,203,67733,1,0,0:0:0:0:
118,127,67785,1,8,0:0:0:0:
148,203,67888,1,0,0:0:0:0:
148,203,67992,1,8,0:0:0:0:
148,203,68095,1,0,0:0:0:0:
181,89,68199,1,0,0:0:0:0:
141,54,68250,1,8,0:0:0:0:
141,54,68302,1,0,0:0:0:0:
141,54,68354,1,0,0:0:0:0:
181,89,68406,1,8,0:0:0:0:
223,119,68613,1,0,0:0:0:0:
223,119,68819,1,8,0:0:0:0:
223,119,69026,1,0,0:0:0:0:
144,82,69078,1,0,0:0:0:0:
143,82,69130,1,0,0:0:0:0:
144,82,69181,1,0,0:0:0:0:
161,66,69233,1,8,0:0:0:0:
167,83,69337,1,0,0:0:0:0:
167,84,69388,1,0,0:0:0:0:
167,83,69440,1,0,0:0:0:0:
171,88,69544,1,8,0:0:0:0:
171,88,69647,1,0,0:0:0:0:
168,54,69699,1,0,0:0:0:0:
169,48,69750,1,8,0:0:0:0:
168,54,69802,1,8,0:0:0:0:
169,48,69854,1,0,0:0:0:0:
169,52,69957,1,0,0:0:0:0:
168,53,70061,1,8,0:0:0:0:
168,57,70268,1,0,0:0:0:0:
159,112,70475,1,8,0:0:0:0:
159,112,70681,1,0,0:0:0:0:
159,112,70888,1,0,0:0:0:0:
209,80,70940,1,0,0:0:0:0:
167,89,70992,1,0,0:0:0:0:
173,79,71044,1,0,0:0:0:0:
166,88,71095,1,8,0:0:0:0:
172,60,71199,1,0,0:0:0:0:
185,84,71250,1,0,0:0:0:0:
172,60,71302,1,8,0:0:0:0:
152,76,71354,1,0,0:0:0:0:
152,77,71406,1,8,0:0:0:0:
152,76,71457,1,8,0:0:0:0:
152,77,71509,1,0,0:0:0:0:
198,103,71613,1,0,0:0:0:0:
198,103,71716,1,8,0:0:0:0:
188,70,71819,1,8,0:0:0:0:
188,70,71923,1,0,0:0:0:0:
186,76,72337,1,8,0:0:0:0:
182,82,73164,1,0,0:0:0:0:
182,82,73268,1,8,0:0:0:0:
182,82,73371,1,8,0:0:0:0:
171,50,73578,1,8,0:0:0:0:
175,52,73630,1,0,0:0:0:0:
175,52,73681,1,0,0:0:0:0:
175,52,73733,1,0,0:0:0:0:
171,50,73785,1,8,0:0:0:0:
182,82,73992,1,0,0:0:0:0:
176,82,74199,1,0,0:0:0:0:
236,32,74250,1,0,0:0:0:0:
186,70,74302,1,8,0:0:0:0:
210,32,74354,1,0,0:0:0:0:
186,70,74406,1,8,0:0:0:0:
186,70,74457,1,8,0:0:0:0:
183,55,74509,1,0,0:0:0:0:
183,55,74613,1,8,0:0:0:0:
208,103,74664,1,8,0:0:0:0:
205,44,74716,1,8,0:0:0:0:
198,29,74768,1,8,0:0:0:0:
193,32,74819,1,0,0:0:0:0:
181,67,74923,1,0,0:0:0:0:
186,70,75026,1,8,0:0:0:0:
176,87,75233,1,0,0:0:0:0:
176,87,75440,1,8,0:0:0:0:
200,74,75647,1,0,0:0:0:0:
184,47,75699,1,0,0:0:0:0:
184,47,75750,1,8,0:0:0:0:
184,47,75802,1,8,0:0:0:0:
200,74,75854,1,0,0:0:0:0:
185,57,75957,1,0,0:0:0:0:
185,46,76009,1,0,0:0:0:0:
185,57,76061,1,8,0:0:0:0:
179,69,76164,1,8,0:0:0:0:
179,69,76268,1,0,0:0:0:0:
185,57,76319,1,0,0:0:0:0:
185,57,76371,1,8,0:0:0:0:
191,47,76423,1,8,0:0:0:0:
191,47,76475,1,0,0:0:0:0:
187,36,76526,1,0,0:0:0:0:
188,33,76578,1,0,0:0:0:0:
187,36,76630,1,0,0:0:0:0:
188,33,76681,1,8,0:0:0:0:
171,137,80819,1,0,0:0:0:0:
136,57,80871,1,0,0:0:0:0:
174,91,80923,1,0,0:0:0:0:
136,57,80975,1,0,0:0:0:0:
174,91,81026,1,8,0:0:0:0:
174,91,81078,1,8,0:0:0:0:
174,91,81130,1,8,0:0:0:0:
174,91,81181,1,8,0:0:0:0:
174,91,81233,1,0,0:0:0:0:
176,69,81337,1,8,0:0:0:0:
186,57,81388,1,8,0:0:0:0:
173,69,81440,1,0,0:0:0:0:
189,41,81544,1,0,0:0:0:0:
189,42,81647,1,8,0:0:0:0:
188,74,81750,1,8,0:0:0:0:
194,63,81854,1,0,0:0:0:0:
171,98,82061,1,8,0:0:0:0:
170,98,82268,1,0,0:0:0:0:
192,77,82319,1,8,0:0:0:0:
192,77,82371,1,8,0:0:0:0:
195,76,82423,1,8,0:0:0:0:
188,74,82475,1,0,0:0:0:0:
177,65,82578,1,8,0:0:0:0:
177,65,82681,1,0,0:0:0:0:
164,86,82785,1,8,0:0:0:0:
156,84,82837,1,8,0:0:0:0:
164,86,82888,1,0,0:0:0:0:
190,58,82992,1,8,0:0:0:0:
181,63,83044,1,0,0:0:0:0:
186,60,83095,1,8,0:0:0:0:
181,63,83147,1,8,0:0:0:0:
180,63,83199,1,0,0:0:0:0:
180,63,83250,1,0,0:0:0:0:
181,63,83302,1,8,0:0:0:0:
206,83,83406,1,8,0:0:0:0:
206,83,83509,1,0,0:0:0:0:
161,49,83716,1,8,0:0:0:0:
157,72,83923,1,8,0:0:0:0:
160,51,84026,1,8,0:0:0:0:
161,49,84130,1,0,0:0:0:0:
179,43,84181,1,0,0:0:0:0:
161,49,84233,1,0,0:0:0:0:
161,49,84285,1,0,0:0:0:0:
167,53,84337,1,8,0:0:0:0:
186,39,84440,1,0,0:0:0:0:
186,40,84492,1,0,0:0:0:0:
186,39,84544,1,8,0:0:0:0:
178,41,84647,1,0,0:0:0:0:
177,42,84699,1,0,0:0:0:0:
178,41,84750,1,0,0:0:0:0:
180,48,84854,1,0,0:0:0:0:
179,50,84957,1,8,0:0:0:0:
195,81,85164,1,0,0:0:0:0:
199,77,85371,1,8,0:0:0:0:
176,70,85578,1,0,0:0:0:0:
171,69,85630,1,8,0:0:0:0:
176,70,85681,1,8,0:0:0:0:
171,69,85733,1,8,0:0:0:0:
175,70,85785,1,0,0:0:0:0:
189,51,85888,1,0,0:0:0:0:
167,38,85940,1,0,0:0:0:0:
187,52,85992,1,8,0:0:0:0:
172,56,86095,1,0,0:0:0:0:
200,10,86147,1,0,0:0:0:0:
188,42,86199,1,8,0:0:0:0:
187,45,86250,1,0,0:0:0:0:
183,42,86302,1,8,0:0:0:0:
187,45,86354,1,8,0:0:0:0:
187,45,86406,1,0,0:0:0:0:
180,41,86509,1,0,0:0:0:0:
179,41,86613,1,8,0:0:0:0:
187,57,86923,1,0,0:0:0:0:
191,77,87026,1,8,0:0:0:0:
198,57,87337,1,8,0:0:0:0:
183,92,87440,1,0,0:0:0:0:
189,91,87492,1,0,0:0:0:0:
188,90,87544,1,0,0:0:0:0:
204,57,87595,1,0,0:0:0:0:
189,91,87647,1,8,0:0:0:0:
191,91,87750,1,8,0:0:0:0:
198,57,87854,1,0,0:0:0:0:
205,38,87906,1,8,0:0:0:0:
203,41,87957,1,0,0:0:0:0:
203,41,88009,1,0,0:0:0:0:
205,38,88061,1,8,0:0:0:0:
189,81,88164,1,0,0:0:0:0:
189,81,88268,1,8,0:0:0:0:
188,80,88319,1,0,0:0:0:0:
188,80,88371,1,8,0:0:0:0:
176,35,88423,1,8,0:0:0:0:
176,37,88475,1,0,0:0:0:0:
162,38,88578,1,8,0:0:0:0:
162,39,88681,1,0,0:0:0:0:
174,46,88733,1,0,0:0:0:0:
174,45,88785,1,8,0:0:0:0:
176,47,88837,1,8,0:0:0:0:
174,45,88888,1,0,0:0:0:0:
185,34,88992,1,8,0:0:0:0:
185,34,89095,1,0,0:0:0:0:
166,52,89147,1,8,0:0:0:0:
170,52,89199,1,8,0:0:0:0:
167,52,89250,1,8,0:0:0:0:
166,52,89302,1,0,0:0:0:0:
186,59,89354,1,0,0:0:0:0:
187,58,89406,1,8,0:0:0:0:
186,57,89509,1,0,0:0:0:0:
196,68,89561,1,8,0:0:0:0:
194,70,89613,1,0,0:0:0:0:
196,68,89664,1,0,0:0:0:0:
194,70,89716,1,8,0:0:0:0:
211,33,89768,1,8,0:0:0:0:
201,74,89819,1,0,0:0:0:0:
201,74,89923,1,8,0:0:0:0:
215,67,89975,1,8,0:0:0:0:
229,80,90026,1,0,0:0:0:0:
227,72,90078,1,8,0:0:0:0:
229,80,90130,1,0,0:0:0:0:
229,73,90181,1,0,0:0:0:0:
228,80,90233,1,8,0:0:0:0:
201,30,90337,1,0,0:0:0:0:
201,85,90388,1,0,0:0:0:0:
201,81,90440,1,8,0:0:0:0:
200,90,90492,1,0,0:0:0:0:
201,89,90544,1,8,0:0:0:0:
200,90,90595,1,8,0:0:0:0:
200,90,90647,1,0,0:0:0:0:
200,90,90699,1,0,0:0:0:0:
200,90,90750,1,8,0:0:0:0:
67,96,93233,1,0,0:0:0:0:
101,136,93337,1,8,0:0:0:0:
141,88,93647,1,8,0:0:0:0:
141,88,93750,1,0,0:0:0:0:
141,88,93854,1,8,0:0:0:0:
199,72,94061,1,4,0:0:0:0:
195,84,94268,1,0,0:0:0:0:
211,70,94449,1,8,0:0:0:0:
186,95,94475,1,8,0:0:0:0:
194,86,94785,1,0,0:0:0:0:
215,63,94863,1,8,0:0:0:0:
186,95,94888,1,8,0:0:0:0:
186,95,95095,1,8,0:0:0:0:
181,122,95121,1,0,0:0:0:0:
210,72,95276,1,8,0:0:0:0:
186,95,95302,1,8,0:0:0:0:
186,95,95509,1,0,0:0:0:0:
210,74,95638,1,0,0:0:0:0:
186,95,95716,1,8,0:0:0:0:
197,80,95742,1,8,0:0:0:0:
186,95,95923,1,8,0:0:0:0:
186,130,95949,1,0,0:0:0:0:
184,78,96130,1,8,0:0:0:0:
196,80,96156,1,8,0:0:0:0:
171,77,96337,1,0,0:0:0:0:
193,61,96466,1,0,0:0:0:0:
190,84,96544,1,8,0:0:0:0:
190,84,96569,1,8,0:0:0:0:
171,78,96750,1,8,0:0:0:0:
186,130,96776,1,0,0:0:0:0:
171,78,96957,1,8,0:0:0:0:
171,87,96983,1,8,0:0:0:0:
171,77,97164,1,0,0:0:0:0:
192,62,97294,1,0,0:0:0:0:
171,78,97371,1,8,0:0:0:0:
171,87,97397,1,8,0:0:0:0:
181,79,97578,1,8,0:0:0:0:
186,130,97604,1,0,0:0:0:0:
181,80,97785,1,8,0:0:0:0:
171,87,97811,1,8,0:0:0:0:
181,82,97992,1,0,0:0:0:0:
192,62,98121,1,0,0:0:0:0:
171,87,98199,1,8,0:0:0:0:
171,87,98225,1,8,0:0:0:0:
181,79,98406,1,8,0:0:0:0:
186,130,98431,1,0,0:0:0:0:
181,80,98612,1,8,0:0:0:0:
171,87,98638,1,8,0:0:0:0:
181,82,98819,1,0,0:0:0:0:
166,69,98949,1,0,0:0:0:0:
181,79,99026,1,8,0:0:0:0:
171,87,99052,1,8,0:0:0:0:
181,79,99233,1,8,0:0:0:0:
177,142,99259,1,0,0:0:0:0:
151,91,99440,1,8,0:0:0:0:
171,87,99466,1,8,0:0:0:0:
154,89,99647,1,0,0:0:0:0:
166,69,99776,1,0,0:0:0:0:
154,89,99854,1,8,0:0:0:0:
171,87,99880,1,8,0:0:0:0:
151,91,100061,1,8,0:0:0:0:
191,151,100087,1,0,0:0:0:0:
154,89,100268,1,8,0:0:0:0:
171,87,100294,1,8,0:0:0:0:
154,89,100475,1,0,0:0:0:0:
201,71,100681,1,4,0:0:0:0:
176,98,101095,1,12,0:0:0:0:
174,94,101406,1,0,0:0:0:0:
174,94,101509,1,8,0:0:0:0:
197,116,101535,1,8,0:0:0:0:
203,153,101716,1,8,0:0:0:0:
160,141,101742,1,0,0:0:0:0:
203,153,101923,1,8,0:0:0:0:
198,116,101949,1,8,0:0:0:0:
203,153,102130,1,0,0:0:0:0:
204,121,102259,1,0,0:0:0:0:
194,120,102337,1,8,0:0:0:0:
194,120,102363,1,8,0:0:0:0:
203,153,102544,1,8,0:0:0:0:
168,140,102569,1,0,0:0:0:0:
203,153,102750,1,8,0:0:0:0:
194,120,102776,1,8,0:0:0:0:
203,153,102957,1,0,0:0:0:0:
136,62,103087,1,0,0:0:0:0:
203,153,103164,1,8,0:0:0:0:
196,120,103190,1,8,0:0:0:0:
203,153,103371,1,8,0:0:0:0:
200,144,103397,1,0,0:0:0:0:
203,153,103578,1,8,0:0:0:0:
212,110,103604,1,8,0:0:0:0:
203,153,103785,1,0,0:0:0:0:
174,73,103914,1,0,0:0:0:0:
203,153,103992,1,8,0:0:0:0:
212,110,104018,1,8,0:0:0:0:
203,153,104199,1,8,0:0:0:0:
200,144,104225,1,0,0:0:0:0:
203,153,104406,1,8,0:0:0:0:
212,110,104431,1,8,0:0:0:0:
203,160,104613,1,0,0:0:0:0:
175,73,104742,1,0,0:0:0:0:
203,160,104819,1,8,0:0:0:0:
212,110,104845,1,8,0:0:0:0:
203,160,105026,1,8,0:0:0:0:
200,144,105052,1,0,0:0:0:0:
203,160,105233,1,8,0:0:0:0:
212,110,105259,1,8,0:0:0:0:
203,160,105440,1,0,0:0:0:0:
175,73,105569,1,0,0:0:0:0:
203,160,105647,1,8,0:0:0:0:
212,110,105673,1,8,0:0:0:0:
203,160,105854,1,8,0:0:0:0:
200,144,105880,1,0,0:0:0:0:
203,160,106061,1,8,0:0:0:0:
212,110,106087,1,8,0:0:0:0:
203,160,106268,1,0,0:0:0:0:
200,144,106397,1,0,0:0:0:0:
203,160,106475,1,8,0:0:0:0:
125,71,108130,1,8,0:0:0:0:
141,39,108337,1,0,0:0:0:0:
140,40,108544,1,8,0:0:0:0:
125,71,108647,1,8,0:0:0:0:
141,76,108750,1,4,0:0:0:0:
171,88,108854,1,8,0:0:0:0:
171,87,108957,1,8,0:0:0:0:
171,87,109061,1,8,0:0:0:0:
172,87,109164,1,8,0:0:0:0:
172,87,109268,1,8,0:0:0:0:
141,76,109371,1,4,0:0:0:0:
173,92,109475,1,8,0:0:0:0:
171,88,109578,1,8,0:0:0:0:
171,87,109681,1,8,0:0:0:0:
175,93,109785,1,8,0:0:0:0:
176,94,109888,1,8,0:0:0:0:
138,85,109992,1,4,0:0:0:0:
173,92,110095,1,8,0:0:0:0:
173,92,110199,1,8,0:0:0:0:
173,92,110302,1,8,0:0:0:0:
173,97,110406,1,8,0:0:0:0:
175,93,110509,1,8,0:0:0:0:
138,85,110613,1,4,0:0:0:0:
170,106,110716,1,8,0:0:0:0:
170,106,110819,1,8,0:0:0:0:
170,106,110923,1,8,0:0:0:0:
170,106,111026,1,8,0:0:0:0:
170,106,111130,1,8,0:0:0:0:
138,85,111233,1,4,0:0:0:0:
170,106,111337,1,8,0:0:0:0:
170,106,111440,1,8,0:0:0:0:
170,106,111544,1,8,0:0:0:0:
170,106,111647,1,8,0:0:0:0:
171,116,111750,1,8,0:0:0:0:
170,106,111854,1,8,0:0:0:0:
172,116,111957,1,8,0:0:0:0:
135,85,112061,1,4,0:0:0:0:
172,116,112164,1,8,0:0:0:0:
172,116,112268,1,8,0:0:0:0:
172,116,112371,1,8,0:0:0:0:
172,116,112475,1,8,0:0:0:0:
171,116,112578,1,8,0:0:0:0:
135,85,112681,1,4,0:0:0:0:
172,116,112785,1,8,0:0:0:0:
172,116,112888,1,8,0:0:0:0:
172,116,112992,1,8,0:0:0:0:
172,116,113095,1,8,0:0:0:0:
172,116,113199,1,8,0:0:0:0:
171,116,113302,1,8,0:0:0:0:
172,116,113406,1,8,0:0:0:0:
172,116,113509,1,8,0:0:0:0:
172,116,113613,1,8,0:0:0:0:
172,116,113716,1,8,0:0:0:0:
167,124,113819,1,8,0:0:0:0:
135,85,113923,1,4,0:0:0:0:
135,85,114130,1,4,0:0:0:0:
135,85,114337,1,4,0:0:0:0:
155,134,114750,1,8,0:0:0:0:
155,134,114957,1,0,0:0:0:0:
155,134,115164,1,8,0:0:0:0:
155,134,115268,1,8,0:0:0:0:
153,126,115371,1,4,0:0:0:0:
168,107,115475,1,8,0:0:0:0:
168,107,115578,1,8,0:0:0:0:
168,107,115681,1,8,0:0:0:0:
168,107,115785,1,8,0:0:0:0:
167,106,115888,1,8,0:0:0:0:
153,126,115992,1,4,0:0:0:0:
153,126,116095,1,8,0:0:0:0:
150,128,116199,1,8,0:0:0:0:
150,128,116302,1,8,0:0:0:0:
149,129,116406,1,8,0:0:0:0:
147,130,116509,1,8,0:0:0:0:
147,130,116613,1,8,0:0:0:0:
146,133,116716,1,8,0:0:0:0:
141,134,116819,1,8,0:0:0:0:
136,138,116923,1,8,0:0:0:0:
135,138,117026,1,8,0:0:0:0:
135,138,117130,1,8,0:0:0:0:
159,104,117233,1,4,0:0:0:0:
134,139,117337,1,8,0:0:0:0:
134,139,117440,1,8,0:0:0:0:
133,138,117544,1,8,0:0:0:0:
136,138,117647,1,8,0:0:0:0:
135,138,117750,1,8,0:0:0:0:
159,104,117854,1,4,0:0:0:0:
131,144,117957,1,8,0:0:0:0:
134,139,118061,1,8,0:0:0:0:
134,139,118164,1,8,0:0:0:0:
133,138,118268,1,8,0:0:0:0:
136,138,118371,1,8,0:0:0:0:
135,138,118475,1,8,0:0:0:0:
135,138,118578,1,8,0:0:0:0:
159,105,118681,1,4,0:0:0:0:
133,147,118785,1,8,0:0:0:0:
132,146,118888,1,8,0:0:0:0:
131,145,118992,1,8,0:0:0:0:
131,145,119095,1,8,0:0:0:0:
132,145,119199,1,8,0:0:0:0:
159,105,119302,1,4,0:0:0:0:
133,147,119406,1,8,0:0:0:0:
133,147,119509,1,8,0:0:0:0:
133,147,119613,1,8,0:0:0:0:
159,105,119716,1,0,0:0:0:0:
161,122,119819,1,0,0:0:0:0:
160,122,120130,1,8,0:0:0:0:
160,121,120233,1,0,0:0:0:0:
160,120,120337,1,8,0:0:0:0:
157,141,120544,1,4,0:0:0:0:
149,127,120750,1,0,0:0:0:0:
149,127,120957,1,8,0:0:0:0:
149,89,121164,1,4,0:0:0:0:
149,89,121371,1,12,0:0:0:0:
149,127,121578,1,0,0:0:0:0:
144,124,121785,1,4,0:0:0:0:
151,124,121992,1,0,0:0:0:0:
151,125,122199,1,0,0:0:0:0:
149,127,122406,1,0,0:0:0:0:
151,125,122613,1,4,0:0:0:0:
151,124,122819,1,0,0:0:0:0:
151,125,123026,1,12,0:0:0:0:
149,127,123233,1,0,0:0:0:0:
151,125,123440,1,0,0:0:0:0:
151,124,123647,1,4,0:0:0:0:
151,125,123854,1,4,0:0:0:0:
141,133,124061,1,0,0:0:0:0:
141,133,124268,1,4,0:0:0:0:
141,133,124475,1,0,0:0:0:0:
141,133,124681,1,12,0:0:0:0:
141,133,124888,1,0,0:0:0:0:
141,133,125095,1,4,0:0:0:0:
141,133,125302,1,0,0:0:0:0:
141,133,125509,1,0,0:0:0:0:
141,133,125716,1,0,0:0:0:0:
141,133,125923,1,4,0:0:0:0:
141,133,126130,1,0,0:0:0:0:
141,133,126337,1,12,0:0:0:0:
193,86,126544,1,0,0:0:0:0:
168,83,126750,1,8,0:0:0:0:
193,86,126957,1,0,0:0:0:0:
141,133,127164,1,4,0:0:0:0:
168,90,127371,1,0,0:0:0:0:
141,133,127578,1,0,0:0:0:0:
168,90,127785,1,4,0:0:0:0:
168,90,127992,1,12,0:0:0:0:
168,90,128199,1,0,0:0:0:0:
168,90,128406,1,4,0:0:0:0:
168,90,128613,1,0,0:0:0:0:
168,90,128819,1,0,0:0:0:0:
168,90,129026,1,0,0:0:0:0:
168,90,129233,1,4,0:0:0:0:
168,90,129440,1,0,0:0:0:0:
168,90,129647,1,12,0:0:0:0:
168,90,129854,1,0,0:0:0:0:
168,90,130061,1,0,0:0:0:0:
168,90,130268,1,4,0:0:0:0:
168,90,130475,1,4,0:0:0:0:
168,90,130681,1,0,0:0:0:0:
168,90,130888,1,4,0:0:0:0:
168,90,131095,1,0,0:0:0:0:
168,90,131302,1,12,0:0:0:0:
168,90,131509,1,0,0:0:0:0:
168,90,131716,1,0,0:0:0:0:
168,90,131923,1,0,0:0:0:0:
169,66,132130,1,0,0:0:0:0:
167,67,132337,1,0,0:0:0:0:
167,67,132544,1,0,0:0:0:0:
167,67,132750,1,0,0:0:0:0:
169,66,132957,1,0,0:0:0:0:
167,67,133233,1,8,0:0:0:0:
167,67,133509,1,8,0:0:0:0:
190,135,133785,5,4,0:0:0:0:
221,168,134612,1,8,0:0:0:0:
211,160,135440,1,8,0:0:0:0:
171,143,136240,1,8,0:0:0:0:
171,143,137040,1,8,0:0:0:0:
171,143,137824,1,8,0:0:0:0:
171,143,138608,1,8,0:0:0:0:
171,143,139387,1,8,0:0:0:0:
184,114,140166,1,8,0:0:0:0:
197,139,140541,1,8,0:0:0:0:
179,115,140916,1,8,0:0:0:0:
197,139,141291,1,8,0:0:0:0:
169,119,141666,1,8,0:0:0:0:
197,139,142029,1,8,0:0:0:0:
169,119,142393,1,8,0:0:0:0:
197,139,142756,1,8,0:0:0:0:
169,119,143120,1,8,0:0:0:0:
169,119,143296,1,8,0:0:0:0:
169,119,143472,1,8,0:0:0:0:
169,119,143825,1,8,0:0:0:0:
169,119,144178,1,8,0:0:0:0:
169,119,144531,1,8,0:0:0:0:
169,119,144873,1,8,0:0:0:0:
169,119,145216,1,8,0:0:0:0:
169,119,145559,1,8,0:0:0:0:
169,119,145902,1,4,0:0:0:0:
207,90,146244,1,8,0:0:0:0:
212,97,146266,1,8,0:0:0:0:
207,90,146416,1,8,0:0:0:0:
191,70,146437,1,0,0:0:0:0:
203,102,146587,1,8,0:0:0:0:
191,72,146609,1,8,0:0:0:0:
197,176,146759,1,8,0:0:0:0:
201,112,146780,1,0,0:0:0:0:
197,176,146930,1,8,0:0:0:0:
217,109,146952,1,8,0:0:0:0:
197,176,147102,1,8,0:0:0:0:
217,109,147123,1,0,0:0:0:0:
197,176,147273,1,8,0:0:0:0:
217,109,147294,1,8,0:0:0:0:
197,176,147445,1,8,0:0:0:0:
217,109,147466,1,0,0:0:0:0:
197,176,147616,1,8,0:0:0:0:
217,109,147637,1,8,0:0:0:0:
163,164,147787,1,8,0:0:0:0:
217,109,147809,1,0,0:0:0:0:
163,164,147959,1,8,0:0:0:0:
217,109,147980,1,8,0:0:0:0:
163,164,148130,1,8,0:0:0:0:
217,109,148152,1,0,0:0:0:0:
163,164,148302,1,8,0:0:0:0:
217,109,148323,1,8,0:0:0:0:
163,164,148473,1,8,0:0:0:0:
217,109,148494,1,0,0:0:0:0:
163,164,148644,1,8,0:0:0:0:
217,109,148666,1,8,0:0:0:0:
163,164,148816,1,8,0:0:0:0:
217,109,148837,1,0,0:0:0:0:
163,164,148987,1,8,0:0:0:0:
217,109,149009,1,8,0:0:0:0:
163,164,149159,1,8,0:0:0:0:
217,109,149180,1,0,0:0:0:0:
113,192,149330,1,8,0:0:0:0:
217,109,149352,1,8,0:0:0:0:
138,179,149502,1,8,0:0:0:0:
217,109,149523,1,0,0:0:0:0:
144,179,149673,1,8,0:0:0:0:
217,109,149694,1,8,0:0:0:0:
144,179,149844,1,8,0:0:0:0:
217,109,149866,1,0,0:0:0:0:
146,179,150016,1,8,0:0:0:0:
217,109,150037,1,8,0:0:0:0:
146,179,150187,1,8,0:0:0:0:
217,109,150209,1,0,0:0:0:0:
144,179,150359,1,8,0:0:0:0:
217,109,150380,1,8,0:0:0:0:
144,179,150530,1,8,0:0:0:0:
217,109,150552,1,0,0:0:0:0:
152,176,150702,1,8,0:0:0:0:
217,109,150723,1,8,0:0:0:0:
152,176,150873,1,8,0:0:0:0:
217,109,150894,1,0,0:0:0:0:
152,176,151044,1,8,0:0:0:0:
217,109,151066,1,8,0:0:0:0:
152,176,151216,1,8,0:0:0:0:
217,109,151237,1,0,0:0:0:0:
152,176,151387,1,4,0:0:0:0:
181,88,151730,1,12,0:0:0:0:
171,94,152073,1,8,0:0:0:0:
201,67,152094,1,8,0:0:0:0:
171,94,152244,1,8,0:0:0:0:
197,68,152266,1,0,0:0:0:0:
171,94,152416,1,8,0:0:0:0:
196,81,152437,1,8,0:0:0:0:
196,81,152587,1,8,0:0:0:0:
156,67,152609,1,0,0:0:0:0:
188,99,152759,1,8,0:0:0:0:
184,88,152780,1,8,0:0:0:0:
188,99,152930,1,8,0:0:0:0:
186,87,152952,1,0,0:0:0:0:
188,99,153102,1,8,0:0:0:0:
190,87,153123,1,8,0:0:0:0:
201,97,153273,1,8,0:0:0:0:
196,100,153294,1,0,0:0:0:0:
201,97,153444,1,8,0:0:0:0:
196,100,153466,1,8,0:0:0:0:
201,97,153616,1,8,0:0:0:0:
198,101,153637,1,0,0:0:0:0:
201,98,153787,1,8,0:0:0:0:
199,101,153809,1,8,0:0:0:0:
212,97,153959,1,8,0:0:0:0:
201,97,153980,1,0,0:0:0:0:
213,97,154130,1,8,0:0:0:0:
201,97,154152,1,8,0:0:0:0:
214,97,154302,1,8,0:0:0:0:
201,97,154323,1,0,0:0:0:0:
214,97,154473,1,8,0:0:0:0:
201,98,154494,1,8,0:0:0:0:
212,97,154644,1,8,0:0:0:0:
202,102,154666,1,0,0:0:0:0:
213,97,154816,1,8,0:0:0:0:
201,102,154837,1,8,0:0:0:0:
214,97,154987,1,8,0:0:0:0:
201,102,155009,1,0,0:0:0:0:
214,97,155159,1,8,0:0:0:0:
201,102,155180,1,8,0:0:0:0:
212,97,155330,1,8,0:0:0:0:
201,102,155352,1,0,0:0:0:0:
213,97,155502,1,8,0:0:0:0:
201,103,155523,1,8,0:0:0:0:
214,97,155673,1,8,0:0:0:0:
202,103,155694,1,0,0:0:0:0:
214,97,155844,1,8,0:0:0:0:
202,103,155866,1,8,0:0:0:0:
212,97,156016,1,8,0:0:0:0:
202,104,156037,1,0,0:0:0:0:
213,97,156187,1,8,0:0:0:0:
202,104,156209,1,8,0:0:0:0:
214,97,156359,1,8,0:0:0:0:
202,104,156380,1,0,0:0:0:0:
214,97,156530,1,8,0:0:0:0:
202,104,156552,1,8,0:0:0:0:
212,97,156702,1,8,0:0:0:0:
202,104,156723,1,0,0:0:0:0:
131,73,157559,1,8,0:0:0:0:
157,84,157730,1,0,0:0:0:0:
158,77,157902,1,8,0:0:0:0:
169,71,157923,1,8,0:0:0:0:
170,91,158073,1,4,0:0:0:0:
135,164,158244,1,8,0:0:0:0:
177,77,158266,1,8,0:0:0:0:
135,164,158416,1,8,0:0:0:0:
176,78,158437,1,8,0:0:0:0:
168,97,158587,1,4,0:0:0:0:
135,164,158759,1,8,0:0:0:0:
155,48,158780,1,8,0:0:0:0:
135,164,158930,1,8,0:0:0:0:
164,100,158952,1,8,0:0:0:0:
135,164,159102,1,8,0:0:0:0:
164,47,159123,1,8,0:0:0:0:
135,164,159273,1,8,0:0:0:0:
137,51,159294,1,8,0:0:0:0:
135,164,159444,1,8,0:0:0:0:
180,42,159466,1,8,0:0:0:0:
169,59,159616,1,4,0:0:0:0:
181,67,159787,1,8,0:0:0:0:
135,164,159809,1,8,0:0:0:0:
135,164,159959,1,8,0:0:0:0:
153,23,159980,1,8,0:0:0:0:
173,76,160130,1,4,0:0:0:0:
135,164,160302,1,8,0:0:0:0:
131,73,160323,1,8,0:0:0:0:
135,164,160473,1,8,0:0:0:0:
192,27,160494,1,8,0:0:0:0:
135,164,160644,1,8,0:0:0:0:
146,21,160666,1,8,0:0:0:0:
191,99,160816,1,4,0:0:0:0:
135,164,160987,1,8,0:0:0:0:
151,55,161009,1,8,0:0:0:0:
135,164,161159,1,8,0:0:0:0:
181,40,161180,1,8,0:0:0:0:
191,99,161330,1,4,0:0:0:0:
135,164,161502,1,8,0:0:0:0:
158,22,161523,1,8,0:0:0:0:
135,164,161673,1,8,0:0:0:0:
154,42,161694,1,8,0:0:0:0:
135,164,161844,1,8,0:0:0:0:
157,23,161866,1,8,0:0:0:0:
135,164,162016,1,8,0:0:0:0:
145,39,162037,1,8,0:0:0:0:
135,164,162187,1,8,0:0:0:0:
151,17,162209,1,8,0:0:0:0:
191,99,162359,1,4,0:0:0:0:
191,99,162530,1,4,0:0:0:0:
191,99,162702,1,4,0:0:0:0:
191,99,163044,1,8,0:0:0:0:
191,99,163387,1,8,0:0:0:0:
171,90,163409,1,8,0:0:0:0:
191,99,163559,1,4,0:0:0:0:
131,169,163730,1,8,0:0:0:0:
179,89,163752,1,8,0:0:0:0:
131,169,163902,1,8,0:0:0:0:
203,85,163923,1,8,0:0:0:0:
181,104,164073,1,4,0:0:0:0:
131,169,164244,1,8,0:0:0:0:
159,72,164266,1,8,0:0:0:0:
131,169,164416,1,8,0:0:0:0:
167,22,164437,1,8,0:0:0:0:
131,169,164587,1,8,0:0:0:0:
149,27,164609,1,8,0:0:0:0:
131,169,164759,1,8,0:0:0:0:
159,52,164780,1,8,0:0:0:0:
176,36,164930,1,8,0:0:0:0:
162,35,164952,1,8,0:0:0:0:
181,105,165102,1,4,0:0:0:0:
131,169,165273,1,8,0:0:0:0:
161,60,165294,1,8,0:0:0:0:
131,169,165444,1,8,0:0:0:0:
186,45,165466,1,8,0:0:0:0:
181,105,165616,1,4,0:0:0:0:
131,169,165787,1,8,0:0:0:0:
189,22,165809,1,8,0:0:0:0:
131,169,165959,1,8,0:0:0:0:
186,35,165980,1,8,0:0:0:0:
131,169,166130,1,8,0:0:0:0:
166,45,166152,1,8,0:0:0:0:
181,105,166302,1,4,0:0:0:0:
131,169,166473,1,8,0:0:0:0:
174,33,166494,1,8,0:0:0:0:
131,169,166644,1,8,0:0:0:0:
175,21,166666,1,8,0:0:0:0:
181,105,166816,1,4,0:0:0:0:
131,169,166987,1,8,0:0:0:0:
317,69,167009,1,8,0:0:0:0:
181,105,167159,1,0,0:0:0:0:
181,105,167502,1,8,0:0:0:0:
242,107,167730,1,8,0:0:0:0:
242,107,167844,1,4,0:0:0:0:
