osu file format v14

[General]
AudioFilename: audio.mp3
AudioLeadIn: 0
PreviewTime: 54308
Countdown: 0
SampleSet: Soft
StackLeniency: 0.2
Mode: 0
LetterboxInBreaks: 0
WidescreenStoryboard: 0

[Editor]
Bookmarks: 27622,27970,77330
DistanceSpacing: 0.5
BeatDivisor: 4
GridSize: 4
TimelineZoom: 1.6

[Metadata]
Title:Shikai Hosei - another -
TitleUnicode:視界補正 - another -
Artist:kiyono
ArtistUnicode:kiyono
Creator:Rishe
Version:Extra
Source:キミノクロノス
Tags:kiyono f9
BeatmapID:1499808
BeatmapSetID:709477

[Difficulty]
HPDrainRate:5
CircleSize:4.2
OverallDifficulty:9
ApproachRate:9.2
SliderMultiplier:1.65
SliderTickRate:1

[Events]
//Background and Video events
0,0,"3.png",0,0
//Break Periods
//Storyboard Layer 0 (Background)
//Storyboard Layer 1 (Fail)
//Storyboard Layer 2 (Pass)
//Storyboard Layer 3 (Foreground)
//Storyboard Sound Samples

[TimingPoints]
936,348.837209302326,4,2,1,45,1,0
936,-133.333333333333,4,2,1,45,0,0
6517,-105.263157894737,4,2,1,45,0,0
12098,-86.9565217391306,4,2,1,45,0,0
18029,348.837209302326,4,2,1,45,1,0
18029,-86.9565217391304,4,2,1,45,0,0
18377,-105.263157894737,4,2,2,45,0,0
23261,-95.2380952380952,4,2,2,45,0,0
27622,-153.846153846154,4,2,2,45,0,0
28145,-86.9565217391305,4,2,2,45,0,0
29191,-86.9565217391305,4,2,2,55,0,0
35122,-74.0740740740741,4,2,2,55,0,0
35645,-86.9565217391304,4,2,2,55,0,0
41401,-222.222222222222,4,2,2,55,0,0
42273,-133.333333333333,4,2,2,55,0,0
42622,-54.054054054054,4,2,1,35,0,0
42709,-54.054054054054,4,2,1,45,0,0
42796,-95.2380952380952,4,2,2,55,0,0
43145,-133.333333333333,4,2,2,55,0,0
44191,-222.222222222222,4,2,2,55,0,0
45063,-117.647058823529,4,2,2,55,0,0
46284,-95.2380952380952,4,2,2,55,0,0
52389,-95.2380952380952,4,2,1,55,0,0
52738,-95.2380952380952,4,2,1,35,0,0
52912,-95.2380952380952,4,2,1,40,0,0
53087,-95.2380952380952,4,2,1,45,0,0
53261,-95.2380952380952,4,2,1,50,0,0
53435,-95.2380952380952,4,2,1,55,0,0
53610,-95.2380952380952,4,2,1,55,0,0
55005,348.837209302326,4,2,1,55,1,0
55005,-86.9565217391304,4,2,2,65,0,1
74361,-117.647058823529,4,2,2,55,0,0
76458,-117.647058823529,4,2,1,55,0,0
77330,-117.647058823529,4,2,2,55,0,0
83086,348.837209302326,4,2,2,55,1,0
83086,-100,4,2,2,55,0,0

[Colours]
Combo1 : 128,128,255
Combo2 : 105,176,255

[HitObjects]
104,182,935,5,0,0:0:0:0:
195,233,1110,1,0,0:0:0:0:
277,93,1284,1,0,0:0:0:0:
166,22,1459,2,0,P|183:73|189:101,1,61.875002360344
54,159,1808,5,0,0:0:0:0:
54,159,1895,1,0,0:0:0:0:
54,159,1982,1,0,0:0:0:0:
184,80,2156,1,0,0:0:0:0:
265,212,2331,1,0,0:0:0:0:
135,300,2505,5,2,0:0:0:0:
381,153,2854,5,2,0:0:0:0:
217,26,3203,5,2,0:0:0:0:
217,26,3552,1,0,0:0:0:0:
217,26,3639,1,0,0:0:0:0:
217,26,3726,5,0,0:0:0:0:
377,148,3901,1,0,0:0:0:0:
135,301,4075,1,0,0:0:0:0:
217,26,4249,1,0,0:0:0:0:
258,118,4424,6,0,P|245:170|241:200,1,61.875002360344
262,212,4686,1,0,0:0:0:0:
262,212,4773,1,0,0:0:0:0:
376,147,4947,1,0,0:0:0:0:
345,298,5122,1,0,0:0:0:0:
456,216,5296,6,0,P|446:258|442:301,1,61.875002360344
235,163,5645,2,0,P|266:174|319:189,1,61.875002360344
346,314,5994,1,0,0:0:0:0:
346,314,6081,1,0,0:0:0:0:
346,314,6168,2,0,P|315:303|262:288,1,61.875002360344
155,270,6517,6,0,P|176:332|187:372,1,78.3749979071618
149,371,6779,1,0,0:0:0:0:
149,371,6866,1,0,0:0:0:0:
52,270,7040,2,0,P|64:241|73:218,1,39.1874989535809,2|0,0:3|0:0,0:0:0:0:
19,141,7215,2,0,P|49:131|81:120,1,39.1874989535809
220,67,7389,1,0,0:0:0:0:
220,67,7476,1,0,0:0:0:0:
220,67,7563,2,0,P|202:124|200:134,1,39.1874989535809,2|0,0:3|0:0,0:0:0:0:
179,216,7738,1,0,0:0:0:0:
179,216,7825,1,0,0:0:0:0:
179,216,7912,6,0,L|229:201,1,39.1874989535809,0|0,0:3|0:0,0:0:0:0:
383,78,8087,2,0,P|373:103|364:131,1,39.1874989535809,2|0,0:3|0:0,0:0:0:0:
466,285,8261,2,0,L|398:263,1,39.1874989535809
300,238,8436,1,0,0:0:0:0:
300,238,8523,1,0,0:0:0:0:
300,238,8610,2,0,L|312:288,1,39.1874989535809,2|0,0:3|0:0,0:0:0:0:
238,372,8784,1,0,0:0:0:0:
238,372,8872,1,0,0:0:0:0:
238,372,8959,2,0,L|224:323,1,39.1874989535809,2|0,0:3|0:0,0:0:0:0:
108,143,9133,1,0,0:0:0:0:
108,143,9220,1,0,0:0:0:0:
108,143,9308,6,0,P|132:209|143:249,1,78.3749979071618,2|0,0:3|0:0,0:0:0:0:
123,250,9569,1,0,0:0:0:0:
123,250,9656,2,0,L|79:237,1,39.1874989535809
215,153,9831,2,0,P|262:165|305:175,1,78.3749979071618,2|0,0:3|0:0,0:0:0:0:
429,105,10180,1,0,0:0:0:0:
429,105,10267,1,0,0:0:0:0:
429,105,10354,2,0,P|415:149|407:182,1,78.3749979071618,2|0,0:3|0:0,0:0:0:0:
486,289,10703,1,0,0:3:0:0:
265,239,10877,6,0,P|283:258|304:274,1,39.1874989535809,2|0,0:3|0:0,0:0:0:0:
192,201,11052,6,0,P|184:226|181:252,1,39.1874989535809
187,118,11226,6,0,P|161:124|137:134,1,39.1874989535809
257,72,11401,6,0,P|239:52|177:38,1,78.3749979071618
257,72,11662,1,0,0:0:0:0:
255,72,11749,2,0,P|273:52|335:38,1,78.3749979071618,4|0,0:0|0:0,0:0:0:0:
476,164,12098,6,0,B|329:121|329:121|356:165,1,189.750003619194,4|8,0:0|0:0,0:0:0:0:
426,237,12622,6,0,B|453:265|453:265|344:233|344:233|388:222,1,189.750003619194,8|0,0:0|0:0,0:0:0:0:
348,152,13145,6,0,B|305:162|305:162|337:98|337:98|309:16,1,189.750003619194,8|0,0:0|0:0,0:0:0:0:
203,23,13668,5,8,0:3:0:0:
239,130,13842,1,8,0:3:0:0:
91,72,14017,5,4,0:3:0:0:
91,72,14104,1,4,0:3:0:0:
91,72,14191,2,0,P|119:91|143:101,1,47.4375009047985,8|0,0:0|0:0,0:0:0:0:
144,181,14366,5,0,0:0:0:0:
144,181,14453,1,0,0:0:0:0:
144,181,14540,2,0,P|174:166|195:150,1,47.4375009047985,8|0,0:0|0:0,0:0:0:0:
285,37,14715,2,0,L|273:87,1,47.4375009047985
371,354,14889,6,0,P|385:281|412:153,1,189.750003619194,4|0,0:0|0:0,0:0:0:0:
473,233,15412,6,0,P|407:260|311:178,1,189.750003619194,8|0,0:0|0:0,0:0:0:0:
82,230,15936,6,0,P|148:203|244:285,1,189.750003619194,8|0,0:0|0:0,0:0:0:0:
154,309,16459,1,0,0:0:0:0:
154,309,16546,1,0,0:0:0:0:
154,309,16633,2,0,P|182:320|201:329,1,47.4375009047985
326,206,16808,6,0,P|273:186|227:168,1,94.8750018095971,8|0,0:0|0:0,0:0:0:0:
197,49,17156,1,2,0:0:0:0:
237,172,17331,1,2,0:0:0:0:
75,94,17505,5,2,0:0:0:0:
113,220,17680,1,2,0:0:0:0:
113,220,18029,6,0,P|163:260|151:346,1,142.312502714396
57,256,18377,6,0,P|69:215|83:156,1,78.3749979071618,8|0,0:0|0:0,0:0:0:0:
17,102,18726,2,0,P|81:85|116:74,1,78.3749979071618
186,21,19075,5,8,0:0:0:0:
260,129,19249,1,0,0:0:0:0:
260,129,19337,1,8,0:0:0:0:
260,129,19424,2,0,P|229:140|206:148,1,39.1874989535809
307,270,19598,1,2,0:0:0:0:
137,257,19773,2,0,P|203:233|242:220,1,78.3749979071618,8|0,0:0|0:0,0:0:0:0:
214,184,20034,1,0,0:0:0:0:
214,184,20122,5,0,0:0:0:0:
59,119,20296,1,2,0:0:0:0:
162,25,20470,2,0,P|149:80|144:115,1,78.3749979071618,8|0,0:0|0:0,0:0:0:0:
306,169,20819,6,0,P|351:149|405:129,1,78.3749979071618,2|0,0:0|0:0,0:0:0:0:
301,289,21168,2,0,P|264:274|228:258,1,78.3749979071618,8|2,0:0|0:0,0:0:0:0:
89,176,21517,2,0,P|109:249|129:346,1,156.749995814324,0|8,0:0|0:0,0:0:0:0:
226,193,22040,5,0,0:0:0:0:
226,193,22127,1,8,0:0:0:0:
226,193,22215,2,0,P|214:150|211:137,1,39.1874989535809,2|0,0:0|0:0,0:0:0:0:
304,61,22389,1,2,0:0:0:0:
400,219,22563,2,0,L|311:198,1,78.3749979071618,8|0,0:0|0:0,0:0:0:0:
161,165,22912,5,0,0:0:0:0:
210,321,23087,1,2,0:0:0:0:
314,94,23261,6,0,P|304:132|299:163,1,43.3124986782074,8|0,0:0|0:0,0:0:0:0:
386,306,23436,1,0,0:0:0:0:
386,306,23523,1,8,0:0:0:0:
386,306,23610,2,0,P|338:287|290:271,1,86.6249973564149,4|0,0:0|0:0,0:0:0:0:
171,204,23959,1,8,0:0:0:0:
304,134,24133,1,0,0:0:0:0:
191,39,24308,2,0,P|212:101|222:136,1,86.6249973564149
303,5,24656,6,0,P|293:43|288:74,1,43.3124986782074,8|0,0:0|0:0,0:0:0:0:
444,148,24831,1,0,0:0:0:0:
444,148,24918,1,8,0:0:0:0:
444,148,25005,2,0,P|388:169|344:189,1,86.6249973564149,10|2,0:0|0:0,0:0:0:0:
242,159,25354,1,8,0:0:0:0:
311,296,25529,1,0,0:0:0:0:
160,265,25703,2,0,P|182:319|200:366,1,86.6249973564149
59,186,26052,6,0,P|111:221|186:207,1,129.937496034622,8|0,0:0|0:0,0:0:0:0:
248,138,26401,6,0,L|143:114,1,86.6249973564149,6|0,0:0|0:0,0:0:0:0:
309,41,26749,1,8,0:0:0:0:
359,222,26924,1,2,0:0:0:0:
359,222,27011,1,2,0:0:0:0:
359,222,27098,1,2,0:0:0:0:
408,85,27273,5,2,0:0:0:0:
468,270,27447,1,8,0:0:0:0:
252,152,27622,6,0,P|270:216|282:267,1,107.249995090485,2|0,0:0|0:0,0:0:0:0:
37,326,28145,6,0,L|90:342,1,47.4375009047985,2|0,0:0|0:0,0:0:0:0:
205,288,28319,1,4,0:3:0:0:
205,288,28406,1,4,0:3:0:0:
205,288,28494,2,0,L|151:268,1,47.4375009047985,2|0,0:3|0:0,0:0:0:0:
56,161,28668,2,0,L|135:191,1,47.4375009047985,2|0,0:3|0:0,0:0:0:0:
221,58,28842,2,0,P|207:92|200:115,1,47.4375009047985,6|0,0:3|0:0,0:0:0:0:
313,277,29017,5,0,0:0:0:0:
313,277,29104,1,8,0:0:0:0:
313,277,29191,2,0,P|325:229|342:177,1,94.8750018095971,4|0,0:0|0:0,0:0:0:0:
488,102,29540,2,0,P|443:90|385:72,1,94.8750018095971,8|0,0:0|0:0,0:0:0:0:
282,31,29889,1,2,0:0:0:0:
228,167,30063,1,0,0:0:0:0:
371,163,30238,5,8,0:0:0:0:
183,86,30412,1,0,0:0:0:0:
183,86,30499,1,0,0:0:0:0:
183,86,30587,1,2,0:0:0:0:
270,287,30761,1,0,0:0:0:0:
61,246,30935,2,0,P|106:231|149:213,1,94.8750018095971,8|0,0:0|0:0,0:0:0:0:
181,241,31197,1,0,0:0:0:0:
181,241,31284,6,0,L|169:296,1,47.4375009047985,8|0,0:0|0:0,0:0:0:0:
320,169,31459,2,0,P|285:182|262:195,1,47.4375009047985,2|0,0:0|0:0,0:0:0:0:
84,130,31633,2,0,P|119:117|142:104,1,47.4375009047985,8|0,0:0|0:0,0:0:0:0:
245,31,31808,2,0,L|233:86,1,47.4375009047985
36,218,31982,5,4,0:0:0:0:
198,357,32331,6,0,P|177:280|157:231,1,94.8750018095971,8|0,0:0|0:0,0:0:0:0:
307,176,32680,2,0,P|240:161|207:152,1,94.8750018095971
68,234,33029,1,8,0:0:0:0:
95,58,33203,1,0,0:0:0:0:
95,58,33290,1,0,0:0:0:0:
95,58,33377,6,0,P|113:113|123:152,1,94.8750018095971,0|2,0:0|0:0,0:0:0:0:
46,239,33726,1,8,0:0:0:0:
266,324,33901,1,0,0:0:0:0:
266,324,33988,1,0,0:0:0:0:
266,324,34075,2,0,P|213:340|151:361,1,94.8750018095971,8|2,0:0|0:0,0:0:0:0:
43,239,34424,1,8,0:0:0:0:
230,131,34598,1,0,0:0:0:0:
230,131,34685,1,0,0:0:0:0:
230,131,34773,6,0,P|206:212|186:289,1,142.312502714396,12|0,0:0|0:0,0:0:0:0:
275,261,35122,6,0,P|249:209|112:244,1,222.750000849724,8|0,0:0|0:0,0:0:0:0:
239,365,35645,1,0,0:0:0:0:
308,191,35819,2,0,P|322:264|331:300,1,94.8750018095971,8|0,0:0|0:0,0:0:0:0:
298,309,36081,1,0,0:0:0:0:
298,309,36168,1,0,0:0:0:0:
152,173,36342,1,0,0:0:0:0:
197,352,36517,1,8,0:0:0:0:
44,274,36691,6,0,P|107:256|146:245,1,94.8750018095971
288,326,37040,2,0,P|225:344|186:355,1,94.8750018095971
93,316,37389,1,4,0:3:0:0:
93,316,37476,1,4,0:3:0:0:
93,316,37563,2,0,L|108:381,1,47.4375009047985,12|0,0:0|0:0,0:0:0:0:
211,219,37738,5,0,0:0:0:0:
48,160,37912,1,12,0:0:0:0:
250,105,38087,1,0,0:0:0:0:
21,167,38261,5,8,0:0:0:0:
262,239,38435,1,8,0:3:0:0:
96,61,38610,1,4,0:3:0:0:
147,338,38784,6,0,P|135:264|130:236,1,94.8750018095971,4|0,0:3|0:0,0:0:0:0:
31,164,39133,1,0,0:0:0:0:
211,82,39308,1,8,0:0:0:0:
258,362,39482,6,0,P|246:288|241:260,1,94.8750018095971,8|0,0:0|0:0,0:0:0:0:
372,378,39831,6,0,P|360:304|355:276,1,94.8750018095971,8|0,0:0|0:0,0:0:0:0:
214,142,40180,6,0,P|253:156|302:168,1,47.4375009047985,8|0,0:3|0:0,0:0:0:0:
325,93,40354,6,0,P|301:157|276:251,1,142.312502714396,4|0,0:0|0:0,0:0:0:0:
507,147,40703,6,0,P|468:133|419:121,1,47.4375009047985,4|0,0:3|0:0,0:0:0:0:
396,196,40877,6,0,P|420:132|445:38,1,142.312502714396
216,50,41226,6,0,P|255:64|304:76,1,47.4375009047985,4|0,0:3|0:0,0:0:0:0:
327,1,41401,6,0,P|303:65|274:154,1,148.49999546814,4|0,0:0|0:0,0:0:0:0:
402,298,42447,5,0,0:0:0:0:
231,188,42622,6,2,P|239:205|251:222,3,38.1562498544455
264,254,42796,6,0,L|359:231,1,86.6249973564149
447,88,43145,6,0,P|384:107|313:122,1,123.750004720688,12|0,0:0|0:0,0:0:0:0:
161,127,43668,6,0,B|159:141|135:206|135:206|143:196|167:182,1,123.750004720688,12|0,0:0|0:0,0:0:0:0:
251,97,44191,6,0,P|225:54|122:40,1,148.49999546814,12|0,0:0|0:0,0:0:0:0:
86,190,45063,2,0,P|65:134|41:75,1,105.187502006292,8|0,0:3|0:0,0:0:0:0:
34,69,45412,1,4,0:3:0:0:
161,127,45587,1,4,0:3:0:0:
101,307,45761,1,4,0:3:0:0:
249,193,45935,6,0,P|236:241|224:306,1,105.187502006292,4|0,0:0|0:0,0:0:0:0:
175,253,46284,6,0,P|188:301|198:364,1,86.6249973564149,12|0,0:0|0:0,0:0:0:0:
339,222,46633,1,2,0:0:0:0:
136,121,46808,1,2,0:0:0:0:
221,237,46982,1,8,0:0:0:0:
381,120,47156,6,0,P|325:75|248:83,1,129.937496034622
234,85,47505,1,2,0:0:0:0:
283,286,47680,1,8,0:0:0:0:
301,156,47854,1,0,0:0:0:0:
104,71,48029,6,0,P|129:149|159:249,1,173.24999471283,4|8,0:0|0:0,0:0:0:0:
87,150,48552,1,0,0:0:0:0:
277,104,48726,2,0,P|232:94|185:83,1,86.6249973564149,2|2,0:0|0:0,0:0:0:0:
287,241,49075,1,8,0:0:0:0:
389,49,49249,2,0,P|376:98|369:134,1,86.6249973564149
443,214,49598,1,0,0:0:0:0:
206,137,49773,6,0,P|269:123|344:105,1,129.937496034622,8|0,0:0|0:0,0:0:0:0:
389,49,50122,2,0,P|376:98|360:188,1,129.937496034622,4|0,0:0|0:0,0:0:0:0:
422,215,50470,2,8,P|395:198|377:187,1,43.3124986782074,8|0,0:0|0:0,0:0:0:0:
315,292,50645,6,0,P|410:264|496:242,1,173.24999471283,4|0,0:0|0:0,0:0:0:0:
297,384,51168,6,0,P|250:361|244:228,1,173.24999471283,4|0,0:0|0:0,0:0:0:0:
299,226,51691,6,0,P|243:210|184:192,1,86.6249973564149,8|0,0:0|0:0,0:0:0:0:
106,314,52040,2,0,P|162:330|221:348,1,86.6249973564149,8|0,0:0|0:0,0:0:0:0:
83,121,52389,1,6,0:0:0:0:
36,217,52738,5,2,0:0:0:0:
58,230,52825,1,2,0:0:0:0:
82,237,52912,1,2,0:0:0:0:
107,235,52999,1,2,0:0:0:0:
132,227,53087,1,2,0:0:0:0:
159,215,53174,1,2,0:0:0:0:
185,193,53261,1,2,0:0:0:0:
216,170,53348,1,2,0:0:0:0:
257,159,53435,1,2,0:0:0:0:
304,166,53523,1,2,0:0:0:0:
341,201,53610,5,2,0:0:0:0:
122,318,53958,1,2,0:0:0:0:
256,16,54133,1,2,0:0:0:0:
256,16,54482,5,2,0:0:0:0:
121,315,54656,1,2,0:0:0:0:
339,203,55005,6,0,P|289:188|282:55,1,189.750003619194,4|2,0:0|0:0,0:0:0:0:
337,118,55528,2,0,P|399:104|440:92,1,94.8750018095971,8|0,0:0|0:0,0:0:0:0:
469,28,55877,1,2,0:0:0:0:
377,275,56051,1,2,0:0:0:0:
268,86,56225,1,8,0:0:0:0:
208,237,56400,6,0,P|146:223|14:197,1,189.750003619194,0|2,0:0|0:0,0:0:0:0:
89,320,56923,1,8,0:0:0:0:
214,96,57098,1,0,0:0:0:0:
286,270,57272,1,2,0:0:0:0:
396,30,57446,5,2,0:0:0:0:
323,353,57621,1,8,0:0:0:0:
226,148,57795,1,0,0:0:0:0:
470,85,57970,6,0,P|455:158|431:289,1,189.750003619194,0|8,0:0|0:0,0:0:0:0:
247,152,58493,1,0,0:3:0:0:
247,152,58580,1,0,0:3:0:0:
247,152,58667,2,0,P|314:136|360:128,1,94.8750018095971,0|0,2:0|0:0,0:0:0:0:
452,203,59016,1,8,0:0:0:0:
262,38,59191,6,0,P|170:61|70:83,1,189.750003619194,0|4,0:0|0:3,0:0:0:0:
8,15,59714,1,0,0:0:0:0:
208,203,59888,2,0,P|115:223|77:233,1,94.8750018095971,12|0,0:0|0:0,0:0:0:0:
10,129,60237,6,0,P|21:162|26:188,1,47.4375009047985,8|0,0:0|0:0,0:0:0:0:
3,335,60411,1,8,0:0:0:0:
3,335,60499,1,0,0:0:0:0:
3,335,60586,2,8,L|69:312,1,47.4375009047985
257,160,60760,6,0,P|240:216|227:281,1,94.8750018095971,8|0,0:0|0:0,0:0:0:0:
302,345,61109,1,8,0:0:0:0:
358,137,61284,1,0,0:0:0:0:
443,296,61458,1,2,0:0:0:0:
467,65,61632,5,2,0:0:0:0:
389,340,61807,1,8,0:0:0:0:
309,180,61981,2,0,P|395:161|500:135,1,189.750003619194
252,78,62505,5,8,0:0:0:0:
470,143,62679,1,0,0:0:0:0:
203,233,62853,1,2,0:0:0:0:
493,136,63028,5,2,0:0:0:0:
308,348,63202,1,8,0:0:0:0:
212,35,63377,1,0,0:0:0:0:
390,177,63551,6,0,P|303:160|190:137,1,189.750003619194,8|0,0:0|0:0,0:0:0:0:
212,222,64074,6,0,P|269:186|229:55,1,189.750003619194,8|0,0:0|0:0,0:0:0:0:
42,270,64598,6,0,P|129:287|242:310,1,189.750003619194,12|0,0:0|0:0,0:0:0:0:
478,176,65121,5,8,0:0:0:0:
374,348,65295,1,4,0:3:0:0:
374,348,65382,1,4,0:3:0:0:
374,348,65470,2,0,P|362:317|350:295,1,47.4375009047985
190,162,65644,2,0,P|218:153|259:137,1,47.4375009047985,8|0,0:0|0:0,0:0:0:0:
491,9,65818,2,0,P|462:17|422:34,1,47.4375009047985,8|0,0:0|0:0,0:0:0:0:
348,124,66167,6,0,L|122:79,1,189.750003619194,4|0,0:0|0:0,0:0:0:0:
86,33,66691,1,8,0:0:0:0:
179,214,66865,1,0,0:0:0:0:
254,90,67039,1,2,0:0:0:0:
70,197,67214,5,2,0:0:0:0:
160,359,67388,1,8,0:0:0:0:
28,304,67563,2,0,P|48:232|79:98,1,189.750003619194
157,259,68086,6,0,P|209:242|253:228,1,94.8750018095971,8|0,0:0|0:0,0:0:0:0:
419,126,68435,1,2,0:0:0:0:
363,324,68609,1,2,0:0:0:0:
260,46,68784,6,0,P|286:113|299:152,1,94.8750018095971,8|0,0:0|0:0,0:0:0:0:
475,47,69132,2,0,P|419:34|374:23,1,94.8750018095971
214,211,69481,2,0,P|270:224|315:235,1,94.8750018095971,8|0,0:0|0:0,0:0:0:0:
409,141,69830,5,2,0:0:0:0:
304,336,70005,1,4,0:3:0:0:
200,39,70179,1,0,0:0:0:0:
98,155,70353,6,0,P|122:230|138:283,1,94.8750018095971,12|0,0:0|0:0,0:0:0:0:
63,328,70702,1,0,0:0:0:0:
240,138,70877,1,0,0:0:0:0:
331,334,71051,2,0,P|259:317|202:305,1,94.8750018095971,12|0,0:0|0:0,0:0:0:0:
31,186,71400,5,8,0:3:0:0:
150,338,71574,1,4,0:3:0:0:
261,55,71749,1,0,0:0:0:0:
261,55,71836,1,0,0:0:0:0:
261,55,71923,6,0,P|185:35|154:26,1,94.8750018095971,4|0,0:0|0:0,0:0:0:0:
250,182,72272,1,8,0:0:0:0:
385,23,72446,2,0,P|369:78|359:124,1,94.8750018095971,4|2,0:0|0:0,0:0:0:0:
425,184,72795,1,2,0:0:0:0:
462,33,72970,1,8,0:0:0:0:
268,93,73144,1,0,0:0:0:0:
431,298,73318,6,0,P|340:275|306:267,1,94.8750018095971
178,335,73667,1,8,0:0:0:0:
198,37,73842,6,2,P|228:136|251:227,1,189.750003619194,0|2,0:0|0:0,0:0:0:0:
418,88,74365,6,0,P|399:138|389:176,1,70.1250013375282,4|0,0:0|0:0,0:0:0:0:
342,50,74714,6,0,P|355:82|365:115,1,70.1250013375282
285,197,75063,1,0,0:0:0:0:
177,116,75237,6,0,P|241:132|272:140,1,70.1250013375282
342,50,75586,2,0,P|278:34|247:26,1,70.1250013375282
58,21,75935,6,0,P|83:92|105:162,1,140.250002675056
33,233,76458,1,2,0:0:0:0:
62,251,76545,1,2,0:0:0:0:
96,258,76632,1,2,0:0:0:0:
131,254,76719,1,2,0:0:0:0:
162,239,76806,1,2,0:0:0:0:
187,214,76894,1,2,0:0:0:0:
220,184,76981,1,2,0:0:0:0:
256,164,77068,1,2,0:0:0:0:
298,161,77155,1,2,0:0:0:0:
337,175,77242,1,2,0:0:0:0:
367,204,77329,5,2,0:0:0:0:
237,275,77505,1,0,0:0:0:0:
414,338,77679,1,0,0:0:0:0:
138,246,77853,5,0,0:0:0:0:
268,175,78029,1,0,0:0:0:0:
91,112,78203,1,0,0:0:0:0:
91,112,78289,1,0,0:0:0:0:
91,112,78377,1,0,0:0:0:0:
361,127,78551,5,0,0:0:0:0:
203,56,78725,1,0,0:0:0:0:
243,260,78900,5,0,0:0:0:0:
342,20,79074,1,0,0:0:0:0:
405,264,79249,5,0,0:0:0:0:
415,282,79423,1,0,0:0:0:0:
425,300,79598,1,0,0:0:0:0:
415,282,79772,1,0,0:0:0:0:
333,146,79946,1,0,0:0:0:0:
255,20,80121,5,0,0:0:0:0:
336,175,80295,1,0,0:0:0:0:
384,70,80470,1,0,0:0:0:0:
289,255,80644,5,0,0:0:0:0:
208,100,80818,1,0,0:0:0:0:
199,80,80993,1,0,0:0:0:0:
190,60,81167,1,0,0:0:0:0:
436,341,81342,5,0,0:0:0:0:
484,236,81516,1,0,0:0:0:0:
355,186,81691,1,0,0:0:0:0:
224,327,81865,5,0,0:0:0:0:
353,277,82040,1,0,0:0:0:0:
436,341,82214,5,0,0:0:0:0:
427,321,82388,1,0,0:0:0:0:
417,302,82563,1,0,0:0:0:0:
411,281,82737,2,0,L|478:256,1,70.1250013375282
327,259,83086,6,0,P|306:321|296:364,1,82.5
333,360,83347,1,0,0:0:0:0:
333,360,83434,1,0,0:0:0:0:
460,270,83609,2,0,P|448:241|439:215,1,41.25,2|0,0:3|0:0,0:0:0:0:
493,141,83784,2,0,L|463:131|427:119,1,41.25
292,67,83958,1,0,0:0:0:0:
292,67,84045,1,0,0:0:0:0:
292,67,84132,2,0,P|310:124|313:138,1,41.25,2|0,0:3|0:0,0:0:0:0:
333,216,84307,1,0,0:0:0:0:
333,216,84394,1,0,0:0:0:0:
333,216,84481,6,0,L|283:201,1,41.25,0|0,0:3|0:0,0:0:0:0:
129,78,84656,2,0,P|139:103|150:134,1,41.25,2|0,0:3|0:0,0:0:0:0:
46,285,84830,2,0,L|120:260,1,41.25
212,238,85005,1,0,0:0:0:0:
212,238,85092,1,0,0:0:0:0:
212,238,85179,2,0,L|200:289,1,41.25,2|0,0:3|0:0,0:0:0:0:
274,372,85353,1,0,0:0:0:0:
274,372,85441,1,0,0:0:0:0:
274,372,85528,2,0,L|285:319,1,41.25,2|0,0:3|0:0,0:0:0:0:
404,143,85702,1,0,0:0:0:0:
404,143,85789,1,0,0:0:0:0:
404,143,85877,6,0,P|379:211|369:249,1,82.5,2|0,0:3|0:0,0:0:0:0:
389,250,86138,1,0,0:0:0:0:
389,250,86225,2,0,L|433:237,1,39.1874989535809
297,153,86400,2,0,P|250:165|202:175,1,82.5,2|0,0:3|0:0,0:0:0:0:
83,105,86749,1,0,0:0:0:0:
83,105,86836,1,0,0:0:0:0:
83,105,86923,2,0,P|97:149|105:184,1,82.5,2|0,0:3|0:0,0:0:0:0:
26,289,87272,1,0,0:3:0:0:
247,239,87446,6,0,P|229:258|207:274,1,41.25,2|0,0:3|0:0,0:0:0:0:
320,201,87621,6,0,P|328:226|333:253,1,41.25
325,118,87795,6,0,P|351:124|377:135,1,41.25
255,72,87970,6,0,P|273:52|334:34,1,82.5
255,72,88231,1,0,0:0:0:0:
255,72,88318,6,0,P|237:52|172:34,1,82.5,4|0,0:0|0:0,0:0:0:0:
