osu file format v14

[General]
AudioFilename: audio.mp3
AudioLeadIn: 0
PreviewTime: 53850
Countdown: 0
SampleSet: Normal
StackLeniency: 0.7
Mode: 1
LetterboxInBreaks: 0
WidescreenStoryboard: 0

[Editor]
DistanceSpacing: 1.6
BeatDivisor: 4
GridSize: 32
TimelineZoom: 1.399999

[Metadata]
Title:vesna (Cut Ver.)
TitleUnicode:весна (Cut Ver.)
Artist:kis-kis
ArtistUnicode:кис-кис
Creator:Horiiizon
Version:closed's Muzukashii
Source:
Tags:russian rock друзья pop-punk alternative spring friends punk-rock female vocals closed kiskisnotdead русский
BeatmapID:2637763
BeatmapSetID:1265417

[Difficulty]
HPDrainRate:6.5
CircleSize:5
OverallDifficulty:4
ApproachRate:5
SliderMultiplier:1.4
SliderTickRate:1

[Events]
//Background and Video events
0,0,"##.jpg",0,-15
//Break Periods
//Storyboard Layer 0 (Background)
//Storyboard Layer 1 (Fail)
//Storyboard Layer 2 (Pass)
//Storyboard Layer 3 (Foreground)
//Storyboard Layer 4 (Overlay)
//Storyboard Sound Samples

[TimingPoints]
245,315.789473684211,4,1,0,40,1,0
10310,-100,4,1,0,50,0,0
20416,-100,4,1,0,30,0,0
22626,-100,4,1,0,50,0,0
51995,-100,4,1,0,55,0,0
53258,-100,4,1,0,60,0,0
53297,-100,4,1,0,60,0,1
63363,-100,4,1,0,50,0,1
63402,-100,4,1,0,50,0,0
65889,-100,4,1,0,60,0,0
65929,-100,4,1,0,60,0,1
70981,315.789473684211,5,1,0,60,1,1
72559,315.789473684211,4,1,0,60,1,1
73822,-100,4,1,0,60,0,0

[HitObjects]
261,237,245,5,0,0:0:0:0:
256,192,876,1,8,0:0:0:0:
256,192,1034,1,0,0:0:0:0:
256,192,1192,1,0,0:0:0:0:
252,219,1508,1,8,0:0:0:0:
210,167,2139,1,8,0:0:0:0:
256,192,2297,1,8,0:0:0:0:
256,192,2455,1,0,0:0:0:0:
209,189,2771,1,0,0:0:0:0:
233,239,3402,1,8,0:0:0:0:
256,192,3560,1,8,0:0:0:0:
256,192,3718,1,8,0:0:0:0:
198,228,4034,1,0,0:0:0:0:
213,191,4666,1,0,0:0:0:0:
224,224,4823,1,8,0:0:0:0:
215,202,4981,1,0,0:0:0:0:
215,203,5297,1,0,0:0:0:0:
224,224,5929,1,8,0:0:0:0:
224,224,6087,1,0,0:0:0:0:
234,192,6245,1,0,0:0:0:0:
252,219,6560,1,8,0:0:0:0:
210,167,7192,1,8,0:0:0:0:
224,224,7350,1,8,0:0:0:0:
224,224,7508,1,0,0:0:0:0:
209,189,7823,1,0,0:0:0:0:
233,239,8455,1,8,0:0:0:0:
224,224,8613,1,8,0:0:0:0:
224,224,8771,1,8,0:0:0:0:
224,224,9087,1,0,0:0:0:0:
227,188,9718,1,8,0:0:0:0:
224,224,9876,1,8,0:0:0:0:
207,210,10034,1,8,0:0:0:0:
227,188,10350,1,4,0:0:0:0:
179,200,10666,1,8,0:0:0:0:
192,192,10981,1,0,0:0:0:0:
192,192,11139,1,0,0:0:0:0:
192,177,11297,1,8,0:0:0:0:
192,192,11613,1,0,0:0:0:0:
200,175,11929,1,8,0:0:0:0:
192,192,12245,1,0,0:0:0:0:
192,192,12402,1,0,0:0:0:0:
192,192,12560,1,8,0:0:0:0:
224,224,12876,1,8,0:0:0:0:
224,224,13192,1,8,0:0:0:0:
224,224,13508,1,0,0:0:0:0:
224,224,13666,1,0,0:0:0:0:
224,224,13823,1,8,0:0:0:0:
224,224,14139,1,0,0:0:0:0:
216,234,14455,1,0,0:0:0:0:
224,192,14771,1,8,0:0:0:0:
224,192,14929,1,8,0:0:0:0:
253,217,15087,1,0,0:0:0:0:
227,188,15402,1,12,0:0:0:0:
224,192,16034,1,0,0:0:0:0:
224,192,16192,1,0,0:0:0:0:
192,177,16350,1,8,0:0:0:0:
224,192,16666,1,0,0:0:0:0:
200,175,16981,1,8,0:0:0:0:
224,192,17297,1,0,0:0:0:0:
224,192,17455,1,0,0:0:0:0:
224,192,17613,1,8,0:0:0:0:
224,192,17929,1,8,0:0:0:0:
211,172,18245,1,8,0:0:0:0:
224,192,18560,1,8,0:0:0:0:
224,192,18718,1,8,0:0:0:0:
224,192,18876,1,0,0:0:0:0:
224,192,19192,1,0,0:0:0:0:
224,192,19508,1,8,0:0:0:0:
224,192,19823,1,0,0:0:0:0:
224,192,19981,1,0,0:0:0:0:
224,192,20139,1,8,0:0:0:0:
256,192,20455,1,12,0:0:0:0:
256,192,22981,1,0,0:0:0:0:
256,192,23139,1,0,0:0:0:0:
256,192,23297,1,8,0:0:0:0:
256,192,23613,1,0,0:0:0:0:
196,153,23929,1,8,0:0:0:0:
183,151,24245,1,0,0:0:0:0:
256,192,24402,1,0,0:0:0:0:
256,192,24560,1,8,0:0:0:0:
184,152,24876,1,8,0:0:0:0:
256,192,25034,1,0,0:0:0:0:
256,192,25508,1,0,0:0:0:0:
256,192,25666,1,0,0:0:0:0:
256,192,26139,1,8,0:0:0:0:
256,192,26297,1,0,0:0:0:0:
256,192,26455,1,0,0:0:0:0:
256,192,26771,1,8,0:0:0:0:
256,192,27087,1,0,0:0:0:0:
192,192,27402,1,8,0:0:0:0:
192,192,27560,1,0,0:0:0:0:
192,192,27718,1,8,0:0:0:0:
186,174,28034,1,8,0:0:0:0:
192,192,28192,1,0,0:0:0:0:
173,205,28666,1,8,0:0:0:0:
224,192,28823,1,0,0:0:0:0:
191,162,28981,1,8,0:0:0:0:
173,205,29297,1,0,0:0:0:0:
224,192,29613,1,8,0:0:0:0:
186,181,29929,1,8,0:0:0:0:
224,192,30087,1,0,0:0:0:0:
185,130,30560,1,0,0:0:0:0:
224,192,30718,1,0,0:0:0:0:
199,136,31192,1,8,0:0:0:0:
224,192,31350,1,0,0:0:0:0:
224,192,31508,1,8,0:0:0:0:
176,138,31823,1,8,0:0:0:0:
224,192,32139,1,0,0:0:0:0:
224,192,32455,1,8,0:0:0:0:
224,192,32613,1,0,0:0:0:0:
182,140,32771,1,8,0:0:0:0:
193,184,33087,1,0,0:0:0:0:
192,192,33245,1,0,0:0:0:0:
192,192,33718,1,8,0:0:0:0:
192,192,34034,1,0,0:0:0:0:
192,192,34350,1,8,0:0:0:0:
192,192,34508,1,0,0:0:0:0:
192,192,34666,1,0,0:0:0:0:
196,184,34981,1,8,0:0:0:0:
192,192,35139,1,0,0:0:0:0:
186,198,35297,1,8,0:0:0:0:
186,198,35613,1,0,0:0:0:0:
192,192,35771,1,0,0:0:0:0:
174,164,36245,1,8,0:0:0:0:
175,189,36560,1,0,0:0:0:0:
192,192,36718,1,8,0:0:0:0:
174,164,36876,1,0,0:0:0:0:
168,180,37192,1,8,0:0:0:0:
179,149,37508,1,8,0:0:0:0:
192,192,37666,1,0,0:0:0:0:
192,192,38139,1,0,0:0:0:0:
192,192,38297,1,0,0:0:0:0:
192,192,38771,1,0,0:0:0:0:
192,192,38929,1,0,0:0:0:0:
196,202,39087,1,8,0:0:0:0:
183,199,39402,1,8,0:0:0:0:
192,192,39560,1,0,0:0:0:0:
189,168,39718,1,0,0:0:0:0:
174,161,40034,1,8,0:0:0:0:
192,192,40192,1,0,0:0:0:0:
182,187,40666,1,0,0:0:0:0:
192,192,40823,1,0,0:0:0:0:
176,145,41297,1,8,0:0:0:0:
192,192,41455,1,8,0:0:0:0:
176,145,41613,1,0,0:0:0:0:
192,192,41929,1,0,0:0:0:0:
192,192,42087,1,0,0:0:0:0:
187,154,42560,1,8,0:0:0:0:
192,192,42718,1,0,0:0:0:0:
170,109,42876,1,8,0:0:0:0:
180,200,43192,1,0,0:0:0:0:
186,142,43823,1,8,0:0:0:0:
186,142,44455,1,0,0:0:0:0:
188,167,45087,1,0,0:0:0:0:
188,167,45718,1,8,0:0:0:0:
192,160,46350,1,0,0:0:0:0:
188,167,46981,1,8,0:0:0:0:
192,192,47139,1,8,0:0:0:0:
179,132,47297,1,8,0:0:0:0:
176,137,47613,1,0,0:0:0:0:
186,156,47929,1,8,0:0:0:0:
188,153,48245,1,0,0:0:0:0:
186,156,48876,1,8,0:0:0:0:
186,156,49508,1,8,0:0:0:0:
186,156,50139,1,0,0:0:0:0:
186,156,50771,1,0,0:0:0:0:
187,147,51087,1,8,0:0:0:0:
192,192,51402,1,8,0:0:0:0:
192,192,51560,1,8,0:0:0:0:
192,192,51718,1,8,0:0:0:0:
179,134,52034,1,0,0:0:0:0:
192,192,52192,1,8,0:0:0:0:
195,144,52350,1,0,0:0:0:0:
177,132,52666,1,8,0:0:0:0:
192,160,52823,1,0,0:0:0:0:
192,160,52981,1,8,0:0:0:0:
240,185,53297,1,12,0:0:0:0:
175,142,53929,1,8,0:0:0:0:
256,180,54087,1,0,0:0:0:0:
175,142,54245,1,8,0:0:0:0:
175,142,54560,1,0,0:0:0:0:
192,160,54876,1,8,0:0:0:0:
171,160,55192,1,0,0:0:0:0:
192,160,55350,1,8,0:0:0:0:
170,133,55508,1,0,0:0:0:0:
170,133,55823,1,8,0:0:0:0:
192,160,56139,1,8,0:0:0:0:
198,171,56455,1,0,0:0:0:0:
198,171,56771,1,8,0:0:0:0:
181,162,57087,1,0,0:0:0:0:
192,160,57245,1,0,0:0:0:0:
182,152,57402,1,8,0:0:0:0:
185,154,57718,1,8,0:0:0:0:
161,119,58034,1,8,0:0:0:0:
186,154,58350,1,0,0:0:0:0:
186,135,58981,1,8,0:0:0:0:
192,160,59139,1,8,0:0:0:0:
201,165,59297,1,8,0:0:0:0:
201,165,59613,1,0,0:0:0:0:
165,139,59929,1,8,0:0:0:0:
165,129,60245,1,0,0:0:0:0:
192,160,60402,1,0,0:0:0:0:
192,160,60560,1,0,0:0:0:0:
165,129,60876,1,8,0:0:0:0:
192,160,61192,1,8,0:0:0:0:
169,107,61508,1,0,0:0:0:0:
168,122,61823,1,0,0:0:0:0:
168,122,62139,1,8,0:0:0:0:
192,160,62297,1,0,0:0:0:0:
169,107,62455,1,0,0:0:0:0:
166,110,62771,1,8,0:0:0:0:
166,112,63087,1,8,0:0:0:0:
166,112,63402,1,0,0:0:0:0:
144,151,64034,1,8,0:0:0:0:
153,156,64666,1,0,0:0:0:0:
212,226,65297,1,0,0:0:0:0:
192,160,65613,1,8,0:0:0:0:
217,226,65771,1,8,0:0:0:0:
240,178,65929,1,4,0:0:0:0:
249,207,66245,1,8,0:0:0:0:
108,172,66560,1,0,0:0:0:0:
177,169,66876,1,0,0:0:0:0:
149,167,67192,1,8,0:0:0:0:
192,160,67350,1,0,0:0:0:0:
180,159,67508,1,8,0:0:0:0:
166,132,67823,1,8,0:0:0:0:
161,110,68139,1,0,0:0:0:0:
178,119,68455,1,8,0:0:0:0:
224,192,68771,1,0,0:0:0:0:
162,168,69087,1,8,0:0:0:0:
192,160,69245,1,8,0:0:0:0:
166,174,69402,1,0,0:0:0:0:
161,125,69718,1,0,0:0:0:0:
224,192,70034,1,8,0:0:0:0:
124,129,70350,1,8,0:0:0:0:
148,149,70666,1,0,0:0:0:0:
156,74,70981,1,8,0:0:0:0:
178,132,71612,1,8,0:0:0:0:
161,131,72244,1,8,0:0:0:0:
165,132,72559,1,0,0:0:0:0:
192,128,72716,1,0,0:0:0:0:
192,128,72874,1,0,0:0:0:0:
192,128,73190,1,8,0:0:0:0:
155,127,73506,1,0,0:0:0:0:
192,128,73664,1,8,0:0:0:0:
192,128,73822,1,0,0:0:0:0:
224,192,74137,1,0,0:0:0:0:
208,179,74453,1,8,0:0:0:0:
208,179,74769,1,0,0:0:0:0:
192,128,75085,1,8,0:0:0:0:
222,160,75401,1,8,0:0:0:0:
185,168,75716,1,8,0:0:0:0:
185,168,76032,1,0,0:0:0:0:
192,128,76190,1,0,0:0:0:0:
185,168,76348,1,8,0:0:0:0:
224,192,76664,1,0,0:0:0:0:
195,185,76980,1,0,0:0:0:0:
178,160,77295,1,8,0:0:0:0:
175,110,77611,1,8,0:0:0:0:
192,128,77769,1,0,0:0:0:0:
192,128,77927,1,0,0:0:0:0:
171,154,78243,1,0,0:0:0:0:
205,177,78559,1,0,0:0:0:0:
171,154,78874,1,12,0:0:0:0:
176,178,79506,1,8,0:0:0:0:
192,128,79664,1,0,0:0:0:0:
208,179,79822,1,0,0:0:0:0:
192,128,80137,1,8,0:0:0:0:
222,160,80453,1,8,0:0:0:0:
201,213,80769,1,0,0:0:0:0:
192,128,80927,1,0,0:0:0:0:
185,168,81085,1,0,0:0:0:0:
185,168,81401,1,8,0:0:0:0:
224,192,81716,1,8,0:0:0:0:
166,169,82032,1,0,0:0:0:0:
186,180,82348,1,8,0:0:0:0:
186,180,82664,1,0,0:0:0:0:
192,128,82822,1,0,0:0:0:0:
182,164,82980,1,0,0:0:0:0:
182,164,83295,1,8,0:0:0:0:
192,128,83611,1,8,0:0:0:0:
191,179,83927,1,0,0:0:0:0:
208,179,84559,1,8,0:0:0:0:
192,128,84874,1,0,0:0:0:0:
192,192,85190,1,0,0:0:0:0:
222,160,85506,1,8,0:0:0:0:
192,128,85664,1,8,0:0:0:0:
185,168,85822,1,8,0:0:0:0:
185,168,86137,1,0,0:0:0:0:
185,168,86453,1,8,0:0:0:0:
192,160,86769,1,0,0:0:0:0:
195,185,87085,1,0,0:0:0:0:
192,128,87243,1,0,0:0:0:0:
178,160,87401,1,8,0:0:0:0:
190,159,87716,1,8,0:0:0:0:
187,124,88032,1,8,0:0:0:0:
171,154,88348,1,0,0:0:0:0:
192,128,88664,1,8,0:0:0:0:
192,128,88822,1,8,0:0:0:0:
192,160,88980,1,4,0:0:0:0:
208,179,89611,1,8,0:0:0:0:
208,179,89927,1,0,0:0:0:0:
192,160,90243,1,0,0:0:0:0:
222,160,90559,1,8,0:0:0:0:
192,160,90716,1,0,0:0:0:0:
211,159,90874,1,0,0:0:0:0:
185,168,91190,1,0,0:0:0:0:
185,168,91506,1,8,0:0:0:0:
192,160,91822,1,8,0:0:0:0:
192,160,92137,1,0,0:0:0:0:
192,160,92295,1,0,0:0:0:0:
186,180,92453,1,8,0:0:0:0:
186,180,92769,1,0,0:0:0:0:
182,164,93085,1,0,0:0:0:0:
182,164,93401,1,8,0:0:0:0:
261,253,94032,1,12,0:0:0:0:
