osu file format v14

[General]
AudioFilename: audio.mp3
AudioLeadIn: 0
PreviewTime: 53850
Countdown: 0
SampleSet: Normal
StackLeniency: 0.7
Mode: 1
LetterboxInBreaks: 0
WidescreenStoryboard: 0

[Editor]
DistanceSpacing: 1.6
BeatDivisor: 4
GridSize: 32
TimelineZoom: 0.9

[Metadata]
Title:vesna (Cut Ver.)
TitleUnicode:весна (Cut Ver.)
Artist:kis-kis
ArtistUnicode:кис-кис
Creator:Horiiizon
Version:closed's Kantan
Source:
Tags:russian rock друзья pop-punk alternative spring friends punk-rock female vocals closed kiskisnotdead русский
BeatmapID:2629875
BeatmapSetID:1265417

[Difficulty]
HPDrainRate:8.5
CircleSize:5
OverallDifficulty:2
ApproachRate:5
SliderMultiplier:1.4
SliderTickRate:1

[Events]
//Background and Video events
0,0,"##.jpg",0,-15
//Break Periods
//Storyboard Layer 0 (Background)
//Storyboard Layer 1 (Fail)
//Storyboard Layer 2 (Pass)
//Storyboard Layer 3 (Foreground)
//Storyboard Layer 4 (Overlay)
//Storyboard Sound Samples

[TimingPoints]
245,315.789473684211,4,1,0,40,1,0
10310,-100,4,1,0,50,0,0
20416,-100,4,1,0,30,0,0
22626,-100,4,1,0,50,0,0
51995,-100,4,1,0,55,0,0
53258,-100,4,1,0,60,0,0
53297,-100,4,1,0,60,0,1
63363,-100,4,1,0,50,0,1
63402,-100,4,1,0,50,0,0
65889,-100,4,1,0,60,0,0
65929,-100,4,1,0,60,0,1
70981,315.789473684211,5,1,0,60,1,1
72559,315.789473684211,4,1,0,60,1,1
73822,-100,4,1,0,60,0,0

[HitObjects]
261,237,245,5,0,0:0:0:0:
252,219,1508,1,8,0:0:0:0:
209,189,2771,1,0,0:0:0:0:
198,228,4034,1,8,0:0:0:0:
213,191,4666,1,8,0:0:0:0:
215,203,5297,1,0,0:0:0:0:
252,219,6560,1,8,0:0:0:0:
209,189,7823,1,8,0:0:0:0:
198,228,9087,1,0,0:0:0:0:
227,188,9718,1,8,0:0:0:0:
207,210,10034,1,8,0:0:0:0:
227,188,10350,1,4,0:0:0:0:
192,192,10981,1,8,0:0:0:0:
192,177,11613,1,0,0:0:0:0:
200,175,11929,1,8,0:0:0:0:
202,186,12876,1,8,0:0:0:0:
211,172,13192,1,8,0:0:0:0:
211,172,14139,1,0,0:0:0:0:
200,180,14771,1,8,0:0:0:0:
251,185,15402,1,12,0:0:0:0:
228,196,15718,1,0,0:0:0:0:
192,177,16666,1,0,0:0:0:0:
192,177,16981,1,8,0:0:0:0:
202,186,17929,1,8,0:0:0:0:
211,172,18245,1,8,0:0:0:0:
211,172,19192,1,0,0:0:0:0:
216,234,19508,1,0,0:0:0:0:
192,192,20139,1,0,0:0:0:0:
263,223,20455,1,12,0:0:0:0:
175,151,22981,1,0,0:0:0:0:
192,160,23613,1,8,0:0:0:0:
183,151,24245,1,0,0:0:0:0:
183,151,25192,1,8,0:0:0:0:
184,158,25508,1,0,0:0:0:0:
192,160,26139,1,0,0:0:0:0:
193,208,26771,1,8,0:0:0:0:
261,189,27718,1,8,0:0:0:0:
261,189,28034,1,0,0:0:0:0:
192,160,28666,1,8,0:0:0:0:
173,205,29297,1,0,0:0:0:0:
192,160,30245,1,0,0:0:0:0:
185,130,30560,1,8,0:0:0:0:
217,163,31508,1,8,0:0:0:0:
217,163,31823,1,0,0:0:0:0:
192,192,32455,1,8,0:0:0:0:
193,184,33087,1,0,0:0:0:0:
192,160,33718,1,8,0:0:0:0:
183,207,34350,1,8,0:0:0:0:
186,198,35297,1,8,0:0:0:0:
186,198,35613,1,0,0:0:0:0:
192,160,36245,1,0,0:0:0:0:
234,233,36876,1,8,0:0:0:0:
179,149,37823,1,0,0:0:0:0:
176,187,38139,1,8,0:0:0:0:
192,160,38771,1,8,0:0:0:0:
192,160,39402,1,0,0:0:0:0:
181,171,40350,1,8,0:0:0:0:
182,187,40666,1,0,0:0:0:0:
176,145,41613,1,0,0:0:0:0:
176,145,41929,1,8,0:0:0:0:
187,154,42560,1,8,0:0:0:0:
180,200,43192,1,0,0:0:0:0:
186,142,44455,1,0,0:0:0:0:
199,171,45087,1,0,0:0:0:0:
188,167,45718,1,8,0:0:0:0:
188,167,46981,1,8,0:0:0:0:
192,192,47297,1,8,0:0:0:0:
192,224,47613,1,8,0:0:0:0:
192,160,48245,1,0,0:0:0:0:
192,160,49508,1,8,0:0:0:0:
186,156,50139,1,0,0:0:0:0:
186,156,50771,1,8,0:0:0:0:
179,134,52034,1,0,0:0:0:0:
247,184,52666,1,0,0:0:0:0:
255,186,52981,1,0,0:0:0:0:
240,185,53297,1,12,0:0:0:0:
275,225,54245,1,8,0:0:0:0:
175,142,54560,1,0,0:0:0:0:
224,192,55192,1,8,0:0:0:0:
170,133,55823,1,8,0:0:0:0:
192,160,56455,1,0,0:0:0:0:
181,162,57087,1,0,0:0:0:0:
182,152,57402,1,8,0:0:0:0:
185,154,57718,1,8,0:0:0:0:
192,224,58350,1,0,0:0:0:0:
192,160,59613,1,8,0:0:0:0:
165,129,60245,1,0,0:0:0:0:
165,129,60876,1,8,0:0:0:0:
192,160,61508,1,8,0:0:0:0:
168,122,62139,1,8,0:0:0:0:
169,107,62455,1,0,0:0:0:0:
166,110,62771,1,8,0:0:0:0:
166,112,63402,1,0,0:0:0:0:
153,156,64666,1,0,0:0:0:0:
240,178,65929,1,12,0:0:0:0:
192,160,66560,1,0,0:0:0:0:
149,167,67192,1,8,0:0:0:0:
180,159,67508,1,8,0:0:0:0:
166,132,67823,1,8,0:0:0:0:
178,119,68455,1,0,0:0:0:0:
192,160,69087,1,8,0:0:0:0:
161,125,69718,1,0,0:0:0:0:
160,160,70350,1,0,0:0:0:0:
156,74,70981,1,8,0:0:0:0:
165,132,72559,1,0,0:0:0:0:
251,218,73190,1,8,0:0:0:0:
155,127,73822,1,8,0:0:0:0:
208,179,75085,1,0,0:0:0:0:
252,185,75716,1,8,0:0:0:0:
185,168,76348,1,8,0:0:0:0:
175,110,77611,1,8,0:0:0:0:
192,160,78243,1,8,0:0:0:0:
192,160,78874,1,4,0:0:0:0:
222,160,80137,1,0,0:0:0:0:
261,181,80769,1,8,0:0:0:0:
185,168,81401,1,8,0:0:0:0:
186,180,82664,1,8,0:0:0:0:
182,164,83295,1,8,0:0:0:0:
182,164,83611,1,0,0:0:0:0:
191,179,83927,1,0,0:0:0:0:
260,171,84559,1,8,0:0:0:0:
222,160,85190,1,8,0:0:0:0:
192,160,85822,1,0,0:0:0:0:
185,168,86453,1,8,0:0:0:0:
190,159,87716,1,8,0:0:0:0:
171,154,88348,1,8,0:0:0:0:
260,171,88664,1,8,0:0:0:0:
171,154,88980,1,4,0:0:0:0:
222,160,90243,1,8,0:0:0:0:
192,160,90874,1,0,0:0:0:0:
185,168,91506,1,8,0:0:0:0:
186,180,92769,1,0,0:0:0:0:
260,171,93085,1,8,0:0:0:0:
182,164,93401,1,8,0:0:0:0:
192,160,94032,1,12,0:0:0:0:
