osu file format v14

[General]
AudioFilename: audio.mp3
AudioLeadIn: 0
PreviewTime: 53850
Countdown: 0
SampleSet: Normal
StackLeniency: 0.7
Mode: 1
LetterboxInBreaks: 0
WidescreenStoryboard: 1

[Editor]
DistanceSpacing: 1.6
BeatDivisor: 4
GridSize: 32
TimelineZoom: 1.899999

[Metadata]
Title:vesna (Cut Ver.)
TitleUnicode:весна (Cut Ver.)
Artist:kis-kis
ArtistUnicode:кис-кис
Creator:Horiiizon
Version:Retreat
Source:
Tags:russian rock друзья pop-punk alternative spring friends punk-rock female vocals closed kiskisnotdead русский
BeatmapID:2629876
BeatmapSetID:1265417

[Difficulty]
HPDrainRate:5.5
CircleSize:5
OverallDifficulty:5
ApproachRate:5
SliderMultiplier:1.4
SliderTickRate:1

[Events]
//Background and Video events
0,0,"##.jpg",0,-15
//Break Periods
//Storyboard Layer 0 (Background)
//Storyboard Layer 1 (Fail)
//Storyboard Layer 2 (Pass)
//Storyboard Layer 3 (Foreground)
//Storyboard Layer 4 (Overlay)
//Storyboard Sound Samples

[TimingPoints]
245,315.789473684211,4,1,0,50,1,0
245,-111.111111111111,4,1,0,50,0,0
9718,-108.695652173913,4,1,0,50,0,0
9876,-106.382978723404,4,1,0,50,0,0
10034,-104.166666666667,4,1,0,50,0,0
10192,-102.040816326531,4,1,0,50,0,0
10310,-100,4,1,0,60,0,0
19192,-102.040816326531,4,1,0,60,0,0
19350,-103.092783505155,4,1,0,60,0,0
19508,-104.166666666667,4,1,0,60,0,0
19823,-106.382978723404,4,1,0,60,0,0
19981,-107.52688172043,4,1,0,60,0,0
20139,-108.695652173913,4,1,0,60,0,0
20297,-109.89010989011,4,1,0,60,0,0
20416,-111.111111111111,4,1,0,40,0,0
22626,-100,4,1,0,60,0,0
51363,-98.4848484848485,4,1,0,50,0,0
51559,-97.0149253731343,4,1,0,50,0,0
51717,-95.5882352941176,4,1,0,50,0,0
51875,-94.2028985507246,4,1,0,50,0,0
51995,-100,4,1,0,60,0,0
52033,-92.8571428571429,4,1,0,60,0,0
52191,-91.5492957746479,4,1,0,60,0,0
52349,-90.2777777777778,4,1,0,60,0,0
52507,-89.041095890411,4,1,0,60,0,0
52665,-87.8378378378378,4,1,0,60,0,0
52823,-86.6666666666667,4,1,0,60,0,0
52980,-85.5263157894737,4,1,0,60,0,0
53258,-83.3333333333333,4,1,0,70,0,0
53297,-83.3333333333333,4,1,0,70,0,1
63363,-100,4,1,0,60,0,1
63402,-100,4,1,0,60,0,0
65297,-96.1538461538461,4,1,0,60,0,0
65455,-92.5925925925926,4,1,0,60,0,0
65613,-89.2857142857143,4,1,0,60,0,0
65692,-87.719298245614,4,1,0,60,0,0
65771,-86.2068965517241,4,1,0,60,0,0
65850,-84.7457627118644,4,1,0,60,0,0
65889,-83.3333333333333,4,1,0,70,0,0
65929,-83.3333333333333,4,1,0,70,0,1
70981,315.789473684211,5,1,0,70,1,1
70981,-83.3333333333333,5,1,0,70,0,1
72559,315.789473684211,4,1,0,70,1,1
72559,-86.2068965517241,4,1,0,70,0,1
72716,-87.719298245614,4,1,0,70,0,1
72874,-89.2857142857143,4,1,0,70,0,1
73032,-90.9090909090909,4,1,0,70,0,1
73190,-92.5925925925926,4,1,0,70,0,1
73506,-96.1538461538461,4,1,0,70,0,1
73585,-97.0873786407767,4,1,0,70,0,1
73664,-98.0392156862745,4,1,0,70,0,1
73743,-99.009900990099,4,1,0,70,0,1
73782,-100,4,1,0,60,0,1
73822,-100,4,1,0,60,0,0
93993,-83.3333333333333,4,1,0,70,0,0

[HitObjects]
233,266,245,5,0,0:0:0:0:
161,195,402,1,0,0:0:0:0:
168,197,560,1,8,0:0:0:0:
194,179,876,1,0,0:0:0:0:
200,206,1034,1,8,0:0:0:0:
189,202,1192,1,8,0:0:0:0:
200,206,1350,1,0,0:0:0:0:
198,215,1508,1,8,0:0:0:0:
198,215,1666,1,0,0:0:0:0:
196,191,1823,1,0,0:0:0:0:
206,181,2139,1,8,0:0:0:0:
206,182,2297,1,8,0:0:0:0:
206,181,2455,1,0,0:0:0:0:
221,223,2613,1,0,0:0:0:0:
205,209,2771,1,8,0:0:0:0:
211,186,2929,1,0,0:0:0:0:
206,181,3087,1,8,0:0:0:0:
223,202,3402,1,8,0:0:0:0:
183,187,3560,1,0,0:0:0:0:
183,187,3718,1,0,0:0:0:0:
198,189,3876,1,0,0:0:0:0:
198,189,4034,1,8,0:0:0:0:
206,181,4192,1,8,0:0:0:0:
206,181,4350,1,0,0:0:0:0:
191,169,4666,1,0,0:0:0:0:
191,169,4823,1,8,0:0:0:0:
203,196,4981,1,8,0:0:0:0:
179,194,5139,1,8,0:0:0:0:
191,169,5297,1,0,0:0:0:0:
191,169,5455,1,0,0:0:0:0:
191,169,5613,1,8,0:0:0:0:
194,179,5929,1,0,0:0:0:0:
200,206,6087,1,8,0:0:0:0:
189,202,6245,1,8,0:0:0:0:
200,206,6402,1,0,0:0:0:0:
198,215,6560,1,8,0:0:0:0:
198,215,6718,1,0,0:0:0:0:
196,191,6876,1,0,0:0:0:0:
206,181,7192,1,8,0:0:0:0:
206,182,7350,1,8,0:0:0:0:
206,181,7508,1,0,0:0:0:0:
221,223,7666,1,0,0:0:0:0:
205,209,7823,1,8,0:0:0:0:
211,186,7981,1,0,0:0:0:0:
206,181,8139,1,8,0:0:0:0:
223,202,8455,1,8,0:0:0:0:
183,187,8613,1,0,0:0:0:0:
183,187,8771,1,0,0:0:0:0:
198,189,8929,1,0,0:0:0:0:
198,189,9087,1,8,0:0:0:0:
206,181,9245,1,8,0:0:0:0:
206,181,9402,1,0,0:0:0:0:
186,226,9718,1,8,0:0:0:0:
186,226,9876,1,8,0:0:0:0:
186,226,10034,1,8,0:0:0:0:
186,226,10192,1,8,0:0:0:0:
195,252,10350,1,4,0:0:0:0:
202,223,10666,1,8,0:0:0:0:
217,223,10981,1,0,0:0:0:0:
217,223,11139,1,0,0:0:0:0:
219,223,11297,1,8,0:0:0:0:
189,194,11613,1,0,0:0:0:0:
206,227,11929,1,8,0:0:0:0:
206,177,12245,1,8,0:0:0:0:
206,227,12402,1,0,0:0:0:0:
206,227,12560,1,8,0:0:0:0:
186,182,12718,1,8,0:0:0:0:
184,194,12876,1,0,0:0:0:0:
197,177,13192,1,0,0:0:0:0:
197,177,13508,1,0,0:0:0:0:
197,177,13666,1,0,0:0:0:0:
197,177,13823,1,8,0:0:0:0:
196,184,14139,1,0,0:0:0:0:
200,199,14455,1,0,0:0:0:0:
187,199,14771,1,8,0:0:0:0:
242,188,14929,1,8,0:0:0:0:
226,168,15087,1,0,0:0:0:0:
252,121,15245,1,0,0:0:0:0:
278,134,15402,1,12,0:0:0:0:
202,223,15718,1,8,0:0:0:0:
217,223,16034,1,0,0:0:0:0:
217,223,16192,1,0,0:0:0:0:
219,223,16350,1,8,0:0:0:0:
189,194,16666,1,0,0:0:0:0:
206,227,16981,1,8,0:0:0:0:
206,177,17297,1,8,0:0:0:0:
206,227,17455,1,0,0:0:0:0:
206,227,17613,1,8,0:0:0:0:
203,152,17771,1,8,0:0:0:0:
203,152,17929,1,0,0:0:0:0:
197,177,18245,1,0,0:0:0:0:
197,177,18560,1,0,0:0:0:0:
197,177,18718,1,0,0:0:0:0:
197,177,18876,1,8,0:0:0:0:
205,182,19192,1,8,0:0:0:0:
200,185,19350,1,0,0:0:0:0:
187,197,19508,1,0,0:0:0:0:
176,210,19823,1,0,0:0:0:0:
182,132,19981,1,0,0:0:0:0:
211,169,20139,1,8,0:0:0:0:
197,154,20297,1,0,0:0:0:0:
197,154,20455,1,12,0:0:0:0:
171,216,20771,1,8,0:0:0:0:
171,216,21402,1,8,0:0:0:0:
196,216,22034,1,8,0:0:0:0:
200,218,22666,1,8,0:0:0:0:
155,201,22981,1,0,0:0:0:0:
216,156,23297,1,8,0:0:0:0:
192,208,23613,1,8,0:0:0:0:
192,208,23771,1,0,0:0:0:0:
202,205,23929,1,0,0:0:0:0:
202,205,24087,1,8,0:0:0:0:
207,205,24245,1,0,0:0:0:0:
192,192,24560,1,8,0:0:0:0:
203,192,24876,1,8,0:0:0:0:
203,192,25192,1,0,0:0:0:0:
200,185,25508,1,0,0:0:0:0:
198,154,25666,1,0,0:0:0:0:
196,181,25823,1,8,0:0:0:0:
202,179,26139,1,0,0:0:0:0:
214,178,26297,1,0,0:0:0:0:
203,179,26455,1,8,0:0:0:0:
203,179,26613,1,0,0:0:0:0:
190,157,26771,1,8,0:0:0:0:
190,157,27087,1,8,0:0:0:0:
195,160,27402,1,0,0:0:0:0:
196,153,27718,1,8,0:0:0:0:
215,158,28034,1,8,0:0:0:0:
192,151,28192,1,8,0:0:0:0:
194,151,28350,1,0,0:0:0:0:
196,153,28666,1,8,0:0:0:0:
194,148,28823,1,0,0:0:0:0:
194,148,28981,1,8,0:0:0:0:
192,151,29139,1,8,0:0:0:0:
186,155,29297,1,0,0:0:0:0:
201,174,29613,1,8,0:0:0:0:
194,148,29771,1,0,0:0:0:0:
194,148,29929,1,8,0:0:0:0:
183,149,30245,1,8,0:0:0:0:
185,151,30560,1,0,0:0:0:0:
200,147,30718,1,0,0:0:0:0:
200,147,30876,1,8,0:0:0:0:
184,189,31192,1,8,0:0:0:0:
179,136,31350,1,8,0:0:0:0:
182,177,31508,1,0,0:0:0:0:
214,197,31666,1,0,0:0:0:0:
214,197,31823,1,8,0:0:0:0:
194,131,32139,1,0,0:0:0:0:
186,164,32297,1,8,0:0:0:0:
175,109,32455,1,8,0:0:0:0:
175,152,32613,1,0,0:0:0:0:
176,156,32771,1,8,0:0:0:0:
194,131,33087,1,8,0:0:0:0:
193,134,33245,1,8,0:0:0:0:
193,134,33402,1,0,0:0:0:0:
211,187,33718,1,0,0:0:0:0:
201,178,33876,1,0,0:0:0:0:
201,178,34034,1,8,0:0:0:0:
177,145,34192,1,0,0:0:0:0:
179,147,34350,1,8,0:0:0:0:
191,131,34666,1,8,0:0:0:0:
191,131,34823,1,0,0:0:0:0:
191,131,34981,1,8,0:0:0:0:
188,172,35297,1,8,0:0:0:0:
188,172,35613,1,0,0:0:0:0:
188,172,35771,1,0,0:0:0:0:
188,172,35929,1,8,0:0:0:0:
173,161,36087,1,0,0:0:0:0:
171,145,36245,1,8,0:0:0:0:
190,126,36560,1,0,0:0:0:0:
177,123,36718,1,0,0:0:0:0:
190,126,36876,1,8,0:0:0:0:
190,105,37192,1,8,0:0:0:0:
241,173,37350,1,0,0:0:0:0:
191,108,37508,1,0,0:0:0:0:
202,129,37823,1,8,0:0:0:0:
193,129,38139,1,8,0:0:0:0:
185,121,38297,1,8,0:0:0:0:
193,129,38455,1,0,0:0:0:0:
184,108,38771,1,8,0:0:0:0:
173,169,38929,1,0,0:0:0:0:
191,133,39087,1,8,0:0:0:0:
186,142,39245,1,0,0:0:0:0:
186,142,39402,1,8,0:0:0:0:
171,134,39718,1,8,0:0:0:0:
167,132,39876,1,8,0:0:0:0:
163,102,40034,1,0,0:0:0:0:
195,129,40350,1,8,0:0:0:0:
196,134,40666,1,0,0:0:0:0:
196,134,40823,1,0,0:0:0:0:
197,133,40981,1,8,0:0:0:0:
195,129,41297,1,8,0:0:0:0:
177,176,41455,1,0,0:0:0:0:
175,156,41613,1,8,0:0:0:0:
218,229,41771,1,8,0:0:0:0:
218,229,41929,1,0,0:0:0:0:
186,133,42245,1,0,0:0:0:0:
198,135,42402,1,0,0:0:0:0:
199,137,42560,1,8,0:0:0:0:
168,111,42718,1,0,0:0:0:0:
202,126,42876,1,8,0:0:0:0:
143,243,43192,1,0,0:0:0:0:
186,142,43823,1,8,0:0:0:0:
186,142,44455,1,0,0:0:0:0:
188,167,45087,1,0,0:0:0:0:
188,167,45718,1,8,0:0:0:0:
211,211,46350,1,8,0:0:0:0:
211,211,46508,1,8,0:0:0:0:
211,211,46666,1,0,0:0:0:0:
185,188,46823,1,8,0:0:0:0:
184,177,46981,1,0,0:0:0:0:
186,180,47060,1,0,0:0:0:0:
186,183,47139,1,0,0:0:0:0:
191,221,47297,1,8,0:0:0:0:
190,167,47455,1,8,0:0:0:0:
184,165,47613,1,0,0:0:0:0:
195,149,47929,1,8,0:0:0:0:
199,156,48245,1,0,0:0:0:0:
226,192,48876,1,0,0:0:0:0:
221,142,49192,1,0,0:0:0:0:
212,218,49508,1,8,0:0:0:0:
226,192,50139,1,8,0:0:0:0:
213,154,50455,1,8,0:0:0:0:
212,218,50771,1,0,0:0:0:0:
231,191,51087,1,8,0:0:0:0:
195,218,51402,1,8,0:0:0:0:
198,199,51560,1,8,0:0:0:0:
176,152,51718,1,8,0:0:0:0:
201,202,51876,1,8,0:0:0:0:
215,201,52034,1,0,0:0:0:0:
201,202,52192,1,0,0:0:0:0:
200,192,52350,1,8,0:0:0:0:
198,199,52508,1,0,0:0:0:0:
201,202,52666,1,8,0:0:0:0:
211,220,52823,1,8,0:0:0:0:
144,184,52981,1,0,0:0:0:0:
211,195,53297,1,12,0:0:0:0:
220,168,53613,1,8,0:0:0:0:
220,168,53929,1,8,0:0:0:0:
206,162,54087,1,8,0:0:0:0:
206,166,54245,1,0,0:0:0:0:
220,168,54560,1,0,0:0:0:0:
209,196,54876,1,8,0:0:0:0:
178,192,55192,1,0,0:0:0:0:
219,171,55350,1,8,0:0:0:0:
191,155,55508,1,8,0:0:0:0:
181,124,55823,1,8,0:0:0:0:
197,134,56139,1,0,0:0:0:0:
197,134,56455,1,0,0:0:0:0:
215,149,56613,1,0,0:0:0:0:
220,149,56771,1,8,0:0:0:0:
218,201,57087,1,8,0:0:0:0:
229,171,57245,1,0,0:0:0:0:
229,171,57402,1,8,0:0:0:0:
208,126,57560,1,8,0:0:0:0:
208,126,57718,1,0,0:0:0:0:
205,220,57876,1,0,0:0:0:0:
199,150,58034,1,8,0:0:0:0:
250,172,58350,1,4,0:0:0:0:
222,119,58666,1,8,0:0:0:0:
188,130,58981,1,8,0:0:0:0:
183,119,59139,1,8,0:0:0:0:
188,130,59297,1,0,0:0:0:0:
188,146,59613,1,0,0:0:0:0:
188,146,59929,1,8,0:0:0:0:
207,170,60008,1,8,0:0:0:0:
196,156,60087,1,8,0:0:0:0:
319,157,60245,1,0,0:0:0:0:
201,145,60402,1,0,0:0:0:0:
201,145,60560,1,8,0:0:0:0:
207,170,60876,1,8,0:0:0:0:
188,130,61192,1,8,0:0:0:0:
230,154,61508,1,0,0:0:0:0:
203,123,61666,1,0,0:0:0:0:
203,123,61823,1,8,0:0:0:0:
194,127,61981,1,0,0:0:0:0:
194,127,62139,1,8,0:0:0:0:
198,131,62297,1,8,0:0:0:0:
198,131,62455,1,0,0:0:0:0:
201,131,62771,1,8,0:0:0:0:
206,198,62929,1,0,0:0:0:0:
201,131,63087,1,8,0:0:0:0:
206,131,63402,1,0,0:0:0:0:
241,197,63560,1,0,0:0:0:0:
171,192,64034,1,8,0:0:0:0:
241,197,64192,1,8,0:0:0:0:
86,129,64666,1,0,0:0:0:0:
241,197,64823,1,0,0:0:0:0:
239,166,65297,1,8,0:0:0:0:
209,148,65455,1,8,0:0:0:0:
205,160,65613,1,0,0:0:0:0:
204,163,65692,1,0,0:0:0:0:
207,167,65771,1,8,0:0:0:0:
217,183,65850,1,8,0:0:0:0:
219,193,65929,1,4,0:0:0:0:
218,231,66245,1,8,0:0:0:0:
212,194,66560,1,0,0:0:0:0:
203,195,66718,1,0,0:0:0:0:
206,238,66876,1,8,0:0:0:0:
212,182,67034,1,0,0:0:0:0:
198,203,67192,1,0,0:0:0:0:
214,182,67350,1,8,0:0:0:0:
207,186,67508,1,8,0:0:0:0:
211,188,67666,1,0,0:0:0:0:
217,181,67823,1,8,0:0:0:0:
203,161,68139,1,8,0:0:0:0:
203,161,68455,1,0,0:0:0:0:
203,161,68771,1,8,0:0:0:0:
202,184,69087,1,8,0:0:0:0:
186,126,69245,1,8,0:0:0:0:
193,145,69402,1,0,0:0:0:0:
206,119,69560,1,0,0:0:0:0:
193,123,69718,1,8,0:0:0:0:
234,173,70034,1,8,0:0:0:0:
231,146,70350,1,8,0:0:0:0:
224,139,70508,1,8,0:0:0:0:
224,139,70666,1,0,0:0:0:0:
203,105,70981,1,8,0:0:0:0:
250,168,71296,1,8,0:0:0:0:
216,202,71612,1,8,0:0:0:0:
200,174,71928,1,8,0:0:0:0:
333,296,72244,1,8,0:0:0:0:
203,135,72559,1,0,0:0:0:0:
184,161,72716,1,0,0:0:0:0:
184,161,72874,1,8,0:0:0:0:
183,123,73032,1,0,0:0:0:0:
176,117,73190,1,8,0:0:0:0:
183,123,73506,1,8,0:0:0:0:
193,126,73585,1,8,0:0:0:0:
173,138,73664,1,0,0:0:0:0:
237,208,73743,1,0,0:0:0:0:
173,138,73822,1,8,0:0:0:0:
197,164,74137,1,0,0:0:0:0:
197,164,74453,1,8,0:0:0:0:
197,164,74769,1,0,0:0:0:0:
205,138,75085,1,8,0:0:0:0:
205,138,75243,1,8,0:0:0:0:
205,138,75401,1,0,0:0:0:0:
205,138,75716,1,8,0:0:0:0:
205,138,76032,1,0,0:0:0:0:
205,138,76348,1,8,0:0:0:0:
184,157,76664,1,8,0:0:0:0:
189,190,76980,1,0,0:0:0:0:
184,157,77137,1,0,0:0:0:0:
187,199,77295,1,8,0:0:0:0:
154,270,77611,1,8,0:0:0:0:
197,197,77769,1,0,0:0:0:0:
195,160,77927,1,8,0:0:0:0:
216,171,78243,1,8,0:0:0:0:
215,166,78401,1,8,0:0:0:0:
215,166,78559,1,0,0:0:0:0:
164,119,78874,1,8,0:0:0:0:
197,164,79190,1,0,0:0:0:0:
197,164,79506,1,8,0:0:0:0:
197,164,79822,1,0,0:0:0:0:
205,138,80137,1,8,0:0:0:0:
205,138,80453,1,0,0:0:0:0:
205,138,80769,1,8,0:0:0:0:
181,128,80927,1,8,0:0:0:0:
205,138,81085,1,0,0:0:0:0:
205,138,81401,1,8,0:0:0:0:
184,157,81716,1,8,0:0:0:0:
189,190,82032,1,0,0:0:0:0:
184,157,82190,1,0,0:0:0:0:
187,199,82348,1,8,0:0:0:0:
186,138,82664,1,0,0:0:0:0:
195,166,82822,1,0,0:0:0:0:
195,166,82980,1,8,0:0:0:0:
181,130,83137,1,0,0:0:0:0:
186,139,83295,1,8,0:0:0:0:
256,207,83453,1,8,0:0:0:0:
256,207,83611,1,0,0:0:0:0:
186,149,83927,1,0,0:0:0:0:
197,164,84243,1,0,0:0:0:0:
197,164,84559,1,8,0:0:0:0:
197,164,84874,1,0,0:0:0:0:
205,138,85190,1,8,0:0:0:0:
205,138,85348,1,8,0:0:0:0:
205,138,85506,1,0,0:0:0:0:
205,138,85822,1,8,0:0:0:0:
205,138,86137,1,0,0:0:0:0:
205,138,86453,1,8,0:0:0:0:
184,157,86769,1,8,0:0:0:0:
189,190,87085,1,0,0:0:0:0:
184,157,87243,1,0,0:0:0:0:
187,199,87401,1,8,0:0:0:0:
154,270,87716,1,8,0:0:0:0:
197,197,87874,1,0,0:0:0:0:
195,160,88032,1,8,0:0:0:0:
216,171,88348,1,8,0:0:0:0:
215,166,88506,1,8,0:0:0:0:
215,166,88664,1,0,0:0:0:0:
164,119,88980,1,8,0:0:0:0:
197,164,89295,1,0,0:0:0:0:
197,164,89611,1,8,0:0:0:0:
197,164,89927,1,0,0:0:0:0:
205,138,90243,1,8,0:0:0:0:
205,138,90559,1,0,0:0:0:0:
205,138,90874,1,8,0:0:0:0:
181,128,91032,1,8,0:0:0:0:
205,138,91190,1,0,0:0:0:0:
205,138,91506,1,8,0:0:0:0:
184,157,91822,1,8,0:0:0:0:
189,190,92137,1,0,0:0:0:0:
184,157,92295,1,0,0:0:0:0:
187,199,92453,1,8,0:0:0:0:
186,138,92769,1,0,0:0:0:0:
195,166,92927,1,0,0:0:0:0:
195,166,93085,1,8,0:0:0:0:
181,130,93243,1,0,0:0:0:0:
186,139,93401,1,8,0:0:0:0:
211,169,93559,1,8,0:0:0:0:
204,194,93716,1,0,0:0:0:0:
245,205,94032,1,12,0:0:0:0:
