osu file format v14

[General]
AudioFilename: audio.mp3
AudioLeadIn: 0
PreviewTime: 51957
Countdown: 0
SampleSet: Normal
StackLeniency: 0.7
Mode: 1
LetterboxInBreaks: 0
WidescreenStoryboard: 1

[Editor]
Bookmarks: 6604,13090,26063,52009,58496,64982,71469,73090,74712,89712
DistanceSpacing: 0.8
BeatDivisor: 2
GridSize: 32
TimelineZoom: 1.700002

[Metadata]
Title:tinder (Cut Ver.)
TitleUnicode:тиндер (Cut Ver.)
Artist:kis-kis
ArtistUnicode:кис-кис
Creator:K a t a g i r i
Version:muzukashii
Source:
Tags:russian русский kiskis кискис rock pop punk pop-punk punk-rock alternative female vocals kiskisnotdead юность в стиле панк Cофья Сомусева Алина Олешева lexa14 randelman4ik katagiri k_a_t_a_g_i_r_i
BeatmapID:3322793
BeatmapSetID:1627606

[Difficulty]
HPDrainRate:7
CircleSize:4.2
OverallDifficulty:4.5
ApproachRate:7
SliderMultiplier:1.4
SliderTickRate:1

[Events]
//Background and Video events
0,0,"bg.jpg",0,58
//Break Periods
//Storyboard Layer 0 (Background)
//Storyboard Layer 1 (Fail)
//Storyboard Layer 2 (Pass)
//Storyboard Layer 3 (Foreground)
//Storyboard Layer 4 (Overlay)
//Storyboard Sound Samples

[TimingPoints]
169,405.405405405405,4,1,0,70,1,0
13141,-95.2380952380952,4,1,0,75,0,0
26114,-100,4,1,0,65,0,0
52060,-90.9090909090909,4,1,0,85,0,1
73141,-90.9090909090909,4,1,0,85,0,0
73243,-95.2380952380952,4,1,0,75,0,0

[HitObjects]
256,192,169,5,4,0:0:0:0:
256,192,574,1,8,0:0:0:0:
256,192,1385,1,8,0:0:0:0:
256,192,1689,1,0,0:0:0:0:
256,192,1790,1,0,0:0:0:0:
256,192,2196,1,8,0:0:0:0:
256,192,2601,1,0,0:0:0:0:
256,192,2804,1,0,0:0:0:0:
256,192,3006,1,8,0:0:0:0:
256,192,3209,1,0,0:0:0:0:
256,192,3310,1,0,0:0:0:0:
256,192,3412,1,0,0:0:0:0:
256,192,3817,1,8,0:0:0:0:
256,192,4628,1,8,0:0:0:0:
256,192,4932,1,0,0:0:0:0:
256,192,5033,1,0,0:0:0:0:
256,192,5439,1,8,0:0:0:0:
256,192,5844,1,0,0:0:0:0:
256,192,6047,1,0,0:0:0:0:
256,192,6250,1,8,0:0:0:0:
256,192,6452,1,0,0:0:0:0:
256,192,6554,1,0,0:0:0:0:
256,192,6655,1,0,0:0:0:0:
256,192,7060,1,8,0:0:0:0:
256,192,7871,1,8,0:0:0:0:
256,192,8175,1,0,0:0:0:0:
256,192,8277,1,0,0:0:0:0:
256,192,8682,1,8,0:0:0:0:
256,192,9087,1,0,0:0:0:0:
256,192,9290,1,0,0:0:0:0:
256,192,9493,1,8,0:0:0:0:
256,192,9696,1,0,0:0:0:0:
256,192,9797,1,0,0:0:0:0:
256,192,9898,1,0,0:0:0:0:
256,192,10304,1,8,0:0:0:0:
256,192,11114,1,8,0:0:0:0:
256,192,11418,1,0,0:0:0:0:
256,192,11520,1,0,0:0:0:0:
256,192,11925,1,8,0:0:0:0:
256,192,12331,1,8,0:0:0:0:
256,192,12533,1,0,0:0:0:0:
256,192,12736,1,8,0:0:0:0:
256,192,12939,1,0,0:0:0:0:
256,192,13141,1,4,0:0:0:0:
256,192,13547,1,8,0:0:0:0:
256,192,13851,1,8,0:0:0:0:
256,192,13952,1,8,0:0:0:0:
256,192,14155,1,0,0:0:0:0:
256,192,14358,1,8,0:0:0:0:
256,192,14662,1,0,0:0:0:0:
256,192,14763,1,0,0:0:0:0:
256,192,15168,1,8,0:0:0:0:
256,192,15473,1,8,0:0:0:0:
256,192,15574,1,0,0:0:0:0:
256,192,15777,1,0,0:0:0:0:
256,192,15979,1,8,0:0:0:0:
256,192,16385,1,4,0:0:0:0:
256,192,16790,1,8,0:0:0:0:
256,192,17094,1,8,0:0:0:0:
256,192,17196,1,0,0:0:0:0:
256,192,17398,1,0,0:0:0:0:
256,192,17601,1,8,0:0:0:0:
256,192,17905,1,0,0:0:0:0:
256,192,18006,1,8,0:0:0:0:
256,192,18209,1,0,0:0:0:0:
256,192,18412,1,8,0:0:0:0:
256,192,18817,1,8,0:0:0:0:
256,192,19020,1,0,0:0:0:0:
256,192,19223,1,8,0:0:0:0:
256,192,19425,1,0,0:0:0:0:
256,192,19628,1,4,0:0:0:0:
256,192,20337,1,8,0:0:0:0:
256,192,20439,1,8,0:0:0:0:
256,192,20641,1,0,0:0:0:0:
256,192,20844,1,8,0:0:0:0:
256,192,21148,1,0,0:0:0:0:
256,192,21250,1,0,0:0:0:0:
256,192,21655,1,8,0:0:0:0:
256,192,21959,1,8,0:0:0:0:
256,192,22060,1,0,0:0:0:0:
256,192,22263,1,0,0:0:0:0:
256,192,22466,1,8,0:0:0:0:
256,192,22871,1,4,0:0:0:0:
256,192,23277,1,8,0:0:0:0:
256,192,23581,1,8,0:0:0:0:
256,192,23682,1,0,0:0:0:0:
256,192,23885,1,0,0:0:0:0:
256,192,24087,1,8,0:0:0:0:
256,192,24391,1,0,0:0:0:0:
256,192,24493,1,0,0:0:0:0:
256,192,24696,1,0,0:0:0:0:
256,192,24898,1,8,0:0:0:0:
256,192,25101,1,0,0:0:0:0:
256,192,25304,1,8,0:0:0:0:
256,192,25506,1,0,0:0:0:0:
256,192,25709,1,8,0:0:0:0:
256,192,26114,1,12,0:0:0:0:
256,192,26317,1,0,0:0:0:0:
256,192,26520,1,8,0:0:0:0:
256,192,27128,1,0,0:0:0:0:
256,192,27331,1,8,0:0:0:0:
256,192,27533,1,0,0:0:0:0:
256,192,27736,1,8,0:0:0:0:
256,192,28141,1,8,0:0:0:0:
256,192,28344,1,0,0:0:0:0:
256,192,28547,1,8,0:0:0:0:
256,192,28750,1,8,0:0:0:0:
256,192,28952,1,0,0:0:0:0:
256,192,29054,1,0,0:0:0:0:
256,192,29155,1,0,0:0:0:0:
256,192,29358,1,8,0:0:0:0:
256,192,29560,1,0,0:0:0:0:
256,192,29763,1,8,0:0:0:0:
256,192,30371,1,8,0:0:0:0:
256,192,30574,1,8,0:0:0:0:
256,192,30777,1,0,0:0:0:0:
256,192,30979,1,8,0:0:0:0:
256,192,31385,1,8,0:0:0:0:
256,192,31587,1,0,0:0:0:0:
256,192,31790,1,8,0:0:0:0:
256,192,31993,1,0,0:0:0:0:
256,192,32196,1,8,0:0:0:0:
256,192,32398,1,0,0:0:0:0:
256,192,32500,1,0,0:0:0:0:
256,192,32601,1,0,0:0:0:0:
256,192,32804,1,8,0:0:0:0:
256,192,33006,1,8,0:0:0:0:
256,192,33614,1,0,0:0:0:0:
256,192,33817,1,8,0:0:0:0:
256,192,34020,1,0,0:0:0:0:
256,192,34223,1,0,0:0:0:0:
256,192,34425,1,8,0:0:0:0:
256,192,34527,1,8,0:0:0:0:
256,192,34628,1,8,0:0:0:0:
256,192,34831,1,0,0:0:0:0:
256,192,35033,1,8,0:0:0:0:
256,192,35439,1,8,0:0:0:0:
256,192,35641,1,8,0:0:0:0:
256,192,35844,1,0,0:0:0:0:
256,192,36047,1,0,0:0:0:0:
256,192,36250,1,8,0:0:0:0:
256,192,37060,1,8,0:0:0:0:
256,192,37263,1,0,0:0:0:0:
256,192,37466,1,0,0:0:0:0:
256,192,37668,1,8,0:0:0:0:
256,192,37871,1,8,0:0:0:0:
256,192,38277,1,8,0:0:0:0:
256,192,38479,1,0,0:0:0:0:
256,192,38682,1,8,0:0:0:0:
256,192,38885,1,0,0:0:0:0:
256,192,39087,1,8,0:0:0:0:
256,192,39290,1,0,0:0:0:0:
256,192,39493,1,8,0:0:0:0:
256,192,40101,1,0,0:0:0:0:
256,192,40304,1,8,0:0:0:0:
256,192,40506,1,0,0:0:0:0:
256,192,40709,1,8,0:0:0:0:
256,192,41114,1,8,0:0:0:0:
256,192,41317,1,0,0:0:0:0:
256,192,41520,1,8,0:0:0:0:
256,192,41723,1,8,0:0:0:0:
256,192,41925,1,0,0:0:0:0:
256,192,42027,1,0,0:0:0:0:
256,192,42128,1,0,0:0:0:0:
256,192,42331,1,8,0:0:0:0:
256,192,42533,1,0,0:0:0:0:
256,192,42736,1,8,0:0:0:0:
256,192,43344,1,8,0:0:0:0:
256,192,43547,1,8,0:0:0:0:
256,192,43750,1,0,0:0:0:0:
256,192,43952,1,8,0:0:0:0:
256,192,44358,1,8,0:0:0:0:
256,192,44560,1,8,0:0:0:0:
256,192,44763,1,0,0:0:0:0:
256,192,44966,1,0,0:0:0:0:
256,192,45168,1,8,0:0:0:0:
256,192,45371,1,0,0:0:0:0:
256,192,45473,1,0,0:0:0:0:
256,192,45574,1,0,0:0:0:0:
256,192,45777,1,8,0:0:0:0:
256,192,45979,1,8,0:0:0:0:
256,192,46587,1,8,0:0:0:0:
256,192,46790,1,8,0:0:0:0:
256,192,46993,1,0,0:0:0:0:
256,192,47196,1,8,0:0:0:0:
256,192,47601,1,8,0:0:0:0:
256,192,47804,1,8,0:0:0:0:
256,192,48006,1,0,0:0:0:0:
256,192,48209,1,8,0:0:0:0:
256,192,48310,1,8,0:0:0:0:
256,192,48412,1,8,0:0:0:0:
256,192,48614,1,0,0:0:0:0:
256,192,48817,1,8,0:0:0:0:
256,192,49020,1,0,0:0:0:0:
256,192,49223,1,8,0:0:0:0:
256,192,49628,1,0,0:0:0:0:
256,192,50033,1,8,0:0:0:0:
256,192,50236,1,8,0:0:0:0:
256,192,50439,1,0,0:0:0:0:
256,192,50641,1,0,0:0:0:0:
256,192,50844,1,8,0:0:0:0:
256,192,51250,1,8,0:0:0:0:
256,192,51452,1,0,0:0:0:0:
256,192,51655,1,8,0:0:0:0:
256,192,51858,1,0,0:0:0:0:
256,192,52060,1,12,0:0:0:0:
256,192,52466,1,12,0:0:0:0:
256,192,52871,1,12,0:0:0:0:
256,192,53074,1,0,0:0:0:0:
256,192,53277,1,12,0:0:0:0:
256,192,53682,1,8,0:0:0:0:
256,192,53885,1,0,0:0:0:0:
256,192,54087,1,0,0:0:0:0:
256,192,54290,1,8,0:0:0:0:
256,192,54391,1,8,0:0:0:0:
256,192,54493,1,8,0:0:0:0:
256,192,54696,1,0,0:0:0:0:
256,192,54898,1,8,0:0:0:0:
256,192,55506,1,0,0:0:0:0:
256,192,55709,1,8,0:0:0:0:
256,192,56114,1,8,0:0:0:0:
256,192,56317,1,0,0:0:0:0:
256,192,56520,1,8,0:0:0:0:
256,192,56925,1,0,0:0:0:0:
256,192,57128,1,8,0:0:0:0:
256,192,57331,1,8,0:0:0:0:
256,192,57736,1,8,0:0:0:0:
256,192,57939,1,0,0:0:0:0:
256,192,58141,1,8,0:0:0:0:
256,192,58547,1,12,0:0:0:0:
256,192,58952,1,12,0:0:0:0:
256,192,59358,1,12,0:0:0:0:
256,192,59560,1,0,0:0:0:0:
256,192,59763,1,12,0:0:0:0:
256,192,60168,1,8,0:0:0:0:
256,192,60371,1,0,0:0:0:0:
256,192,60574,1,0,0:0:0:0:
256,192,60777,1,8,0:0:0:0:
256,192,60878,1,8,0:0:0:0:
256,192,60979,1,8,0:0:0:0:
256,192,61182,1,0,0:0:0:0:
256,192,61385,1,8,0:0:0:0:
256,192,61993,1,0,0:0:0:0:
256,192,62196,1,8,0:0:0:0:
256,192,62601,1,8,0:0:0:0:
256,192,62804,1,0,0:0:0:0:
256,192,63006,1,8,0:0:0:0:
256,192,63412,1,0,0:0:0:0:
256,192,63614,1,8,0:0:0:0:
256,192,63817,1,8,0:0:0:0:
256,192,64223,1,0,0:0:0:0:
256,192,64425,1,8,0:0:0:0:
256,192,64527,1,8,0:0:0:0:
256,192,64628,1,8,0:0:0:0:
256,192,64831,1,8,0:0:0:0:
256,192,65033,1,4,0:0:0:0:
256,192,65439,1,12,0:0:0:0:
256,192,65844,1,12,0:0:0:0:
256,192,66047,1,0,0:0:0:0:
256,192,66250,1,12,0:0:0:0:
256,192,66655,1,8,0:0:0:0:
256,192,66858,1,8,0:0:0:0:
256,192,67060,1,0,0:0:0:0:
256,192,67162,1,0,0:0:0:0:
256,192,67263,1,0,0:0:0:0:
256,192,67466,1,8,0:0:0:0:
256,192,67668,1,0,0:0:0:0:
256,192,67871,1,8,0:0:0:0:
256,192,68479,1,0,0:0:0:0:
256,192,68682,1,8,0:0:0:0:
256,192,69087,1,8,0:0:0:0:
256,192,69290,1,0,0:0:0:0:
256,192,69493,1,8,0:0:0:0:
256,192,69898,1,0,0:0:0:0:
256,192,70101,1,8,0:0:0:0:
256,192,70304,1,8,0:0:0:0:
256,192,70709,1,8,0:0:0:0:
256,192,70912,1,0,0:0:0:0:
256,192,71114,1,8,0:0:0:0:
256,192,71520,1,12,0:0:0:0:
256,192,71925,1,12,0:0:0:0:
256,192,72331,1,12,0:0:0:0:
256,192,72533,1,0,0:0:0:0:
256,192,72736,1,12,0:0:0:0:
256,192,72939,1,0,0:0:0:0:
256,192,73141,1,8,0:0:0:0:
256,192,74763,1,4,0:0:0:0:
256,192,75168,1,8,0:0:0:0:
256,192,75473,1,8,0:0:0:0:
256,192,75574,1,8,0:0:0:0:
256,192,75777,1,0,0:0:0:0:
256,192,75979,1,8,0:0:0:0:
256,192,76283,1,0,0:0:0:0:
256,192,76385,1,0,0:0:0:0:
256,192,76790,1,8,0:0:0:0:
256,192,77094,1,8,0:0:0:0:
256,192,77196,1,0,0:0:0:0:
256,192,77398,1,0,0:0:0:0:
256,192,77601,1,8,0:0:0:0:
256,192,78006,1,4,0:0:0:0:
256,192,78412,1,8,0:0:0:0:
256,192,78716,1,8,0:0:0:0:
256,192,78817,1,8,0:0:0:0:
256,192,79223,1,8,0:0:0:0:
256,192,79527,1,0,0:0:0:0:
256,192,79628,1,8,0:0:0:0:
256,192,79831,1,0,0:0:0:0:
256,192,80033,1,8,0:0:0:0:
256,192,80439,1,0,0:0:0:0:
256,192,80540,1,0,0:0:0:0:
256,192,80641,1,0,0:0:0:0:
256,192,80844,1,8,0:0:0:0:
256,192,81047,1,0,0:0:0:0:
256,192,81250,1,4,0:0:0:0:
256,192,81655,1,8,0:0:0:0:
256,192,81959,1,8,0:0:0:0:
256,192,82060,1,8,0:0:0:0:
256,192,82263,1,0,0:0:0:0:
256,192,82466,1,8,0:0:0:0:
256,192,82770,1,0,0:0:0:0:
256,192,82871,1,0,0:0:0:0:
256,192,83277,1,8,0:0:0:0:
256,192,83581,1,8,0:0:0:0:
256,192,83682,1,0,0:0:0:0:
256,192,83885,1,0,0:0:0:0:
256,192,84087,1,8,0:0:0:0:
256,192,84493,1,4,0:0:0:0:
256,192,84898,1,8,0:0:0:0:
256,192,85202,1,8,0:0:0:0:
256,192,85304,1,8,0:0:0:0:
256,192,85709,1,8,0:0:0:0:
256,192,86013,1,0,0:0:0:0:
256,192,86114,1,0,0:0:0:0:
256,192,86317,1,0,0:0:0:0:
256,192,86520,1,8,0:0:0:0:
256,192,86723,1,0,0:0:0:0:
256,192,86925,1,8,0:0:0:0:
256,192,87128,1,0,0:0:0:0:
256,192,87331,1,8,0:0:0:0:
256,192,87736,1,12,0:0:0:0:
256,192,88141,1,8,0:0:0:0:
256,192,88344,1,0,0:0:0:0:
256,192,88547,1,8,0:0:0:0:
256,192,88750,1,0,0:0:0:0:
256,192,88952,1,8,0:0:0:0:
256,192,89155,1,0,0:0:0:0:
256,192,89256,1,0,0:0:0:0:
256,192,89763,1,4,0:0:0:0:
