osu file format v14

[General]
AudioFilename: audio.mp3
AudioLeadIn: 0
PreviewTime: 99600
Countdown: 0
SampleSet: Soft
StackLeniency: 0.7
Mode: 0
LetterboxInBreaks: 0
WidescreenStoryboard: 0

[Editor]
Bookmarks: 127725,137725,146475,156475
DistanceSpacing: 1
BeatDivisor: 4
GridSize: 8
TimelineZoom: 4.699998

[Metadata]
Title:podruga
TitleUnicode:подруга
Artist:kis-kis
ArtistUnicode:кис-кис
Creator:Froskya
Version:love disease
Source:
Tags:russian русский pop punk юность в стиле панк kis kiskis кис кискис kiskisnotdead revialink azinlen esu esutarosa casper casperisapotato
BeatmapID:3042887
BeatmapSetID:1483665

[Difficulty]
HPDrainRate:6
CircleSize:4.2
OverallDifficulty:9
ApproachRate:9.2
SliderMultiplier:1.7
SliderTickRate:1

[Events]
//Background and Video events
0,0,"bby.jpg",0,0
//Break Periods
2,100225,109655
//Storyboard Layer 0 (Background)
//Storyboard Layer 1 (Fail)
//Storyboard Layer 2 (Pass)
//Storyboard Layer 3 (Foreground)
//Storyboard Layer 4 (Overlay)
//Storyboard Sound Samples

[TimingPoints]
225,312.5,4,2,1,60,1,0
225,-125,4,2,1,60,0,0
7725,-111.111111111111,4,2,1,60,0,0
10225,-90.9090909090909,4,2,1,70,0,0
20225,-100,4,2,1,70,0,0
40225,-86.9565217391304,4,2,1,80,0,1
57725,-117.647058823529,4,2,1,80,0,0
58975,-100,4,2,1,60,0,0
60225,-100,4,2,1,70,0,0
80225,-86.9565217391304,4,2,1,90,0,1
97725,-100,4,2,1,80,0,0
98975,-100,4,2,1,80,0,0
100225,-100,4,2,1,60,0,0
118975,-111.111111111111,4,2,1,70,0,0
120225,-86.9565217391304,4,2,1,70,0,0
140225,-86.9565217391304,4,2,1,80,0,0
157568,-60.6060606060606,4,2,1,80,0,0
157881,-133.333333333333,4,2,1,5,0,0

[Colours]
Combo1 : 255,64,64
Combo2 : 190,190,190
Combo3 : 138,138,255
Combo4 : 138,138,138

[HitObjects]
126,51,225,6,0,L|110:195,1,136,4|2,3:0|3:0,0:0:0:0:
107,208,850,1,4,3:0:0:0:
26,258,1006,1,4,3:0:0:0:
107,341,1162,1,2,3:0:0:0:
107,341,1475,6,0,L|177:333,1,68,4|0,3:0|0:0,0:0:0:0:
268,289,1787,2,0,L|252:383,1,68,2|0,3:0|0:0,0:0:0:0:
352,271,2100,2,0,P|318:214|253:201,1,136,4|2,3:0|3:0,0:0:0:0:
156,44,2725,6,0,P|189:100|254:113,1,136,4|2,3:0|3:0,0:0:0:0:
272,101,3350,2,0,L|349:107,1,68,4|4,3:0|3:0,0:0:0:0:
422,40,3662,1,2,3:0:0:0:
422,40,3975,5,4,3:0:0:0:
366,109,4131,1,0,0:0:0:0:
445,195,4287,2,0,L|512:189,1,68,2|0,3:0|0:0,0:0:0:0:
468,291,4600,2,0,L|400:285,1,68,4|4,3:0|3:0,0:0:0:0:
290,214,4912,2,0,P|309:242|314:275,1,68,2|0,3:0|0:0,0:0:0:0:
171,367,5225,6,0,P|179:299|205:237,1,136,4|2,3:0|3:0,0:0:0:0:
217,218,5850,1,4,3:0:0:0:
151,150,6006,1,4,3:0:0:0:
258,104,6162,1,2,3:0:0:0:
258,104,6475,5,4,3:0:0:0:
180,19,6631,1,0,0:0:0:0:
134,125,6787,2,0,L|66:133,1,68,2|0,3:0|0:0,0:0:0:0:
105,217,7100,2,0,L|96:284,1,68,4|4,3:0|3:0,0:0:0:0:
210,327,7412,2,0,L|189:193,1,136,2|2,3:0|1:2,0:0:0:0:
291,47,8037,5,10,0:0:0:0:
361,151,8193,1,0,1:0:0:0:
359,161,8271,1,0,1:0:0:0:
357,171,8350,2,0,L|274:160,1,76.4999976654053,2|0,1:2|0:0,0:0:0:0:
404,77,8662,2,0,P|435:100|448:135,1,76.4999976654053,10|0,0:0|0:0,0:0:0:0:
355,272,8975,1,2,1:2:0:0:
474,226,9131,1,2,0:0:0:0:
355,272,9287,1,10,0:0:0:0:
215,196,9443,1,0,1:2:0:0:
218,206,9521,1,0,1:0:0:0:
221,215,9600,5,8,0:0:0:0:
369,360,9756,1,0,1:0:0:0:
314,181,9912,1,8,0:0:0:0:
199,339,10068,1,0,1:0:0:0:
472,205,10225,6,0,B|364:196|414:276|303:268,1,187.000005706787,6|10,1:2|0:0,0:0:0:0:
181,122,10693,1,0,0:0:0:0:
100,255,10850,2,0,B|91:209|79:160,1,93.5000028533936,2|0,1:2|1:2,0:0:0:0:
225,33,11162,2,0,B|213:78|204:124,1,93.5000028533936,10|0,0:0|0:0,0:0:0:0:
190,314,11475,5,2,1:2:0:0:
314,181,11631,1,2,0:0:0:0:
190,314,11787,2,0,P|146:311|111:276,1,93.5000028533936,10|0,0:0|0:0,0:0:0:0:
117,72,12100,1,2,1:2:0:0:
224,219,12256,1,0,1:2:0:0:
324,91,12412,2,0,L|198:105,1,93.5000028533936,10|0,0:0|0:0,0:0:0:0:
349,2,12725,6,0,P|411:64|390:156,2,187.000005706787,2|10|2,1:2|0:0|1:2,0:0:0:0:
200,106,13506,1,0,1:0:0:0:
341,209,13662,2,0,B|295:219|295:219|258:189,1,93.5000028533936,10|0,0:0|0:0,0:0:0:0:
150,19,13975,5,2,1:2:0:0:
108,249,14131,1,2,0:0:0:0:
150,19,14287,2,0,L|132:125,1,93.5000028533936,10|0,0:0|0:0,0:0:0:0:
101,279,14600,1,2,1:2:0:0:
40,102,14756,1,0,1:0:0:0:
258,189,14912,2,0,L|240:295,1,93.5000028533936,10|0,0:0|0:0,0:0:0:0:
69,348,15225,6,0,B|110:301|110:301|243:323,1,187.000005706787,2|10,1:2|0:0,0:0:0:0:
451,359,15693,1,0,0:0:0:0:
366,188,15850,2,0,P|411:206|433:245,1,93.5000028533936,2|0,1:2|1:0,0:0:0:0:
299,376,16162,2,0,P|256:359|232:320,1,93.5000028533936,10|0,0:0|0:0,0:0:0:0:
350,100,16475,5,2,1:2:0:0:
376,328,16631,1,2,0:0:0:0:
350,100,16787,2,0,P|305:118|283:157,1,93.5000028533936,10|0,0:0|0:0,0:0:0:0:
232,321,17100,1,2,1:2:0:0:
366,188,17256,1,0,1:0:0:0:
439,327,17412,2,0,L|431:226,1,93.5000028533936,10|0,0:0|0:0,0:0:0:0:
414,23,17725,5,2,1:2:0:0:
361,99,17881,1,0,1:0:0:0:
267,27,18037,1,10,0:0:0:0:
218,187,18193,5,0,1:0:0:0:
218,187,18271,1,0,1:0:0:0:
218,187,18350,1,2,1:2:0:0:
277,116,18506,1,0,1:0:0:0:
166,74,18662,1,10,0:0:0:0:
321,8,18818,5,0,1:0:0:0:
321,8,18896,1,0,1:0:0:0:
321,8,18975,1,2,1:2:0:0:
333,174,19131,1,2,1:2:0:0:
236,30,19287,1,10,0:0:0:0:
218,187,19443,5,0,1:0:0:0:
218,187,19521,1,0,1:0:0:0:
218,187,19600,1,10,0:0:0:0:
308,85,19756,1,0,1:0:0:0:
362,264,19912,1,10,0:0:0:0:
307,63,20068,1,0,1:0:0:0:
194,208,20225,6,0,B|102:206|132:270|37:256,1,170,6|10,1:2|0:0,0:0:0:0:
97,129,20693,1,2,0:0:0:0:
183,295,20850,2,0,P|223:325|269:322,1,85,2|0,1:2|1:0,0:0:0:0:
382,209,21162,1,10,0:0:0:0:
413,367,21318,1,2,0:0:0:0:
376,184,21475,6,0,L|469:174,1,85,2|0,1:2|0:0,0:0:0:0:
281,108,21787,2,0,L|271:192,1,85,10|0,0:0|0:0,0:0:0:0:
430,80,22100,1,2,1:2:0:0:
385,268,22256,2,0,L|375:183,1,85,2|8,1:2|0:0,0:0:0:0:
352,10,22568,1,2,0:0:0:0:
267,220,22725,6,0,P|189:196|166:118,1,170,2|10,1:2|0:0,0:0:0:0:
105,273,23193,1,2,0:0:0:0:
18,118,23350,2,0,P|48:88|89:78,1,85,2|0,1:2|1:2,0:0:0:0:
254,135,23662,1,10,0:0:0:0:
92,181,23818,1,2,0:0:0:0:
282,128,23975,6,0,L|298:226,1,85,2|0,1:2|0:0,0:0:0:0:
174,331,24287,2,0,L|187:247,1,85,10|0,0:0|0:0,0:0:0:0:
339,312,24600,1,2,1:2:0:0:
198,167,24756,1,2,1:2:0:0:
339,312,24912,2,0,P|376:291|392:252,1,85,8|2,0:0|0:0,0:0:0:0:
409,41,25225,5,2,1:2:0:0:
409,41,25537,1,10,0:0:0:0:
316,187,25693,1,2,0:0:0:0:
260,74,25850,1,2,1:2:0:0:
417,152,26006,1,2,1:2:0:0:
242,66,26162,2,0,L|220:173,1,85,10|2,0:0|0:0,0:0:0:0:
189,329,26475,5,2,1:2:0:0:
189,329,26787,1,10,0:0:0:0:
107,218,26943,1,2,0:0:0:0:
302,271,27100,1,2,1:2:0:0:
346,121,27256,1,2,1:2:0:0:
218,235,27412,1,10,0:0:0:0:
216,63,27568,1,2,0:0:0:0:
380,207,27725,6,0,B|307:212|307:212|283:233|283:233|218:235,1,170,2|8,1:2|0:0,0:0:0:0:
119,104,28193,1,0,0:0:0:0:
119,104,28350,2,0,L|109:206,1,85,0|0,1:0|1:0,0:0:0:0:
2,255,28662,1,8,0:0:0:0:
99,20,28818,2,0,B|194:12|154:75|257:62,1,170,2|2,0:0|0:0,0:0:0:0:
465,46,29287,5,10,0:0:0:0:
357,198,29443,1,2,0:0:0:0:
334,12,29600,1,2,1:2:0:0:
360,221,29756,1,2,1:2:0:0:
479,69,29912,1,10,0:0:0:0:
275,155,30068,1,2,0:0:0:0:
448,238,30225,6,0,L|363:247,1,85,2|0,1:2|0:0,0:0:0:0:
256,343,30537,2,0,L|265:258,1,85,10|2,0:0|0:0,0:0:0:0:
291,67,30850,1,2,1:2:0:0:
189,186,31006,1,2,1:2:0:0:
306,49,31162,2,0,L|391:58,1,85,10|2,0:0|0:0,0:0:0:0:
273,177,31475,6,0,L|188:186,1,85,2|0,1:2|0:0,0:0:0:0:
125,38,31787,2,0,B|138:78|138:78|126:118,1,85,10|0,0:0|0:0,0:0:0:0:
46,292,32100,1,2,1:2:0:0:
16,99,32256,2,0,B|2:139|2:139|14:179,1,85,2|8,1:2|0:0,0:0:0:0:
151,286,32568,1,2,0:0:0:0:
217,103,32725,6,0,P|205:174|187:283,1,170,2|10,1:2|0:0,0:0:0:0:
276,343,33193,1,2,0:0:0:0:
380,164,33350,1,2,1:2:0:0:
462,318,33506,1,2,1:2:0:0:
368,144,33662,2,0,P|335:121|285:121,1,85,10|0,0:0|0:0,0:0:0:0:
189,270,33975,6,0,P|230:269|266:246,1,85,2|0,1:2|0:0,0:0:0:0:
304,38,34287,2,0,P|263:39|227:62,1,85,10|0,0:0|0:0,0:0:0:0:
165,254,34600,1,2,1:2:0:0:
291,119,34756,2,0,P|333:120|368:144,1,85,2|8,1:2|0:0,0:0:0:0:
396,347,35068,1,2,0:0:0:0:
512,211,35225,5,2,1:2:0:0:
512,211,35537,1,10,0:0:0:0:
396,347,35693,1,2,0:0:0:0:
370,152,35850,1,2,1:2:0:0:
509,304,36006,1,2,1:2:0:0:
311,229,36162,2,0,P|302:270|294:312,1,85,8|2,0:0|0:0,0:0:0:0:
210,145,36475,5,2,1:2:0:0:
210,145,36787,1,8,0:0:0:0:
382,64,36943,1,2,0:0:0:0:
311,229,37100,1,2,1:2:0:0:
230,54,37256,1,2,1:2:0:0:
142,207,37412,1,10,0:0:0:0:
311,126,37568,1,2,0:0:0:0:
293,311,37725,6,0,P|359:262|438:283,2,170,2|8|0,1:2|0:0|1:2,0:0:0:0:
179,222,38506,1,0,1:0:0:0:
86,360,38662,1,8,0:0:0:0:
3,181,38818,1,2,1:3:0:0:
3,181,39600,5,2,3:2:0:0:
75,122,39756,1,2,3:2:0:0:
137,192,39912,1,2,3:2:0:0:
202,126,40068,1,0,3:0:0:0:
373,207,40225,6,0,B|263:198|317:135|203:127,2,195.500003728867,6|8|2,1:2|0:0|1:2,0:0:0:0:
499,109,41006,1,0,1:2:0:0:
421,301,41162,2,0,L|402:179,1,97.7500018644333,10|0,0:0|0:0,0:0:0:0:
376,25,41475,5,2,1:2:0:0:
293,214,41631,1,2,0:0:0:0:
483,139,41787,2,0,P|433:130|379:116,1,97.7500018644333,10|2,0:0|0:0,0:0:0:0:
283,21,42100,1,0,1:0:0:0:
195,196,42256,2,0,P|245:187|299:173,2,97.7500018644333,2|8|0,1:2|0:0|0:0,0:0:0:0:
42,22,42725,6,0,P|107:31|119:158,1,195.500003728867,2|8,1:2|0:0,0:0:0:0:
50,323,43193,1,2,0:0:0:0:
291,176,43350,2,0,P|282:224|271:271,1,97.7500018644333,2|0,1:2|1:0,0:0:0:0:
465,353,43662,2,0,P|454:305|445:257,1,97.7500018644333,8|0,0:0|0:0,0:0:0:0:
306,89,43975,5,2,1:2:0:0:
362,262,44131,1,2,0:0:0:0:
504,0,44287,1,10,0:0:0:0:
409,137,44443,2,0,P|446:168|493:170,1,97.7500018644333,2|0,0:0|1:0,0:0:0:0:
345,4,44756,1,2,1:2:0:0:
291,176,44912,2,0,P|254:207|206:208,1,97.7500018644333,8|0,0:0|0:0,0:0:0:0:
36,112,45225,6,0,B|110:105|110:105|146:127|146:127|232:120,1,195.500003728867,2|8,1:2|0:0,0:0:0:0:
362,34,45693,1,2,0:0:0:0:
403,260,45850,2,0,B|424:216|424:216|404:171,1,97.7500018644333,2|0,1:2|1:0,0:0:0:0:
245,28,46162,2,0,B|225:72|225:72|246:116,1,97.7500018644333,8|0,0:0|0:0,0:0:0:0:
361,334,46475,5,2,1:2:0:0:
292,197,46631,1,2,0:0:0:0:
173,359,46787,1,10,0:0:0:0:
43,266,46943,2,0,B|92:259|145:251,1,97.7500018644333,2|0,0:0|1:2,0:0:0:0:
300,380,47256,2,0,B|251:373|203:365,1,97.7500018644333,2|8,1:2|0:0,0:0:0:0:
193,172,47568,1,2,0:0:0:0:
395,241,47725,6,0,B|283:248|329:162|222:167,1,195.500003728867,6|10,1:2|0:0,0:0:0:0:
104,351,48193,1,2,0:0:0:0:
46,120,48350,2,0,P|92:95|192:188,1,195.500003728867,6|10,1:2|0:0,0:0:0:0:
203,365,48818,1,2,0:0:0:0:
333,113,48975,6,0,P|318:209|302:305,2,195.500003728867,4|8|2,1:2|0:0|1:2,0:0:0:0:
457,206,49756,1,2,0:0:0:0:
344,22,49912,2,0,P|297:25|261:57,1,97.7500018644333,10|0,0:0|0:0,0:0:0:0:
228,240,50225,6,0,P|326:226|451:208,2,195.500003728867,6|8|2,1:2|0:0|1:2,0:0:0:0:
333,113,51006,1,0,1:0:0:0:
489,271,51162,2,0,P|453:303|405:306,1,97.7500018644333,10|2,0:0|0:0,0:0:0:0:
245,92,51475,5,2,1:2:0:0:
421,212,51631,1,2,0:0:0:0:
228,240,51787,2,0,L|241:336,1,97.7500018644333,10|2,0:0|0:0,0:0:0:0:
405,306,52100,1,0,1:0:0:0:
333,113,52256,2,0,L|319:209,2,97.7500018644333,2|8|0,1:2|0:0|0:0,0:0:0:0:
148,110,52725,6,0,P|237:94|357:70,1,195.500003728867,2|8,1:2|0:0,0:0:0:0:
476,149,53193,1,2,0:0:0:0:
338,305,53350,2,0,P|327:257|318:209,1,97.7500018644333,2|0,1:2|1:0,0:0:0:0:
146,278,53662,2,0,P|136:326|125:373,1,97.7500018644333,8|0,0:0|0:0,0:0:0:0:
84,164,53975,5,2,1:2:0:0:
237,258,54131,1,2,0:0:0:0:
32,306,54287,1,10,0:0:0:0:
210,180,54443,2,0,P|257:175|296:202,1,97.7500018644333,2|0,0:0|1:0,0:0:0:0:
385,376,54756,1,2,1:2:0:0:
502,219,54912,2,0,P|454:214|415:241,1,97.7500018644333,8|0,0:0|0:0,0:0:0:0:
240,373,55225,6,0,P|225:280|207:159,1,195.500003728867,2|8,1:2|0:0,0:0:0:0:
29,40,55693,1,2,0:0:0:0:
32,218,55850,2,0,P|80:217|118:189,1,97.7500018644333,2|0,1:2|1:0,0:0:0:0:
186,32,56162,2,0,P|234:32|272:60,1,97.7500018644333,8|0,0:0|0:0,0:0:0:0:
366,244,56475,5,2,1:2:0:0:
497,120,56631,1,2,0:0:0:0:
512,344,56787,1,10,0:0:0:0:
361,129,56943,2,0,P|350:196|342:243,1,97.7500018644333,2|0,0:0|1:0,0:0:0:0:
208,371,57256,2,0,P|199:322|192:274,1,97.7500018644333,2|8,1:2|0:0,0:0:0:0:
367,99,57568,1,2,0:0:0:0:
289,337,57725,6,0,P|280:292|269:241,1,72.2500013780594,4|0,1:2|0:0,0:0:0:0:
247,113,58037,1,8,0:0:0:0:
158,267,58193,1,4,3:0:0:0:
158,267,58350,1,4,3:0:0:0:
89,172,58506,1,8,3:0:0:0:
266,227,58662,1,8,0:0:0:0:
151,80,58818,5,4,3:0:0:0:
151,80,58896,1,4,3:0:0:0:
151,80,58975,1,4,3:0:0:0:
157,243,59131,1,8,3:0:0:0:
324,99,59287,1,8,0:0:0:0:
274,266,59443,5,4,3:0:0:0:
274,266,59521,1,4,3:0:0:0:
274,266,59600,1,4,3:0:0:0:
352,195,59756,1,8,3:0:0:0:
242,154,59912,1,8,0:0:0:0:
425,114,60068,1,4,3:0:0:0:
220,55,60225,6,0,P|150:97|146:179,1,170,4|10,1:2|0:0,0:0:0:0:
202,366,60693,1,2,0:0:0:0:
358,256,60850,2,0,L|244:269,1,85,2|2,1:2|1:2,0:0:0:0:
114,286,61162,1,10,0:0:0:0:
242,154,61318,1,2,0:0:0:0:
97,303,61475,6,0,P|88:262|77:209,1,85,2|0,1:2|0:0,0:0:0:0:
227,368,61787,2,0,P|236:326|244:284,1,85,10|0,0:0|0:0,0:0:0:0:
348,139,62100,1,2,1:2:0:0:
429,290,62256,2,0,P|387:284|357:255,1,85,2|8,1:2|0:0,0:0:0:0:
483,47,62568,1,2,0:0:0:0:
348,139,62725,6,0,B|312:90|312:90|186:104,1,170,2|8,1:2|0:0,0:0:0:0:
25,230,63193,1,2,0:0:0:0:
85,60,63350,2,0,L|97:144,1,85,2|2,1:2|1:2,0:0:0:0:
229,266,63662,2,0,L|241:181,1,85,10|2,0:0|0:0,0:0:0:0:
88,282,63975,2,0,B|185:292|136:341|237:351,2,170,2|10|2,1:2|0:0|1:2,0:0:0:0:
240,181,64756,1,2,1:2:0:0:
92,370,64912,1,8,0:0:0:0:
16,203,65068,1,2,0:0:0:0:
229,266,65225,5,2,1:2:0:0:
229,266,65537,1,10,0:0:0:0:
143,85,65693,1,2,0:0:0:0:
302,174,65850,1,2,1:2:0:0:
133,257,66006,1,2,1:2:0:0:
242,75,66162,1,10,0:0:0:0:
313,273,66318,1,2,0:0:0:0:
377,87,66475,5,2,1:2:0:0:
377,87,66787,1,10,0:0:0:0:
403,231,66943,1,2,0:0:0:0:
224,162,67100,2,0,P|218:119|212:77,1,85,2|2,1:2|1:2,0:0:0:0:
315,191,67412,1,10,0:0:0:0:
113,233,67568,1,2,0:0:0:0:
117,35,67725,6,0,P|106:119|95:203,1,170,2|8,1:2|0:0,0:0:0:0:
213,330,68193,1,0,0:0:0:0:
213,330,68350,2,0,L|202:245,1,85,0|0,1:0|1:0,0:0:0:0:
261,134,68662,1,8,0:0:0:0:
349,372,68818,2,0,B|380:341|380:341|364:216,1,170,2|0,0:0|1:0,0:0:0:0:
439,23,69287,5,10,0:0:0:0:
280,139,69443,1,2,1:2:0:0:
480,198,69600,1,2,0:0:0:0:
261,134,69756,1,2,1:2:0:0:
464,38,69912,1,10,0:0:0:0:
388,221,70068,1,2,0:0:0:0:
281,30,70225,6,0,P|322:37|353:65,1,85,6|0,1:2|0:0,0:0:0:0:
392,240,70537,1,10,0:0:0:0:
280,139,70693,1,2,0:0:0:0:
493,114,70850,2,0,P|490:156|479:197,1,85,2|2,1:2|1:2,0:0:0:0:
302,321,71162,2,0,P|292:280|289:237,1,85,10|2,0:0|0:0,0:0:0:0:
97,261,71475,6,0,P|138:254|169:226,1,85,2|0,1:2|0:0,0:0:0:0:
197,45,71787,2,0,P|170:76|162:117,1,85,10|0,0:0|0:0,0:0:0:0:
220,311,72100,1,2,1:2:0:0:
363,124,72256,2,0,P|321:130|279:139,1,85,2|8,1:2|0:0,0:0:0:0:
103,179,72568,1,2,0:0:0:0:
245,334,72725,6,0,P|257:249|274:166,1,170,2|10,1:2|0:0,0:0:0:0:
372,276,73193,1,2,0:0:0:0:
486,132,73350,1,2,1:2:0:0:
349,296,73506,1,2,1:2:0:0:
388,101,73662,2,0,L|397:192,1,85,10|2,0:0|0:0,0:0:0:0:
419,22,73975,6,0,P|377:14|339:32,1,85,2|0,1:2|0:0,0:0:0:0:
190,181,74287,2,0,P|228:198|269:191,1,85,10|0,0:0|0:0,0:0:0:0:
446,43,74600,1,2,1:2:0:0:
423,274,74756,2,0,L|431:189,1,85,2|8,1:2|0:0,0:0:0:0:
512,358,75068,1,2,0:0:0:0:
489,134,75225,6,0,P|446:140|379:148,1,85,2|0,1:2|0:0,0:0:0:0:
252,330,75537,1,10,0:0:0:0:
205,117,75693,1,2,0:0:0:0:
335,219,75850,1,2,1:2:0:0:
157,284,76006,1,2,1:2:0:0:
358,212,76162,2,0,P|353:253|349:296,1,85,8|2,0:0|0:0,0:0:0:0:
178,112,76475,5,2,1:2:0:0:
178,112,76787,1,10,0:0:0:0:
252,256,76943,1,2,0:0:0:0:
325,66,77100,1,2,1:2:0:0:
179,203,77256,1,2,1:2:0:0:
375,161,77412,1,10,0:0:0:0:
231,43,77568,1,2,0:0:0:0:
160,220,77725,6,0,B|82:185|82:185|16:241,2,170,2|8|0,1:2|0:0|1:0,0:0:0:0:
291,161,78506,1,0,1:0:0:0:
370,305,78662,1,8,0:0:0:0:
472,133,78818,1,2,3:0:0:0:
472,133,79600,5,2,3:2:0:0:
472,133,79756,1,0,1:0:0:0:
381,70,79912,1,10,0:0:0:0:
306,151,80068,1,0,3:0:0:0:
114,119,80225,6,0,P|227:138|310:152,2,195.500003728867,6|8|2,1:2|0:0|1:2,0:0:0:0:
28,30,81006,1,0,1:0:0:0:
50,231,81162,2,0,P|22:188|23:131,1,97.7500018644333,10|0,0:0|0:0,0:0:0:0:
117,28,81475,5,2,1:2:0:0:
168,242,81631,1,2,0:0:0:0:
365,211,81787,2,0,P|327:181|279:179,1,97.7500018644333,10|2,0:0|0:0,0:0:0:0:
270,359,82100,1,0,1:0:0:0:
214,117,82256,2,0,P|255:91|303:93,2,97.7500018644333,2|8|0,1:2|0:0|0:0,0:0:0:0:
150,324,82725,6,0,P|172:223|192:130,1,195.500003728867,2|8,1:2|0:0,0:0:0:0:
353,256,83193,1,2,0:0:0:0:
512,44,83350,2,0,P|468:49|414:54,1,97.7500018644333,2|0,1:2|1:0,0:0:0:0:
260,219,83662,2,0,P|302:223|357:229,1,97.7500018644333,8|0,0:0|0:0,0:0:0:0:
216,35,83975,5,2,1:2:0:0:
266,250,84131,1,2,0:0:0:0:
360,114,84287,1,10,0:0:0:0:
473,284,84443,2,0,P|460:236|453:188,1,97.7500018644333,2|0,0:0|1:0,0:0:0:0:
438,23,84756,1,2,1:2:0:0:
278,101,84912,2,0,P|266:147|258:205,1,97.7500018644333,8|0,0:0|0:0,0:0:0:0:
177,385,85225,6,0,P|166:284|134:173,1,195.500003728867,2|8,1:2|0:0,0:0:0:0:
84,20,85693,1,2,0:0:0:0:
41,183,85850,2,0,P|89:177|144:158,1,97.7500018644333,2|0,1:2|1:0,0:0:0:0:
376,281,86162,2,0,P|329:265|281:257,1,97.7500018644333,8|0,0:0|0:0,0:0:0:0:
463,168,86475,5,2,1:2:0:0:
473,332,86631,1,2,0:0:0:0:
330,150,86787,1,10,0:0:0:0:
274,349,86943,2,0,P|265:292|283:255,1,97.7500018644333,2|0,0:0|1:0,0:0:0:0:
450,76,87256,2,0,P|470:119|463:167,1,97.7500018644333,2|8,1:2|0:0,0:0:0:0:
354,309,87568,1,2,0:0:0:0:
313,130,87725,6,0,P|385:184|376:280,1,195.500003728867,6|10,1:2|0:0,0:0:0:0:
198,377,88193,1,2,0:0:0:0:
53,210,88350,2,0,B|131:216|131:216|167:237|167:237|245:242,1,195.500003728867,6|10,1:2|0:0,0:0:0:0:
471,187,88818,1,2,0:0:0:0:
298,62,88975,6,0,B|194:58|240:144|128:137,2,195.500003728867,6|8|2,1:2|0:0|1:2,0:0:0:0:
471,187,89756,1,2,0:0:0:0:
278,241,89912,2,0,P|270:193|290:149,1,97.7500018644333,10|0,0:0|0:0,0:0:0:0:
503,358,90225,6,0,P|447:290|333:328,2,195.500003728867,6|8|2,1:2|0:0|1:2,0:0:0:0:
475,188,91006,1,0,1:0:0:0:
278,241,91162,2,0,P|309:204|356:191,1,97.7500018644333,10|2,0:0|0:0,0:0:0:0:
254,337,91475,5,2,1:2:0:0:
164,161,91631,1,2,0:0:0:0:
0,299,91787,2,0,P|47:304|89:273,1,97.7500018644333,10|2,0:0|0:0,0:0:0:0:
172,128,92100,1,0,1:2:0:0:
254,337,92256,2,0,P|293:364|341:360,2,97.7500018644333,2|8|0,1:2|0:0|0:0,0:0:0:0:
172,128,92725,6,0,B|281:114|243:185|357:165,1,195.500003728867,2|10,1:2|0:0,0:0:0:0:
260,28,93193,1,2,0:0:0:0:
110,185,93350,2,0,P|149:212|196:207,1,97.7500018644333,2|0,1:2|1:0,0:0:0:0:
330,77,93662,2,0,P|369:49|416:54,1,97.7500018644333,8|0,0:0|0:0,0:0:0:0:
320,272,93975,5,2,1:2:0:0:
485,110,94131,1,2,0:0:0:0:
443,338,94287,1,10,0:0:0:0:
330,77,94443,2,0,P|319:125|308:173,1,97.7500018644333,2|0,0:0|1:2,0:0:0:0:
250,367,94756,1,2,1:2:0:0:
96,200,94912,2,0,P|106:247|119:295,1,97.7500018644333,10|0,0:0|0:0,0:0:0:0:
211,27,95225,6,0,P|115:35|79:121,1,195.500003728867,2|8,1:2|0:0,0:0:0:0:
130,340,95693,1,2,0:0:0:0:
284,206,95850,2,0,B|239:186|239:186|195:207,1,97.7500018644333,2|0,1:2|1:0,0:0:0:0:
41,340,96162,2,0,B|86:360|86:360|130:339,1,97.7500018644333,8|0,0:0|0:0,0:0:0:0:
166,101,96475,5,2,1:2:0:0:
235,293,96631,1,2,0:0:0:0:
367,162,96787,1,10,0:0:0:0:
439,368,96943,2,0,P|394:371|352:338,1,97.7500018644333,2|0,0:2|1:0,0:0:0:0:
299,93,97256,2,0,P|336:63|384:65,1,97.7500018644333,2|8,1:2|0:0,0:0:0:0:
475,355,97568,1,2,0:0:0:0:
367,162,97725,6,0,B|309:170|309:170|276:206|276:206|202:216,1,170,6|8,1:2|0:0,0:0:0:0:
109,148,98193,1,0,3:0:0:0:
8,280,98350,1,4,3:0:0:0:
100,378,98506,1,8,3:0:0:0:
178,301,98662,1,4,3:0:0:0:
248,363,98818,1,4,3:0:0:0:
319,309,98975,6,0,L|315:329,1,21.25,8|8,0:0|0:0,0:0:0:0:
256,192,110225,12,2,117725,0:0:0:0:
262,113,118975,6,0,P|304:105|361:96,1,76.4999976654053,2|0,0:3|0:0,0:0:0:0:
196,237,119287,2,0,P|154:229|97:220,1,76.4999976654053,2|0,0:3|0:0,0:0:0:0:
407,42,119600,5,10,0:0:0:0:
418,78,119678,1,8,0:0:0:0:
419,116,119756,1,8,0:0:0:0:
406,152,119834,1,8,0:0:0:0:
384,183,119912,1,8,0:0:0:0:
365,216,119990,1,8,0:0:0:0:
360,254,120068,1,8,0:0:0:0:
367,291,120146,1,8,0:0:0:0:
382,326,120225,5,6,1:2:0:0:
260,172,120381,2,0,P|252:220|244:268,1,97.7500018644333,2|8,0:0|0:0,0:0:0:0:
81,315,120693,1,2,0:0:0:0:
81,315,120850,2,0,P|71:268|59:212,1,97.7500018644333,2|2,1:2|1:2,0:0:0:0:
196,383,121162,1,10,0:0:0:0:
260,172,121318,1,2,0:0:0:0:
260,172,121396,1,2,0:0:0:0:
260,172,121475,6,0,P|213:183|172:159,2,97.7500018644333,2|2|8,1:2|0:0|0:0,0:0:0:0:
402,20,121943,2,0,P|366:51|362:99,1,97.7500018644333,2|0,0:0|1:0,0:0:0:0:
383,296,122256,1,2,1:2:0:0:
485,98,122412,1,8,0:0:0:0:
371,317,122568,1,2,0:0:0:0:
227,99,122725,6,0,B|211:232|211:232|270:294,1,195.500003728867,2|10,1:2|0:0,0:0:0:0:
415,384,123193,1,2,0:0:0:0:
398,186,123350,2,0,L|301:200,1,97.7500018644333,2|0,1:2|1:0,0:0:0:0:
86,232,123662,1,10,0:0:0:0:
238,367,123818,1,2,0:0:0:0:
238,367,123896,1,2,0:0:0:0:
238,367,123975,6,0,L|131:352,2,97.7500018644333,2|2|8,1:2|0:0|0:0,0:0:0:0:
98,129,124443,2,0,L|116:224,1,97.7500018644333,2|0,0:0|1:2,0:0:0:0:
301,44,124756,1,2,1:2:0:0:
253,276,124912,1,10,0:0:0:0:
306,21,125068,1,2,0:0:0:0:
474,134,125225,6,0,B|400:140|400:140|364:119|364:119|278:126,1,195.500003728867,2|10,1:2|0:0,0:0:0:0:
101,149,125693,1,2,0:0:0:0:
225,317,125850,2,0,B|253:277|253:277|247:228,1,97.7500018644333,2|0,1:2|1:0,0:0:0:0:
216,31,126162,1,10,0:0:0:0:
97,173,126318,1,2,0:0:0:0:
97,173,126396,1,2,0:0:0:0:
97,173,126475,6,0,P|59:143|12:148,2,97.7500018644333,2|2|8,1:2|0:0|0:0,0:0:0:0:
253,276,126943,2,0,P|300:281|338:251,1,97.7500018644333,2|0,0:0|1:0,0:0:0:0:
432,61,127256,1,2,1:2:0:0:
227,108,127412,1,10,0:0:0:0:
461,53,127568,1,2,0:0:0:0:
390,330,127725,6,0,P|382:275|373:202,2,97.7500018644333,6|2|8,1:2|0:0|0:0,0:0:0:0:
454,163,128193,1,2,0:0:0:0:
281,210,128350,6,0,P|288:155|297:82,2,97.7500018644333,6|2|8,1:2|0:0|0:0,0:0:0:0:
217,43,128818,1,2,0:0:0:0:
441,66,128975,6,0,P|448:120|457:193,2,97.7500018644333,6|2|8,1:2|0:0|0:0,0:0:0:0:
376,233,129443,1,2,0:0:0:0:
293,113,129600,5,2,1:2:0:0:
191,242,129756,1,2,1:2:0:0:
112,128,129912,1,10,0:0:0:0:
25,304,130068,1,2,0:0:0:0:
25,304,130146,1,2,0:0:0:0:
25,304,130225,5,6,1:2:0:0:
215,170,130381,2,0,P|229:216|210:260,1,97.7500018644333,2|8,0:0|0:0,0:0:0:0:
43,174,130693,1,2,0:0:0:0:
43,174,130850,2,0,P|28:128|46:83,1,97.7500018644333,2|2,1:2|1:2,0:0:0:0:
115,261,131162,1,10,0:0:0:0:
182,47,131318,1,2,0:0:0:0:
182,47,131396,1,2,0:0:0:0:
182,47,131475,6,0,P|235:38|283:31,2,97.7500018644333,2|2|8,1:2|0:0|0:0,0:0:0:0:
350,189,131943,2,0,P|301:181|253:173,1,97.7500018644333,2|0,0:0|1:0,0:0:0:0:
387,41,132256,1,2,1:2:0:0:
427,244,132412,1,10,0:0:0:0:
380,14,132568,1,2,0:0:0:0:
168,162,132725,6,0,B|274:177|231:97|349:116,1,195.500003728867,2|10,1:2|0:0,0:0:0:0:
504,192,133193,1,2,0:0:0:0:
318,288,133350,2,0,B|337:243|337:243|317:198,1,97.7500018644333,2|0,1:2|1:0,0:0:0:0:
232,52,133662,1,10,0:0:0:0:
104,205,133818,1,2,0:0:0:0:
104,205,133896,1,2,0:0:0:0:
104,205,133975,6,0,B|84:160|84:160|104:115,2,97.7500018644333,2|2|8,1:2|0:0|0:0,0:0:0:0:
363,123,134443,2,0,B|318:103|318:103|273:123,1,97.7500018644333,2|0,0:0|1:2,0:0:0:0:
148,307,134756,1,2,1:2:0:0:
196,62,134912,1,10,0:0:0:0:
142,334,135068,1,2,0:0:0:0:
5,104,135225,6,0,B|77:110|77:110|119:83|119:83|191:89,1,195.500003728867,2|10,1:2|0:0,0:0:0:0:
413,117,135693,1,2,0:0:0:0:
216,266,135850,2,0,L|203:155,1,97.7500018644333,2|0,1:2|1:0,0:0:0:0:
358,307,136162,1,10,0:0:0:0:
328,91,136318,1,2,0:0:0:0:
328,91,136396,1,2,0:0:0:0:
328,91,136475,6,0,P|375:86|412:116,2,97.7500018644333,2|2|8,1:2|0:0|0:0,0:0:0:0:
216,266,136943,2,0,P|263:270|300:240,1,97.7500018644333,2|0,0:0|1:2,0:0:0:0:
478,78,137256,1,2,1:2:0:0:
229,131,137412,1,10,0:0:0:0:
503,74,137568,1,2,0:0:0:0:
396,321,137725,6,0,P|380:224|367:127,2,195.500003728867,2|10|2,1:2|0:0|1:2,0:0:0:0:
484,240,138506,1,0,1:0:0:0:
253,276,138662,2,0,P|245:324|238:372,1,97.7500018644333,10|0,0:0|0:0,0:0:0:0:
33,270,138975,2,0,P|122:287|184:210,1,195.500003728867,2|10,1:2|0:0,0:0:0:0:
49,32,139443,1,0,0:0:0:0:
95,204,139600,5,2,1:2:0:0:
284,77,139756,1,0,1:0:0:0:
237,372,139912,2,0,P|244:323|252:275,1,97.7500018644333,10|0,0:0|0:0,0:0:0:0:
512,269,140225,6,0,B|400:270|454:198|340:192,1,195.500003728867,6|10,1:2|0:0,0:0:0:0:
502,153,140693,1,0,0:0:0:0:
349,293,140850,2,0,P|299:283|233:273,1,97.7500018644333,2|0,1:2|1:0,0:0:0:0:
211,99,141162,2,0,P|258:89|307:81,1,97.7500018644333,10|0,0:0|0:0,0:0:0:0:
182,213,141475,5,2,1:2:0:0:
79,10,141631,1,2,0:0:0:0:
182,213,141787,2,0,P|135:207|105:170,1,97.7500018644333,10|0,0:0|0:0,0:0:0:0:
307,80,142100,1,2,1:2:0:0:
252,275,142256,1,0,1:0:0:0:
112,89,142412,2,0,P|64:94|34:131,1,97.7500018644333,10|0,0:0|0:0,0:0:0:0:
131,363,142725,6,0,P|116:263|104:169,2,195.500003728867,2|10|2,1:2|0:0|1:2,0:0:0:0:
181,122,143506,1,0,1:0:0:0:
228,287,143662,2,0,B|275:302|275:302|318:277,1,97.7500018644333,10|0,0:0|0:0,0:0:0:0:
461,42,143975,5,2,1:2:0:0:
280,128,144131,1,2,0:0:0:0:
461,42,144287,2,0,B|414:27|414:27|372:51,1,97.7500018644333,10|0,0:0|0:0,0:0:0:0:
260,142,144600,1,2,1:2:0:0:
424,277,144756,1,0,1:0:0:0:
190,346,144912,2,0,P|238:337|286:331,1,97.7500018644333,10|0,0:0|0:0,0:0:0:0:
29,277,145225,6,0,P|24:182|122:156,1,195.500003728867,2|10,1:2|0:0,0:0:0:0:
234,250,145693,1,0,0:0:0:0:
258,64,145850,2,0,P|306:55|354:48,1,97.7500018644333,2|0,1:2|1:0,0:0:0:0:
428,198,146162,2,0,P|379:189|331:182,1,97.7500018644333,10|0,0:0|0:0,0:0:0:0:
142,156,146475,5,2,1:2:0:0:
218,352,146631,1,2,0:0:0:0:
142,156,146787,2,0,P|134:204|126:252,1,97.7500018644333,10|0,0:0|0:0,0:0:0:0:
228,94,147100,1,2,1:2:0:0:
32,172,147256,1,0,1:0:0:0:
181,35,147412,2,0,P|225:17|271:32,1,97.7500018644333,10|0,0:0|0:0,0:0:0:0:
416,226,147725,6,0,B|326:266|326:266|242:209,2,195.500003728867,2|10|2,1:2|0:0|1:2,0:0:0:0:
352,0,148506,1,0,1:0:0:0:
375,164,148662,2,0,B|332:181|332:181|289:152,1,97.7500018644333,10|0,0:0|0:0,0:0:0:0:
181,35,148975,1,2,1:2:0:0:
89,275,149131,1,2,0:0:0:0:
181,35,149287,2,0,L|192:148,1,97.7500018644333,10|0,0:0|0:0,0:0:0:0:
321,309,149600,5,2,1:2:0:0:
142,207,149756,1,0,1:0:0:0:
384,66,149912,2,0,L|373:179,1,97.7500018644333,10|0,0:0|0:0,0:0:0:0:
171,335,150225,6,0,P|236:270|320:308,1,195.500003728867,6|10,1:2|0:0,0:0:0:0:
468,169,150693,1,0,0:0:0:0:
417,362,150850,2,0,P|404:301|399:259,1,97.7500018644333,2|0,1:2|1:0,0:0:0:0:
311,52,151162,2,0,P|304:100|293:148,1,97.7500018644333,10|0,0:0|0:0,0:0:0:0:
255,366,151475,5,2,1:2:0:0:
140,176,151631,1,2,0:0:0:0:
255,366,151787,2,0,P|210:366|164:322,1,97.7500018644333,10|0,0:0|0:0,0:0:0:0:
299,124,152100,1,2,1:2:0:0:
234,290,152256,1,0,1:0:0:0:
76,131,152412,2,0,P|112:100|160:99,1,97.7500018644333,10|0,0:0|0:0,0:0:0:0:
323,313,152725,6,0,B|308:229|308:229|317:215|317:215|292:89,2,195.500003728867,2|8|2,1:2|0:0|1:2,0:0:0:0:
426,232,153506,1,0,1:0:0:0:
354,49,153662,2,0,L|452:58,1,97.7500018644333,10|0,0:0|0:0,0:0:0:0:
223,203,153975,5,2,1:2:0:0:
439,146,154131,1,2,0:0:0:0:
223,203,154287,2,0,L|204:107,1,97.7500018644333,10|0,0:0|0:0,0:0:0:0:
346,285,154600,1,2,1:2:0:0:
113,177,154756,1,0,1:0:0:0:
323,43,154912,2,0,L|304:138,1,97.7500018644333,10|0,0:0|0:0,0:0:0:0:
240,356,155225,6,0,P|151:368|92:285,1,195.500003728867,2|10,1:2|0:0,0:0:0:0:
203,101,155693,1,0,0:0:0:0:
182,293,155850,2,0,P|232:267|287:292,1,97.7500018644333,2|0,1:2|1:0,0:0:0:0:
473,361,156162,2,0,P|425:369|385:344,1,97.7500018644333,10|0,0:0|0:0,0:0:0:0:
188,63,156475,5,2,1:2:0:0:
240,356,156631,1,2,0:0:0:0:
455,93,156787,5,10,0:0:0:0:
163,206,156943,1,2,1:2:0:0:
385,344,157100,5,8,0:0:0:0:
336,61,157256,1,2,1:2:0:0:
182,293,157412,5,8,0:0:0:0:
108,30,157568,2,0,B|155:-21|233:24|225:105|183:114|140:123|164:207,1,280.500002675057,2|0,0:0|0:0,0:0:0:0:
