osu file format v14

[General]
AudioFilename: audio.mp3
AudioLeadIn: 0
PreviewTime: 99600
Countdown: 0
SampleSet: Soft
StackLeniency: 0.7
Mode: 0
LetterboxInBreaks: 0
WidescreenStoryboard: 1

[Editor]
Bookmarks: 110225
DistanceSpacing: 1.3
BeatDivisor: 4
GridSize: 8
TimelineZoom: 4.699998

[Metadata]
Title:podruga
TitleUnicode:подруга
Artist:kis-kis
ArtistUnicode:кис-кис
Creator:Froskya
Version:hard
Source:
Tags:russian русский pop punk юность в стиле панк kis kiskis кис кискис kiskisnotdead revialink azinlen esu esutarosa casper casperisapotato
BeatmapID:3053136
BeatmapSetID:1483665

[Difficulty]
HPDrainRate:5
CircleSize:3.5
OverallDifficulty:6
ApproachRate:8
SliderMultiplier:1.4
SliderTickRate:1

[Events]
//Background and Video events
0,0,"bby.jpg",0,0
//Break Periods
2,100225,109475
//Storyboard Layer 0 (Background)
//Storyboard Layer 1 (Fail)
//Storyboard Layer 2 (Pass)
//Storyboard Layer 3 (Foreground)
//Storyboard Layer 4 (Overlay)
//Storyboard Sound Samples

[TimingPoints]
225,312.5,4,2,1,60,1,0
225,-125,4,2,1,60,0,0
7725,-111.111111111111,4,2,1,60,0,0
10225,-100,4,2,1,70,0,0
17725,-111.111111111111,4,2,1,70,0,0
20225,-100,4,2,1,70,0,0
40225,-90.9090909090909,4,2,1,80,0,1
57725,-111.111111111111,4,2,1,80,0,0
58975,-111.111111111111,4,2,1,60,0,0
60225,-100,4,2,1,70,0,0
80225,-90.9090909090909,4,2,1,90,0,1
97725,-111.111111111111,4,2,1,80,0,0
98975,-111.111111111111,4,2,1,80,0,0
99600,-111.111111111111,4,2,1,50,0,0
100225,-111.111111111111,4,2,1,60,0,0
118975,-111.111111111111,4,2,1,70,0,0
120225,-100,4,2,1,70,0,0
140225,-100,4,2,1,80,0,0
157568,-100,4,2,1,80,0,0
157881,-100,4,2,1,5,0,0

[Colours]
Combo1 : 255,64,64
Combo2 : 190,190,190
Combo3 : 138,138,255
Combo4 : 138,138,138

[HitObjects]
26,36,225,6,0,B|65:60|65:60|135:52,1,112,4|2,3:0|3:0,0:0:0:0:
147,50,850,2,0,L|158:116,1,56,4|4,3:0|3:0,0:0:0:0:
168,182,1162,1,2,3:0:0:0:
171,199,1475,6,0,L|232:206,1,56,4|0,3:0|0:0,0:0:0:0:
275,144,1787,2,0,L|330:137,1,56,2|0,3:0|0:0,0:0:0:0:
377,74,2100,2,0,P|406:121|400:175,1,112,4|2,3:0|3:0,0:0:0:0:
414,340,2725,6,0,P|373:327|297:321,1,112,4|2,3:0|3:0,0:0:0:0:
288,324,3350,2,0,P|278:291|261:265,1,56,4|4,3:0|3:0,0:0:0:0:
226,205,3662,1,2,3:0:0:0:
216,191,3975,6,0,P|188:185|158:195,1,56,4|0,3:0|0:0,0:0:0:0:
116,256,4287,2,0,P|88:262|58:252,1,56,2|0,3:0|0:0,0:0:0:0:
4,201,4600,2,0,L|15:81,1,112,4|2,3:0|3:0,0:0:0:0:
168,31,5225,6,0,B|231:32|203:66|289:64,1,112,4|2,3:0|3:0,0:0:0:0:
285,75,5850,2,0,P|325:79|346:70,1,56,4|4,3:0|3:0,0:0:0:0:
392,17,6162,1,2,3:0:0:0:
409,14,6475,6,0,L|425:73,1,56,4|0,3:0|0:0,0:0:0:0:
476,126,6787,2,0,L|460:185,1,56,2|0,3:0|0:0,0:0:0:0:
400,229,7100,2,0,B|358:192|358:192|297:200,1,112,4|2,3:0|3:0,0:0:0:0:
135,231,7725,6,0,L|152:355,1,125.999996154785,2|10,1:2|0:0,0:0:0:0:
230,315,8193,1,0,1:0:0:0:
230,315,8271,1,0,1:0:0:0:
230,315,8350,2,0,L|219:246,1,62.9999980773926,2|0,1:2|0:0,0:0:0:0:
285,204,8662,2,0,L|274:135,1,62.9999980773926,10|0,0:0|0:0,0:0:0:0:
354,120,8975,1,2,1:2:0:0:
341,39,9131,1,2,0:0:0:0:
260,53,9287,2,0,L|191:64,1,62.9999980773926,10|0,0:0|1:2,0:0:0:0:
157,71,9521,1,0,1:0:0:0:
157,71,9600,6,0,L|94:61,1,62.9999980773926,8|0,0:0|1:0,0:0:0:0:
73,140,9912,2,0,L|10:149,1,62.9999980773926,8|0,0:0|1:0,0:0:0:0:
61,225,10225,6,0,P|50:308|40:381,2,140,6|10|2,1:2|0:0|1:2,0:0:0:0:
145,190,11006,1,0,1:2:0:0:
179,275,11162,2,0,P|207:296|241:296,1,70,10|0,0:0|0:0,0:0:0:0:
316,245,11475,1,2,1:2:0:0:
316,245,11631,1,2,0:0:0:0:
400,280,11787,2,0,L|415:205,1,70,10|0,0:0|0:0,0:0:0:0:
452,128,12100,2,0,L|437:53,1,70,2|0,1:2|1:2,0:0:0:0:
360,106,12412,2,0,P|332:126|298:126,1,70,10|0,0:0|0:0,0:0:0:0:
218,79,12725,6,0,P|171:30|99:39,2,140,2|10|2,1:2|0:0|1:2,0:0:0:0:
181,163,13506,1,0,1:0:0:0:
239,232,13662,2,0,B|252:267|252:267|243:298,1,70,10|0,0:0|0:0,0:0:0:0:
168,351,13975,1,2,1:2:0:0:
168,351,14131,1,2,0:0:0:0:
93,299,14287,2,0,P|59:299|29:282,1,70,10|0,0:0|0:0,0:0:0:0:
82,207,14600,2,0,P|112:190|146:190,1,70,2|0,1:2|1:0,0:0:0:0:
226,148,14912,2,0,L|217:78,1,70,10|0,0:0|0:0,0:0:0:0:
305,103,15225,6,0,B|385:102|350:146|449:146,2,140,2|10|2,1:2|0:0|1:2,0:0:0:0:
226,148,16006,1,0,1:0:0:0:
305,192,16162,2,0,P|327:218|334:252,1,70,10|0,0:0|0:0,0:0:0:0:
299,337,16475,1,2,1:2:0:0:
299,337,16631,1,2,0:0:0:0:
245,263,16787,2,0,L|162:250,1,70,10|0,0:0|0:0,0:0:0:0:
140,168,17100,2,0,L|70:178,1,70,2|0,1:2|1:0,0:0:0:0:
15,249,17412,2,0,P|12:283|27:314,1,70,10|0,0:0|0:0,0:0:0:0:
88,379,17725,6,0,L|228:360,1,125.999996154785,2|10,1:2|0:0,0:0:0:0:
293,346,18193,1,0,1:0:0:0:
293,346,18271,1,0,1:0:0:0:
293,346,18350,2,0,P|309:319|337:304,1,62.9999980773926,2|0,1:2|1:0,0:0:0:0:
416,291,18662,2,0,P|443:276|459:249,1,62.9999980773926,10|0,0:0|1:0,0:0:0:0:
476,212,18896,1,0,1:0:0:0:
476,212,18975,1,2,1:2:0:0:
430,143,19131,1,2,1:2:0:0:
389,215,19287,2,0,P|353:210|321:204,1,62.9999980773926,10|0,0:0|1:0,0:0:0:0:
246,224,19600,2,0,B|243:192|243:192|256:164,1,62.9999980773926,10|0,0:0|1:0,0:0:0:0:
323,119,19912,2,0,B|336:90|336:90|333:59,1,62.9999980773926,10|0,0:0|1:0,0:0:0:0:
253,15,20225,6,0,B|211:41|211:41|96:26,1,140,6|10,1:2|0:0,0:0:0:0:
35,59,20693,1,2,0:0:0:0:
78,139,20850,2,0,L|90:231,1,70,2|0,1:2|1:0,0:0:0:0:
152,272,21162,2,0,L|142:341,1,70,10|2,0:0|0:0,0:0:0:0:
230,319,21475,2,0,P|292:284|361:320,2,140,2|10|2,1:2|0:0|1:2,0:0:0:0:
152,272,22256,2,0,P|169:241|213:222,1,70,2|8,1:2|0:0,0:0:0:0:
284,196,22568,1,2,0:0:0:0:
284,196,22725,6,0,P|349:204|426:213,1,140,2|10,1:2|0:0,0:0:0:0:
403,124,23193,1,2,0:0:0:0:
450,46,23350,2,0,P|418:31|384:33,1,70,2|0,1:2|1:2,0:0:0:0:
309,85,23662,2,0,P|277:99|243:97,1,70,10|2,0:0|0:0,0:0:0:0:
168,43,23975,2,0,L|147:197,2,140,2|10|2,1:2|0:0|1:2,0:0:0:0:
242,98,24756,2,0,L|230:189,1,70,2|8,1:2|0:0,0:0:0:0:
220,257,25068,1,2,0:0:0:0:
220,257,25225,5,2,1:2:0:0:
401,241,25537,2,0,L|470:235,1,70,10|2,0:0|0:0,0:0:0:0:
430,325,25850,2,0,L|360:319,1,70,2|2,1:2|1:2,0:0:0:0:
298,251,26162,1,10,0:0:0:0:
253,339,26318,2,0,P|212:284|144:281,1,140,2|0,0:0|0:0,0:0:0:0:
63,322,26787,1,10,0:0:0:0:
21,241,26943,1,2,0:0:0:0:
102,199,27100,2,0,L|64:117,2,70,2|2|10,1:2|1:2|0:0,0:0:0:0:
145,280,27568,1,2,0:0:0:0:
145,280,27725,6,0,B|194:275|194:275|235:297|235:297|299:290,2,140,2|8|0,1:2|0:0|1:0,0:0:0:0:
102,199,28506,1,0,1:0:0:0:
190,178,28662,1,8,0:0:0:0:
167,90,28818,2,0,P|234:91|274:145,1,140,2|2,0:0|0:0,0:0:0:0:
356,186,29287,1,10,0:0:0:0:
439,150,29443,1,2,0:0:0:0:
511,205,29600,2,0,P|499:236|495:297,1,70,2|2,1:2|1:2,0:0:0:0:
424,330,29912,2,0,P|419:295|406:262,1,70,10|2,0:0|0:0,0:0:0:0:
356,186,30225,6,0,P|318:241|250:245,1,140,2|10,1:2|0:0,0:0:0:0:
190,178,30693,1,2,0:0:0:0:
104,209,30850,2,0,P|95:175|104:141,1,70,2|2,1:2|1:2,0:0:0:0:
172,84,31162,2,0,P|180:50|172:16,1,70,10|2,0:0|0:0,0:0:0:0:
257,48,31475,2,0,L|398:31,2,140,2|10|2,1:2|0:0|1:2,0:0:0:0:
172,84,32256,2,0,L|188:172,1,70,2|8,1:2|0:0,0:0:0:0:
265,194,32568,1,2,0:0:0:0:
265,194,32725,6,0,B|232:227|232:227|251:331,1,140,2|10,1:2|0:0,0:0:0:0:
329,360,33193,1,2,0:0:0:0:
414,327,33350,2,0,L|426:258,1,70,2|2,1:2|1:2,0:0:0:0:
499,204,33662,2,0,L|486:135,1,70,10|0,0:0|0:0,0:0:0:0:
400,108,33975,2,0,B|367:71|367:71|277:81,2,140,2|10|2,1:2|0:0|1:2,0:0:0:0:
332,168,34756,2,0,L|263:175,1,70,2|8,1:2|0:0,0:0:0:0:
189,120,35068,1,2,0:0:0:0:
189,120,35225,5,2,1:2:0:0:
303,259,35537,2,0,P|273:279|233:275,1,70,10|2,0:0|0:0,0:0:0:0:
172,218,35850,2,0,P|143:198|109:199,1,70,2|2,1:2|1:2,0:0:0:0:
53,270,36162,1,8,0:0:0:0:
6,191,36318,2,0,P|19:122|32:41,1,140,2|0,0:0|0:0,0:0:0:0:
107,101,36787,1,8,0:0:0:0:
170,36,36943,1,2,0:0:0:0:
252,75,37100,2,0,L|321:83,2,70,2|2|10,1:2|1:2|0:0,0:0:0:0:
240,165,37568,1,2,0:0:0:0:
240,165,37725,6,0,B|152:157|190:206|108:198,2,140,2|8|0,1:2|0:0|1:2,0:0:0:0:
309,224,38506,1,0,1:0:0:0:
260,300,38662,1,8,0:0:0:0:
324,363,38818,1,2,1:3:0:0:
324,363,39600,6,0,P|359:363|387:343,1,70,2|2,3:2|3:2,0:0:0:0:
475,325,39912,2,0,P|492:295|488:260,1,70,2|0,3:2|3:0,0:0:0:0:
504,161,40225,6,0,P|434:177|366:109,2,154.000004699707,6|8|2,1:2|0:0|1:2,0:0:0:0:
457,72,41006,1,0,1:2:0:0:
457,72,41162,2,0,P|435:41|383:28,1,77.0000023498536,10|0,0:0|0:0,0:0:0:0:
312,77,41475,2,0,L|236:87,1,77.0000023498536,2|2,1:2|0:0,0:0:0:0:
154,29,41787,1,10,0:0:0:0:
154,29,41943,2,0,L|141:122,1,77.0000023498536,2|0,0:0|1:0,0:0:0:0:
112,200,42256,2,0,P|74:197|41:216,2,77.0000023498536,2|8|0,1:2|0:0|0:0,0:0:0:0:
101,300,42725,6,0,B|196:306|150:256|247:270,1,154.000004699707,2|8,1:2|0:0,0:0:0:0:
320,337,43193,1,2,0:0:0:0:
320,337,43350,2,0,L|332:258,1,77.0000023498536,2|0,1:2|1:0,0:0:0:0:
429,278,43662,2,0,L|417:199,1,77.0000023498536,8|0,0:0|0:0,0:0:0:0:
363,117,43975,1,2,1:2:0:0:
290,186,44131,1,2,0:0:0:0:
205,133,44287,1,10,0:0:0:0:
205,133,44443,2,0,B|169:150|169:150|132:144,1,77.0000023498536,2|0,0:0|1:0,0:0:0:0:
32,139,44756,2,0,L|42:232,2,77.0000023498536,2|8|0,1:2|0:0|0:0,0:0:0:0:
93,59,45225,6,0,P|160:49|262:32,1,154.000004699707,2|8,1:2|0:0,0:0:0:0:
326,94,45693,1,2,0:0:0:0:
326,94,45850,2,0,P|364:104|406:110,1,77.0000023498536,2|0,1:2|1:0,0:0:0:0:
498,131,46162,2,0,P|477:166|486:215,1,77.0000023498536,8|0,0:0|0:0,0:0:0:0:
504,298,46475,1,2,1:2:0:0:
406,275,46631,1,2,0:0:0:0:
367,367,46787,1,10,0:0:0:0:
269,348,46943,2,0,P|229:353|174:360,1,77.0000023498536,2|0,0:0|1:2,0:0:0:0:
213,259,47256,2,0,P|174:254|136:249,1,77.0000023498536,2|8,1:2|0:0,0:0:0:0:
50,299,47568,1,2,0:0:0:0:
50,299,47725,6,0,P|30:233|84:171,1,154.000004699707,6|10,1:2|0:0,0:0:0:0:
40,80,48193,1,2,0:0:0:0:
40,80,48350,2,0,P|112:65|164:117,1,154.000004699707,6|10,1:2|0:0,0:0:0:0:
217,32,48818,1,2,0:0:0:0:
217,32,48975,2,0,P|269:85|341:70,2,154.000004699707,4|8|2,1:2|0:0|1:2,0:0:0:0:
164,117,49756,1,2,0:0:0:0:
244,175,49912,2,0,P|239:214|234:252,1,77.0000023498536,10|0,0:0|0:0,0:0:0:0:
293,332,50225,6,0,B|242:329|242:329|208:355|208:355|148:351,2,154.000004699707,6|8|2,1:2|0:0|1:2,0:0:0:0:
346,247,51006,1,0,1:0:0:0:
346,247,51162,2,0,P|340:205|335:170,1,77.0000023498536,10|2,0:0|0:0,0:0:0:0:
340,70,51475,2,0,P|377:73|406:98,1,77.0000023498536,2|2,1:2|0:0,0:0:0:0:
502,70,51787,1,10,0:0:0:0:
502,70,51943,2,0,P|511:106|498:141,1,77.0000023498536,2|0,0:0|1:0,0:0:0:0:
425,213,52256,2,0,P|430:248|436:290,2,77.0000023498536,2|8|0,1:2|0:0|0:0,0:0:0:0:
335,170,52725,6,0,P|261:160|173:143,1,154.000004699707,2|8,1:2|0:0,0:0:0:0:
95,96,53193,1,2,0:0:0:0:
95,96,53350,2,0,B|79:114|79:114|85:172,1,77.0000023498536,2|0,1:2|1:0,0:0:0:0:
164,225,53662,2,0,B|180:243|180:243|174:301,1,77.0000023498536,8|0,0:0|0:0,0:0:0:0:
258,351,53975,1,2,1:2:0:0:
326,277,54131,1,2,0:0:0:0:
412,326,54287,1,10,0:0:0:0:
412,326,54443,2,0,L|422:235,1,77.0000023498536,2|0,0:0|1:0,0:0:0:0:
399,152,54756,2,0,P|437:147|471:164,2,77.0000023498536,2|8|0,1:2|0:0|0:0,0:0:0:0:
383,52,55225,6,0,B|343:61|308:71|308:71|266:62|247:25,1,154.000004699707,2|8,1:2|0:0,0:0:0:0:
165,84,55693,1,2,0:0:0:0:
165,84,55850,2,0,P|191:112|202:162,1,77.0000023498536,2|0,1:2|1:0,0:0:0:0:
300,166,56162,2,0,L|288:257,1,77.0000023498536,8|0,0:0|0:0,0:0:0:0:
228,322,56475,1,2,1:2:0:0:
149,260,56631,1,2,0:0:0:0:
70,321,56787,1,10,0:0:0:0:
56,221,56943,2,0,L|45:144,1,77.0000023498536,2|0,0:0|1:0,0:0:0:0:
136,103,57256,2,0,L|146:26,1,77.0000023498536,2|8,1:2|0:0,0:0:0:0:
238,64,57568,1,2,0:0:0:0:
238,64,57725,6,0,B|264:93|264:93|248:198,1,125.999996154785,4|8,1:2|0:0,0:0:0:0:
242,260,58193,1,4,3:0:0:0:
242,260,58350,2,0,L|310:253,1,62.9999980773926,4|8,3:0|3:0,0:0:0:0:
385,243,58662,1,8,0:0:0:0:
434,177,58818,2,0,L|471:173,2,31.4999990386963,4|4|4,3:0|3:0|3:0,0:0:0:0:
361,138,59131,1,8,3:0:0:0:
361,138,59287,1,8,0:0:0:0:
415,76,59443,2,0,L|452:72,2,31.4999990386963,4|4|4,3:0|3:0|3:0,0:0:0:0:
346,30,59756,1,8,3:0:0:0:
346,30,59912,2,0,L|283:36,1,62.9999980773926,8|4,0:0|3:0,0:0:0:0:
192,48,60225,6,0,P|186:97|172:191,1,140,4|10,1:2|0:0,0:0:0:0:
250,233,60693,1,2,0:0:0:0:
212,316,60850,2,0,P|177:318|148:299,1,70,2|2,1:2|1:2,0:0:0:0:
81,361,61162,2,0,P|61:332|63:297,1,70,10|2,0:0|0:0,0:0:0:0:
45,209,61475,2,0,B|113:224|113:224|173:185,2,140,2|10|2,1:2|0:0|1:2,0:0:0:0:
61,119,62256,2,0,B|95:126|95:126|126:107,1,70,2|8,1:2|0:0,0:0:0:0:
192,48,62568,1,2,0:0:0:0:
192,48,62725,6,0,B|275:42|236:89|324:79,1,140,2|8,1:2|0:0,0:0:0:0:
403,35,63193,1,2,0:0:0:0:
469,99,63350,2,0,B|482:130|482:130|470:165,1,70,2|2,1:2|1:2,0:0:0:0:
380,179,63662,2,0,B|367:211|367:211|381:244,1,70,10|2,0:0|0:0,0:0:0:0:
306,298,63975,2,0,B|330:336|330:336|433:331,2,140,2|10|2,1:2|0:0|1:2,0:0:0:0:
265,215,64756,2,0,P|225:210|186:236,1,70,2|8,1:2|0:0,0:0:0:0:
151,300,65068,1,2,0:0:0:0:
151,300,65225,5,2,1:2:0:0:
46,151,65537,2,0,L|52:228,1,70,10|2,0:0|0:0,0:0:0:0:
137,170,65850,2,0,L|142:100,1,70,2|2,1:2|1:2,0:0:0:0:
210,40,66162,1,10,0:0:0:0:
288,85,66318,2,0,B|284:135|284:135|303:167|303:167|299:219,1,140,2|0,0:0|0:0,0:0:0:0:
287,310,66787,1,10,0:0:0:0:
377,320,66943,1,2,0:0:0:0:
390,229,67100,2,0,L|470:237,2,70,2|2|10,1:2|1:2|0:0,0:0:0:0:
299,219,67568,1,2,0:0:0:0:
299,219,67725,6,0,P|321:154|401:134,2,140,2|8|0,1:2|0:0|1:0,0:0:0:0:
287,310,68506,1,0,1:0:0:0:
209,263,68662,1,8,0:0:0:0:
191,352,68818,2,0,P|119:336|45:325,1,140,2|0,0:0|1:0,0:0:0:0:
10,245,69287,1,10,0:0:0:0:
58,168,69443,1,2,1:2:0:0:
14,87,69600,2,0,P|45:73|80:77,1,70,2|2,0:0|1:2,0:0:0:0:
162,114,69912,2,0,P|193:127|228:123,1,70,10|2,0:0|0:0,0:0:0:0:
286,53,70225,6,0,B|316:87|316:87|302:199,1,140,6|10,1:2|0:0,0:0:0:0:
292,271,70693,1,2,0:0:0:0:
208,232,70850,2,0,L|139:245,1,70,2|2,1:2|1:2,0:0:0:0:
138,335,71162,2,0,L|206:348,1,70,10|2,0:0|0:0,0:0:0:0:
290,310,71475,2,0,L|447:279,2,140,2|10|2,1:2|0:0|1:2,0:0:0:0:
305,220,72256,2,0,L|373:206,1,70,2|8,1:2|0:0,0:0:0:0:
456,179,72568,1,2,0:0:0:0:
456,179,72725,6,0,B|417:140|417:140|428:41,1,140,2|10,1:2|0:0,0:0:0:0:
348,9,73193,1,2,0:0:0:0:
309,91,73350,2,0,P|273:75|216:66,1,70,2|2,1:2|1:2,0:0:0:0:
163,23,73662,2,0,P|129:31|97:45,1,70,10|2,0:0|0:0,0:0:0:0:
78,135,73975,2,0,P|68:191|48:287,2,140,2|10|2,1:2|0:0|1:2,0:0:0:0:
166,155,74756,2,0,P|169:198|175:245,1,70,2|8,1:2|0:0,0:0:0:0:
178,315,75068,1,2,0:0:0:0:
178,315,75225,5,2,1:2:0:0:
338,230,75537,2,0,B|302:232|302:232|260:209,1,70,10|2,0:0|0:0,0:0:0:0:
251,126,75850,2,0,B|287:124|287:124|329:147,1,70,2|2,1:2|1:2,0:0:0:0:
373,69,76162,1,8,0:0:0:0:
454,110,76318,2,0,B|427:138|427:138|442:238,1,140,2|0,0:0|0:0,0:0:0:0:
434,329,76787,1,10,0:0:0:0:
345,307,76943,1,2,0:0:0:0:
272,363,77100,2,0,P|237:366|206:350,2,70,2|2|10,1:2|1:2|0:0,0:0:0:0:
258,273,77568,1,2,0:0:0:0:
258,273,77725,6,0,P|196:245|138:279,2,140,2|8|0,1:2|0:0|1:0,0:0:0:0:
312,200,78506,1,0,1:0:0:0:
243,123,78662,1,8,0:0:0:0:
311,56,78818,1,2,3:0:0:0:
311,56,79600,6,0,L|380:66,1,70,2|0,3:2|1:0,0:0:0:0:
404,153,79912,2,0,L|473:142,1,70,10|0,0:0|3:0,0:0:0:0:
455,241,80225,6,0,L|293:267,2,154.000004699707,6|8|2,1:2|0:0|1:2,0:0:0:0:
404,153,81006,1,0,1:0:0:0:
404,153,81162,2,0,L|325:141,1,77.0000023498536,10|0,0:0|0:0,0:0:0:0:
311,42,81475,2,0,P|273:48|248:76,1,77.0000023498536,2|2,1:2|0:0,0:0:0:0:
210,167,81787,1,10,0:0:0:0:
210,167,81943,2,0,P|185:138|147:132,1,77.0000023498536,2|0,0:0|1:0,0:0:0:0:
67,180,82256,2,0,L|56:103,2,77.0000023498536,2|8|0,1:2|0:0|0:0,0:0:0:0:
14,267,82725,6,0,B|122:282|122:282|152:248,1,154.000004699707,2|8,1:2|0:0,0:0:0:0:
210,167,83193,1,2,0:0:0:0:
210,167,83350,2,0,P|248:175|297:186,1,77.0000023498536,2|0,1:2|1:0,0:0:0:0:
271,282,83662,2,0,P|308:273|346:265,1,77.0000023498536,8|0,0:0|0:0,0:0:0:0:
433,314,83975,1,2,1:2:0:0:
490,232,84131,1,2,0:0:0:0:
438,146,84287,1,10,0:0:0:0:
438,146,84443,2,0,P|404:165|361:162,1,77.0000023498536,2|0,0:0|1:0,0:0:0:0:
287,102,84756,2,0,L|306:12,2,77.0000023498536,2|8|0,1:2|0:0|0:0,0:0:0:0:
210,167,85225,6,0,P|148:135|79:185,1,154.000004699707,2|8,1:2|0:0,0:0:0:0:
36,265,85693,1,2,0:0:0:0:
132,294,85850,2,0,L|145:369,1,77.0000023498536,2|0,1:2|1:0,0:0:0:0:
233,323,86162,2,0,L|246:247,1,77.0000023498536,8|0,0:0|0:0,0:0:0:0:
332,299,86475,1,2,1:2:0:0:
411,237,86631,1,2,0:0:0:0:
362,149,86787,1,10,0:0:0:0:
416,65,86943,2,0,P|383:44|346:50,1,77.0000023498536,2|0,0:0|1:0,0:0:0:0:
270,114,87256,2,0,P|237:134|200:128,1,77.0000023498536,2|8,1:2|0:0,0:0:0:0:
215,29,87568,1,2,0:0:0:0:
215,29,87725,6,0,B|122:18|162:66|69:59,1,154.000004699707,6|10,1:2|0:0,0:0:0:0:
6,137,88193,1,2,0:0:0:0:
6,137,88350,2,0,B|-5:230|43:190|36:283,1,154.000004699707,6|10,1:2|0:0,0:0:0:0:
125,238,88818,1,2,0:0:0:0:
125,238,88975,2,0,B|218:231|178:279|271:268,2,154.000004699707,6|8|2,1:2|0:0|1:2,0:0:0:0:
35,283,89756,1,2,0:0:0:0:
40,183,89912,2,0,P|62:150|98:141,1,77.0000023498536,10|0,0:0|0:0,0:0:0:0:
195,127,90225,6,0,B|237:157|237:157|360:135,2,154.000004699707,6|8|2,1:2|0:0|1:2,0:0:0:0:
270,61,91006,1,0,1:0:0:0:
270,61,91162,2,0,L|354:45,1,77.0000023498536,10|2,0:0|0:0,0:0:0:0:
434,93,91475,2,0,B|450:130|450:130|442:165,1,77.0000023498536,2|2,1:2|0:0,0:0:0:0:
353,214,91787,1,10,0:0:0:0:
353,214,91943,2,0,B|345:249|345:249|361:286,1,77.0000023498536,2|0,0:0|1:2,0:0:0:0:
434,355,92256,2,0,P|474:349|519:339,2,77.0000023498536,2|8|0,1:2|0:0|0:0,0:0:0:0:
333,365,92725,6,0,P|267:343|171:321,1,154.000004699707,2|10,1:2|0:0,0:0:0:0:
91,359,93193,1,2,0:0:0:0:
91,359,93350,2,0,P|71:324|91:266,1,77.0000023498536,2|0,1:2|1:0,0:0:0:0:
158,234,93662,2,0,P|178:199|158:141,1,77.0000023498536,8|0,0:0|0:0,0:0:0:0:
94,102,93975,1,2,1:2:0:0:
151,20,94131,1,2,0:0:0:0:
236,71,94287,1,10,0:0:0:0:
328,33,94443,2,0,L|420:43,1,77.0000023498536,2|0,0:0|1:2,0:0:0:0:
377,138,94756,2,0,L|453:129,2,77.0000023498536,2|10|0,1:2|0:0|0:0,0:0:0:0:
314,216,95225,6,0,B|221:208|268:167|174:163,1,154.000004699707,2|8,1:2|0:0,0:0:0:0:
197,65,95693,1,2,0:0:0:0:
197,65,95850,2,0,P|158:62|124:78,1,77.0000023498536,2|0,1:2|1:0,0:0:0:0:
29,45,96162,2,0,P|38:83|48:140,1,77.0000023498536,8|0,0:0|0:0,0:0:0:0:
8,213,96475,1,2,1:2:0:0:
102,245,96631,1,2,0:0:0:0:
72,340,96787,1,10,0:0:0:0:
164,378,96943,2,0,P|201:370|249:364,1,77.0000023498536,2|0,0:2|1:0,0:0:0:0:
283,274,97256,2,0,P|321:279|358:287,1,77.0000023498536,2|8,1:2|0:0,0:0:0:0:
432,355,97568,1,2,0:0:0:0:
432,355,97725,6,0,P|462:303|437:230,1,125.999996154785,6|8,1:2|0:0,0:0:0:0:
372,207,98193,1,0,3:0:0:0:
372,207,98350,2,0,L|363:142,1,62.9999980773926,4|8,3:0|3:0,0:0:0:0:
285,119,98662,2,0,L|293:56,1,62.9999980773926,4|4,3:0|3:0,0:0:0:0:
366,18,98975,1,8,0:0:0:0:
256,192,110225,12,2,117725,0:0:0:0:
307,64,118975,6,0,P|319:125|331:187,1,125.999996154785,2|2,0:3|0:3,0:0:0:0:
492,218,119600,2,0,P|495:249|477:283,1,62.9999980773926,10|8,0:0|0:0,0:0:0:0:
402,296,119912,2,0,P|373:283|342:286,1,62.9999980773926,8|8,0:0|0:0,0:0:0:0:
314,315,120146,1,8,0:0:0:0:
314,315,120225,6,0,P|248:339|184:289,1,140,6|8,1:2|0:0,0:0:0:0:
183,214,120693,1,2,0:0:0:0:
270,187,120850,2,0,L|257:267,2,70,2|2|10,1:2|1:2|0:0,0:0:0:0:
300,101,121318,1,2,0:0:0:0:
300,101,121475,2,0,B|218:81|244:143|133:108,1,140,2|8,1:2|0:0,0:0:0:0:
188,28,121943,2,0,P|153:22|121:33,1,70,2|0,0:0|1:0,0:0:0:0:
45,85,122256,2,0,P|41:52|33:6,2,70,2|8|2,1:2|0:0|0:0,0:0:0:0:
18,172,122725,6,0,P|79:192|94:275,1,140,2|10,1:2|0:0,0:0:0:0:
154,331,123193,1,2,0:0:0:0:
229,279,123350,2,0,P|265:273|307:270,2,70,2|0|10,1:2|1:0|0:0,0:0:0:0:
186,198,123818,1,2,0:0:0:0:
186,198,123975,2,0,P|241:186|327:184,1,140,2|8,1:2|0:0,0:0:0:0:
311,93,124443,2,0,P|345:91|376:107,1,70,2|0,0:0|1:2,0:0:0:0:
465,85,124756,2,0,P|453:52|428:28,2,70,2|10|2,1:2|0:0|0:0,0:0:0:0:
472,176,125225,6,0,B|442:207|442:207|457:319,1,140,2|10,1:2|0:0,0:0:0:0:
382,358,125693,1,2,0:0:0:0:
311,299,125850,2,0,L|322:218,2,70,2|0|10,1:2|1:0|0:0,0:0:0:0:
232,344,126318,1,2,0:0:0:0:
232,344,126475,2,0,B|183:346|183:346|159:319|159:319|102:320,1,140,2|8,1:2|0:0,0:0:0:0:
21,356,126943,2,0,B|9:322|9:322|21:280,1,70,2|0,0:0|1:0,0:0:0:0:
93,235,127256,2,0,L|180:231,2,70,2|10|2,1:2|0:0|0:0,0:0:0:0:
19,180,127725,6,0,P|31:110|119:95,1,140,6|8,1:2|0:0,0:0:0:0:
166,133,128193,1,2,0:0:0:0:
166,133,128350,2,0,P|236:119|314:108,1,140,6|8,1:2|0:0,0:0:0:0:
363,40,128818,1,2,0:0:0:0:
363,40,128975,2,0,B|403:68|403:68|385:186,1,140,6|8,1:2|0:0,0:0:0:0:
340,235,129443,1,2,0:0:0:0:
389,311,129600,2,0,L|471:298,2,70,2|2|10,1:2|1:2|0:0,0:0:0:0:
299,324,130068,1,2,0:0:0:0:
299,324,130225,6,0,B|279:359|279:359|160:348,1,140,6|8,1:2|0:0,0:0:0:0:
105,297,130693,1,2,0:0:0:0:
161,225,130850,2,0,L|243:234,2,70,2|2|10,1:2|1:2|0:0,0:0:0:0:
70,213,131318,1,2,0:0:0:0:
70,213,131475,2,0,P|85:165|12:107,1,140,2|8,1:2|0:0,0:0:0:0:
65,24,131943,2,0,P|98:34|123:57,1,70,2|0,0:0|1:0,0:0:0:0:
173,134,132256,2,0,P|198:110|231:100,2,70,2|10|2,1:2|0:0|0:0,0:0:0:0:
161,225,132725,6,0,L|177:372,1,140,2|10,1:2|0:0,0:0:0:0:
266,357,133193,1,2,0:0:0:0:
254,266,133350,2,0,L|246:197,2,70,2|0|10,1:2|1:0|0:0,0:0:0:0:
337,300,133818,1,2,0:0:0:0:
337,300,133975,2,0,B|403:320|403:320|470:272,1,140,2|8,1:2|0:0,0:0:0:0:
484,190,134443,2,0,P|476:144|473:110,1,70,2|0,0:0|1:2,0:0:0:0:
386,92,134756,2,0,P|394:46|397:12,2,70,2|10|2,1:2|0:0|0:0,0:0:0:0:
337,169,135225,6,0,B|261:153|300:108|210:104,1,140,2|10,1:2|0:0,0:0:0:0:
150,44,135693,1,2,0:0:0:0:
68,82,135850,2,0,P|56:50|65:9,2,70,2|0|10,1:2|1:0|0:0,0:0:0:0:
121,157,136318,1,2,0:0:0:0:
121,157,136475,2,0,P|178:190|176:281,1,140,2|8,1:2|0:0,0:0:0:0:
154,342,136943,2,0,P|121:337|72:329,1,70,2|0,0:0|1:2,0:0:0:0:
31,257,137256,2,0,P|64:252|113:244,2,70,2|10|2,1:2|0:0|0:0,0:0:0:0:
31,166,137725,6,0,L|13:10,2,140,2|10|2,1:2|0:0|1:2,0:0:0:0:
121,157,138506,1,0,1:0:0:0:
121,157,138662,2,0,P|146:133|180:127,1,70,10|0,0:0|0:0,0:0:0:0:
264,90,138975,2,0,P|216:40|148:40,2,140,2|10|2,1:2|0:0|1:2,0:0:0:0:
353,72,139756,1,0,1:0:0:0:
353,72,139912,2,0,L|363:143,1,70,10|0,0:0|0:0,0:0:0:0:
342,230,140225,6,0,B|424:250|398:188|509:223,2,140,6|10|2,1:2|0:0|1:2,0:0:0:0:
275,169,141006,1,0,1:0:0:0:
218,240,141162,2,0,P|180:243|134:247,1,70,10|0,0:0|0:0,0:0:0:0:
81,183,141475,1,2,1:2:0:0:
81,183,141631,1,2,0:0:0:0:
9,234,141787,2,0,P|27:262|59:274,1,70,10|0,0:0|0:0,0:0:0:0:
77,363,142100,2,0,P|111:361|137:339,1,70,2|0,1:2|1:0,0:0:0:0:
223,309,142412,2,0,P|220:274|217:239,1,70,10|0,0:0|0:0,0:0:0:0:
204,148,142725,6,0,B|102:158|102:158|67:131,2,140,2|10|2,1:2|0:0|1:2,0:0:0:0:
294,138,143506,1,0,1:0:0:0:
287,47,143662,2,0,P|321:47|348:68,1,70,10|0,0:0|0:0,0:0:0:0:
386,151,143975,1,2,1:2:0:0:
386,151,144131,1,2,0:0:0:0:
465,106,144287,2,0,P|471:140|476:175,1,70,10|0,0:0|0:0,0:0:0:0:
485,265,144600,2,0,P|450:258|415:253,1,70,2|0,1:2|1:0,0:0:0:0:
383,337,144912,2,0,P|348:342|313:348,1,70,10|0,0:0|0:0,0:0:0:0:
255,277,145225,6,0,P|187:269|114:261,2,140,2|10|2,1:2|0:0|1:2,0:0:0:0:
324,217,146006,1,0,1:0:0:0:
293,131,146162,2,0,P|286:93|281:40,1,70,10|0,0:0|0:0,0:0:0:0:
211,3,146475,1,2,1:2:0:0:
211,3,146631,1,2,0:0:0:0:
188,90,146787,2,0,P|166:115|132:123,1,70,10|0,0:0|0:0,0:0:0:0:
112,33,147100,2,0,P|79:40|56:66,1,70,2|0,1:2|1:0,0:0:0:0:
39,155,147412,2,0,P|44:189|50:224,1,70,10|0,0:0|0:0,0:0:0:0:
121,281,147725,6,0,P|66:320|0:303,2,140,2|10|2,1:2|0:0|1:2,0:0:0:0:
157,197,148506,1,0,1:0:0:0:
222,259,148662,2,0,L|302:268,1,70,10|0,0:0|0:0,0:0:0:0:
371,221,148975,1,2,1:2:0:0:
371,221,149131,1,2,0:0:0:0:
435,285,149287,2,0,P|459:260|465:226,1,70,10|0,0:0|0:0,0:0:0:0:
464,134,149600,2,0,L|394:126,1,70,2|0,1:2|1:0,0:0:0:0:
351,46,149912,2,0,L|281:53,1,70,10|0,0:0|0:0,0:0:0:0:
222,122,150225,6,0,P|186:72|209:-2,2,140,6|10|2,1:2|0:0|1:2,0:0:0:0:
289,182,151006,1,0,1:0:0:0:
362,128,151162,2,0,P|378:161|371:208,1,70,10|0,0:0|0:0,0:0:0:0:
332,273,151475,1,2,1:2:0:0:
332,273,151631,1,2,0:0:0:0:
362,358,151787,2,0,B|329:367|329:367|295:355,1,70,10|0,0:0|0:0,0:0:0:0:
210,322,152100,2,0,B|177:312|177:312|143:324,1,70,2|0,1:2|1:0,0:0:0:0:
66,373,152412,2,0,P|50:342|51:307,1,70,10|0,0:0|0:0,0:0:0:0:
0,231,152725,6,0,L|20:76,2,140,2|8|2,1:2|0:0|1:2,0:0:0:0:
50,307,153506,1,0,1:0:0:0:
116,244,153662,2,0,L|127:165,1,70,10|0,0:0|0:0,0:0:0:0:
143,84,153975,1,2,1:2:0:0:
143,84,154131,1,2,0:0:0:0:
224,124,154287,2,0,L|233:193,1,70,10|0,0:0|0:0,0:0:0:0:
193,275,154600,2,0,P|227:293|265:285,1,70,2|0,1:2|1:0,0:0:0:0:
319,355,154912,2,0,P|355:343|376:311,1,70,10|0,0:0|0:0,0:0:0:0:
339,234,155225,6,0,B|388:284|388:284|457:269,2,140,2|10|2,1:2|0:0|1:2,0:0:0:0:
417,187,156006,1,0,1:0:0:0:
352,123,156162,2,0,L|337:33,1,70,10|0,0:0|0:0,0:0:0:0:
259,12,156475,1,2,1:2:0:0:
196,77,156631,1,2,0:0:0:0:
118,29,156787,1,10,0:0:0:0:
43,81,156943,2,0,P|39:119|52:150,1,70,2|8,1:2|0:0,0:0:0:0:
16,232,157256,2,0,P|47:253|80:257,1,70,2|8,1:2|0:0,0:0:0:0:
80,347,157568,2,0,L|219:328,1,140,2|0,0:0|0:0,0:0:0:0:
