osu file format v14

[General]
AudioFilename: audio.mp3
AudioLeadIn: 0
PreviewTime: 99600
Countdown: 0
SampleSet: Soft
StackLeniency: 0.7
Mode: 0
LetterboxInBreaks: 0
WidescreenStoryboard: 1

[Editor]
DistanceSpacing: 1.2
BeatDivisor: 4
GridSize: 32
TimelineZoom: 4.699998

[Metadata]
Title:podruga
TitleUnicode:подруга
Artist:kis-kis
ArtistUnicode:кис-кис
Creator:Froskya
Version:esutarosa's extra
Source:
Tags:russian русский pop punk юность в стиле панк kis kiskis кис кискис kiskisnotdead revialink azinlen esu esutarosa casper casperisapotato
BeatmapID:3074336
BeatmapSetID:1483665

[Difficulty]
HPDrainRate:5.8
CircleSize:4
OverallDifficulty:8.8
ApproachRate:9.2
SliderMultiplier:1.62
SliderTickRate:1

[Events]
//Background and Video events
0,0,"bby.jpg",0,0
//Break Periods
2,57925,59655
2,100225,109655
//Storyboard Layer 0 (Background)
//Storyboard Layer 1 (Fail)
//Storyboard Layer 2 (Pass)
//Storyboard Layer 3 (Foreground)
//Storyboard Layer 4 (Overlay)
//Storyboard Sound Samples

[TimingPoints]
225,312.5,4,2,1,52,1,0
225,-125,4,2,1,52,0,0
537,-125,4,2,1,54,0,0
850,-125,4,2,1,55,0,0
1162,-125,4,2,1,57,0,0
1475,-125,4,2,1,58,0,0
1787,-125,4,2,1,60,0,0
5225,-125,4,2,1,62,0,0
6475,-125,4,2,1,64,0,0
7725,-111.111111111111,4,2,1,67,0,0
10225,-100,4,2,1,70,0,0
20225,-108.695652173913,4,2,1,65,0,0
39600,-117.647058823529,4,2,1,58,0,0
40225,-86.9565217391304,4,2,1,80,0,1
40459,-86.9565217391304,4,2,1,5,0,1
40537,-86.9565217391304,4,2,1,80,0,1
50459,-86.9565217391304,4,2,1,5,0,1
50537,-86.9565217391304,4,2,1,80,0,1
55459,-86.9565217391304,4,2,1,5,0,1
55537,-86.9565217391304,4,2,1,80,0,1
57725,-100,4,2,1,80,0,0
60225,-108.695652173913,4,2,1,65,0,0
79600,-117.647058823529,4,2,1,65,0,0
80225,-86.9565217391304,4,2,1,90,0,1
80459,-86.9565217391304,4,2,1,5,0,1
80537,-86.9565217391304,4,2,1,90,0,1
90459,-86.9565217391304,4,2,1,5,0,1
90537,-86.9565217391304,4,2,1,90,0,1
97725,-100,4,2,1,80,0,0
118975,-117.647058823529,4,2,1,70,0,0
119600,-100,4,2,1,72,0,0
140146,-100,4,2,1,5,0,0
140225,-100,4,2,1,70,0,0
157568,-100,4,2,1,65,0,0
157881,-100,4,2,1,5,0,0

[Colours]
Combo1 : 255,64,64
Combo2 : 190,190,190
Combo3 : 138,138,255
Combo4 : 138,138,138

[HitObjects]
61,57,225,6,0,P|82:113|96:207,1,129.6,4|2,3:0|3:0,0:0:0:0:
95,184,850,2,0,P|76:224|63:268,2,64.8,4|4|2,3:0|3:0|3:0,0:0:0:0:
304,348,1475,6,0,P|340:356|401:272,1,129.6,4|2,3:0|3:0,0:0:0:0:
459,218,2100,1,4,3:0:0:0:
427,195,2256,1,0,0:0:0:0:
417,157,2412,1,2,3:0:0:0:
285,23,2725,6,0,B|211:24|249:68|168:70,1,129.6,4|2,3:0|3:0,0:0:0:0:
166,70,3350,2,0,P|186:94|194:125,2,64.8,4|4|2,3:0|3:0|3:0,0:0:0:0:
63,319,3975,5,4,3:0:0:0:
140,253,4131,1,0,0:0:0:0:
204,334,4287,2,0,P|237:324|270:318,1,64.8,2|0,3:0|0:0,0:0:0:0:
394,282,4600,2,0,P|363:275|332:267,1,64.8,4|4,3:0|3:0,0:0:0:0:
479,231,4912,2,0,P|472:199|463:168,1,64.8,2|0,3:0|0:0,0:0:0:0:
344,47,5225,6,0,P|330:109|317:191,1,129.6,4|2,3:0|3:0,0:0:0:0:
365,279,5850,1,4,3:0:0:0:
403,284,6006,1,4,3:0:0:0:
438,267,6162,1,2,3:0:0:0:
267,348,6475,5,4,3:0:0:0:
173,372,6631,1,0,0:0:0:0:
85,328,6787,2,0,P|89:298|98:254,1,64.8,2|0,3:0|0:0,0:0:0:0:
145,144,7100,2,0,P|154:175|162:207,1,64.8,4|4,3:0|3:0,0:0:0:0:
90,62,7412,2,0,P|112:39|141:26,1,64.8,2|0,3:0|0:0,0:0:0:0:
304,103,7725,6,0,P|345:122|385:120,1,72.8999977752686,2|0,1:2|0:0,0:0:0:0:
495,57,8037,2,0,P|486:95|475:152,1,72.8999977752686,10|0,0:0|1:0,0:0:0:0:
429,190,8271,1,0,1:0:0:0:
419,209,8350,2,0,P|448:249|483:249,1,72.8999977752686,2|0,1:2|0:0,0:0:0:0:
381,372,8662,6,0,P|343:363|292:355,1,72.8999977752686,10|0,0:0|0:0,0:0:0:0:
273,353,8896,1,0,0:0:0:0:
273,353,8975,1,2,1:2:0:0:
418,279,9131,1,2,0:0:0:0:
269,226,9287,2,0,P|231:235|180:243,1,72.8999977752686,10|0,0:0|1:2,0:0:0:0:
163,249,9521,1,0,1:0:0:0:
163,249,9600,5,8,0:0:0:0:
251,124,9756,1,0,1:0:0:0:
40,269,9912,2,0,P|32:226|19:182,1,72.8999977752686,8|0,0:0|1:0,0:0:0:0:
97,43,10225,6,0,B|198:42|158:113|259:112,1,162,6|10,1:2|0:0,0:0:0:0:
111,135,10693,1,0,0:0:0:0:
248,27,10850,2,0,P|291:8|332:9,1,81,2|0,1:2|1:2,0:0:0:0:
380,165,11162,2,0,P|339:163|303:145,1,81,10|0,0:0|0:0,0:0:0:0:
446,52,11475,5,2,1:2:0:0:
297,212,11631,1,2,0:0:0:0:
347,12,11787,2,0,P|354:55|361:113,1,81,10|0,0:0|0:0,0:0:0:0:
475,182,12100,5,2,1:2:0:0:
283,135,12256,1,0,1:2:0:0:
421,258,12412,2,0,P|383:264|324:280,1,81,10|0,0:0|0:0,0:0:0:0:
172,365,12725,6,0,P|179:283|191:181,1,162,2|10,1:2|0:0,0:0:0:0:
93,304,13193,1,0,0:0:0:0:
269,206,13350,2,0,P|264:168|257:120,1,81,2|0,1:2|1:0,0:0:0:0:
123,51,13662,2,0,P|118:89|111:137,1,81,10|0,0:0|0:0,0:0:0:0:
15,248,13975,5,2,1:2:0:0:
189,143,14131,1,2,0:0:0:0:
122,318,14287,2,0,P|112:279|99:229,1,81,10|0,0:0|0:0,0:0:0:0:
0,161,14600,5,2,1:2:0:0:
183,215,14756,1,0,1:0:0:0:
44,74,14912,2,0,P|66:37|115:24,1,81,10|0,0:0|0:0,0:0:0:0:
293,62,15225,6,0,P|279:142|265:243,1,162,2|10,1:2|0:0,0:0:0:0:
192,114,15693,1,0,0:0:0:0:
367,29,15850,2,0,P|371:69|375:114,1,81,2|0,1:2|1:0,0:0:0:0:
190,211,16162,2,0,P|186:170|182:130,1,81,10|0,0:0|0:0,0:0:0:0:
312,230,16475,5,2,1:2:0:0:
85,209,16631,1,2,0:0:0:0:
242,337,16787,2,0,P|288:325|335:319,1,81,10|0,0:0|0:0,0:0:0:0:
458,181,17100,5,2,1:2:0:0:
397,361,17256,1,0,1:0:0:0:
327,179,17412,2,0,P|291:160|236:162,1,81,10|0,0:0|0:0,0:0:0:0:
9,172,17725,6,0,B|107:171|67:242|146:239,1,162,2|10,1:2|0:0,0:0:0:0:
253,163,18193,1,0,1:0:0:0:
253,163,18271,1,0,1:0:0:0:
253,163,18350,1,2,1:2:0:0:
175,265,18506,1,0,1:0:0:0:
135,110,18662,1,10,0:0:0:0:
32,254,18818,5,0,1:0:0:0:
32,254,18896,1,0,1:0:0:0:
32,254,18975,1,2,1:2:0:0:
159,154,19131,1,2,1:2:0:0:
112,313,19287,2,0,P|147:338|198:339,1,81,10|0,0:0|1:0,0:0:0:0:
210,337,19521,1,0,1:0:0:0:
210,337,19600,5,10,0:0:0:0:
345,200,19756,1,0,1:0:0:0:
180,255,19912,1,10,0:0:0:0:
369,371,20068,1,0,1:0:0:0:
383,129,20225,6,0,P|372:207|361:300,1,149.039994996826,6|10,1:2|0:0,0:0:0:0:
286,186,20693,1,2,0:0:0:0:
462,142,20850,2,0,P|457:111|451:69,1,74.5199974984132,2|0,1:2|1:0,0:0:0:0:
310,17,21162,2,0,P|304:53|298:90,1,74.5199974984132,10|2,0:0|0:0,0:0:0:0:
215,297,21475,6,0,P|170:248|80:280,2,149.039994996826,2|10|2,1:2|0:0|1:2,0:0:0:0:
135,365,22256,1,2,1:2:0:0:
291,268,22412,2,0,P|286:228|276:183,1,74.5199974984132,8|2,0:0|0:0,0:0:0:0:
115,42,22725,6,0,B|217:50|140:96|248:108,1,149.039994996826,2|10,1:2|0:0,0:0:0:0:
348,30,23193,1,2,0:0:0:0:
396,183,23350,2,0,P|366:177|311:169,1,74.5199974984132,2|0,1:2|1:2,0:0:0:0:
340,12,23662,2,0,P|376:4|413:0,1,74.5199974984132,10|2,0:0|0:0,0:0:0:0:
276,211,23975,6,0,P|223:242|133:313,2,149.039994996826,2|10|2,1:2|0:0|1:2,0:0:0:0:
151,185,24756,1,2,1:2:0:0:
274,314,24912,2,0,P|318:313|354:288,1,74.5199974984132,8|2,0:0|0:0,0:0:0:0:
478,82,25225,6,0,B|442:62|408:87|408:87|406:130|359:142,1,149.039994996826,2|10,1:2|0:0,0:0:0:0:
256,75,25693,1,2,0:0:0:0:
451,245,25850,2,0,P|458:208|465:171,1,74.5199974984132,2|2,1:2|1:2,0:0:0:0:
220,111,26162,2,0,P|227:147|234:184,1,74.5199974984132,10|2,0:0|0:0,0:0:0:0:
332,340,26475,6,0,P|285:375|197:329,1,149.039994996826,2|10,1:2|0:0,0:0:0:0:
329,253,26943,1,2,0:0:0:0:
153,207,27100,2,0,P|142:243|133:279,2,74.5199974984132,2|2|10,1:2|1:2|0:0,0:0:0:0:
46,216,27568,1,2,0:0:0:0:
230,52,27725,6,0,P|244:123|261:221,1,149.039994996826,2|8,1:2|0:0,0:0:0:0:
336,100,28193,1,0,0:0:0:0:
175,226,28350,2,0,P|134:241|92:224,1,74.5199974984132,0|0,1:0|1:0,0:0:0:0:
55,94,28662,2,0,P|91:86|124:101,1,74.5199974984132,8|2,0:0|0:0,0:0:0:0:
312,228,28975,6,0,P|303:264|296:312,1,74.5199974984132,0|2,0:0|0:0,0:0:0:0:
193,328,29287,1,10,0:0:0:0:
395,265,29443,1,2,0:0:0:0:
229,156,29600,2,0,P|194:160|133:178,1,74.5199974984132,2|2,1:2|1:2,0:0:0:0:
118,335,29912,2,0,P|154:343|191:349,1,74.5199974984132,10|2,0:0|0:0,0:0:0:0:
446,270,30225,6,0,P|435:199|419:102,1,149.039994996826,2|10,1:2|0:0,0:0:0:0:
478,23,30693,1,2,0:0:0:0:
318,83,30850,2,0,P|323:46|328:9,1,74.5199974984132,2|2,1:2|1:2,0:0:0:0:
501,48,31162,2,0,P|506:84|511:121,1,74.5199974984132,10|2,0:0|0:0,0:0:0:0:
361,271,31475,6,0,B|319:300|283:282|283:282|267:240|218:222,2,149.039994996826,2|10|2,1:2|0:0|1:2,0:0:0:0:
393,172,32256,1,2,1:2:0:0:
206,299,32412,2,0,P|163:278|138:239,1,74.5199974984132,8|2,0:0|0:0,0:0:0:0:
35,91,32725,6,0,P|108:76|182:66,1,149.039994996826,2|10,1:2|0:0,0:0:0:0:
288,0,33193,1,2,0:0:0:0:
201,168,33350,2,0,P|193:130|182:86,1,74.5199974984132,2|2,1:2|1:2,0:0:0:0:
353,150,33662,2,0,P|344:186|337:223,1,74.5199974984132,10|0,0:0|0:0,0:0:0:0:
207,366,33975,6,0,P|166:349|188:252,2,149.039994996826,2|10|2,1:2|0:0|1:2,0:0:0:0:
312,305,34756,1,2,1:2:0:0:
176,183,34912,2,0,P|146:191|89:210,1,74.5199974984132,8|2,0:0|0:0,0:0:0:0:
339,347,35225,6,0,P|350:267|365:182,1,149.039994996826,2|10,1:2|0:0,0:0:0:0:
268,261,35693,1,2,0:0:0:0:
441,181,35850,2,0,P|433:142|422:93,1,74.5199974984132,2|2,1:2|1:2,0:0:0:0:
265,57,36162,2,0,P|256:93|249:129,1,74.5199974984132,8|2,0:0|0:0,0:0:0:0:
129,340,36475,6,0,B|229:328|152:282|254:274,1,149.039994996826,2|8,1:2|0:0,0:0:0:0:
344,345,36943,1,2,0:0:0:0:
256,181,37100,2,0,P|214:190|160:209,2,74.5199974984132,2|2|10,1:2|1:2|0:0,0:0:0:0:
310,89,37568,1,2,0:0:0:0:
90,228,37725,6,0,P|82:157|68:51,1,149.039994996826,2|8,1:2|0:0,0:0:0:0:
2,194,38193,1,0,0:0:0:0:
164,122,38350,2,0,P|169:85|175:49,1,74.5199974984132,0|0,1:2|1:0,0:0:0:0:
49,50,38662,1,8,0:0:0:0:
282,101,38818,5,2,1:3:0:0:
77,252,39600,6,0,P|68:284|58:334,3,68.8500013132096,2|2|2|0,3:2|3:2|3:2|3:0,0:0:0:0:
136,189,40225,6,0,B|216:202|163:251|258:270,1,139.725002665043,6|0,1:2|0:0,0:0:0:0:
312,309,40537,2,0,P|363:293|422:280,1,93.1500017766953,8|0,0:0|0:0,0:0:0:0:
498,170,40850,1,2,1:2:0:0:
426,384,41006,1,0,1:2:0:0:
329,183,41162,2,0,P|293:146|242:139,1,93.1500017766953,10|0,0:0|0:0,0:0:0:0:
147,235,41475,5,2,1:2:0:0:
337,69,41631,1,2,0:0:0:0:
281,312,41787,2,0,P|272:266|258:209,1,93.1500017766953,10|2,0:0|0:0,0:0:0:0:
143,99,42100,5,0,1:0:0:0:
383,189,42256,1,2,1:2:0:0:
158,256,42412,2,0,P|111:246|58:236,1,93.1500017766953,8|0,0:0|0:0,0:0:0:0:
30,22,42725,6,0,P|96:-2|140:115,1,186.300003553391,2|8,1:2|0:0,0:0:0:0:
103,220,43193,1,2,0:0:0:0:
265,63,43350,2,0,P|254:113|247:165,1,93.1500017766953,2|0,1:2|1:0,0:0:0:0:
161,308,43662,2,0,B|185:349|185:349|244:352,1,93.1500017766953,8|0,0:0|0:0,0:0:0:0:
472,158,43975,6,0,P|455:201|440:245,1,93.1500017766953,2|2,1:2|0:0,0:0:0:0:
291,233,44287,2,0,P|272:209|281:148,1,93.1500017766953,10|2,0:0|0:0,0:0:0:0:
400,86,44600,1,0,1:0:0:0:
272,313,44756,1,2,1:2:0:0:
204,91,44912,2,0,P|256:72|298:62,1,93.1500017766953,8|0,0:0|0:0,0:0:0:0:
190,283,45225,6,0,P|103:268|-12:253,1,186.300003553391,2|8,1:2|0:0,0:0:0:0:
101,373,45693,1,2,0:0:0:0:
58,182,45850,2,0,P|69:133|87:66,1,93.1500017766953,2|0,1:2|1:0,0:0:0:0:
226,28,46162,2,0,P|237:73|247:118,1,93.1500017766953,8|0,0:0|0:0,0:0:0:0:
423,275,46475,6,0,P|385:249|342:260,1,93.1500017766953,2|2,1:2|0:0,0:0:0:0:
228,348,46787,2,0,P|186:337|128:324,1,93.1500017766953,10|2,0:0|0:0,0:0:0:0:
36,174,47100,1,0,1:2:0:0:
91,384,47256,1,2,1:2:0:0:
177,174,47412,2,0,P|241:143|279:152,1,93.1500017766953,8|2,0:0|0:0,0:0:0:0:
421,370,47725,6,0,P|430:272|441:164,1,186.300003553391,6|10,1:2|0:0,0:0:0:0:
305,259,48193,1,2,0:0:0:0:
488,102,48350,6,0,P|443:53|335:119,1,186.300003553391,6|10,1:2|0:0,0:0:0:0:
444,236,48818,1,2,0:0:0:0:
259,95,48975,6,0,B|154:103|218:182|110:189,1,186.300003553391,4|8,1:2|0:0,0:0:0:0:
0,110,49443,1,0,0:0:0:0:
77,283,49600,6,0,P|131:279|175:239,1,93.1500017766953,2|2,1:2|0:0,0:0:0:0:
244,144,49912,2,0,P|298:148|342:188,1,93.1500017766953,10|0,0:0|0:0,0:0:0:0:
479,305,50225,6,0,P|416:318|316:349,1,139.725002665043,6|0,1:2|0:0,0:0:0:0:
279,384,50537,2,0,P|235:370|224:318,1,93.1500017766953,8|0,0:0|0:0,0:0:0:0:
288,191,50850,1,2,1:2:0:0:
87,338,51006,1,0,1:0:0:0:
230,146,51162,2,0,P|238:196|247:255,1,93.1500017766953,10|2,0:0|0:0,0:0:0:0:
104,132,51475,5,2,1:2:0:0:
377,187,51631,1,2,0:0:0:0:
150,68,51787,2,0,P|141:118|133:177,1,93.1500017766953,10|2,0:0|0:0,0:0:0:0:
284,32,52100,5,0,1:0:0:0:
20,126,52256,1,2,1:2:0:0:
307,22,52412,2,0,P|315:67|321:113,1,93.1500017766953,8|0,0:0|0:0,0:0:0:0:
225,328,52725,6,0,B|207:346|181:343|181:343|142:299|172:241|218:240,1,186.300003553391,2|8,1:2|0:0,0:0:0:0:
357,305,53193,1,2,0:0:0:0:
234,127,53350,2,0,P|281:111|333:100,1,93.1500017766953,2|0,1:2|1:0,0:0:0:0:
438,266,53662,2,0,B|402:297|402:297|338:280,1,93.1500017766953,8|0,0:0|0:0,0:0:0:0:
72,72,53975,6,0,P|29:86|15:128,1,93.1500017766953,2|2,1:2|0:0,0:0:0:0:
143,245,54287,2,0,P|187:224|190:171,1,93.1500017766953,10|2,0:0|0:0,0:0:0:0:
80,79,54600,1,0,1:0:0:0:
322,181,54756,1,2,1:2:0:0:
163,0,54912,2,0,P|169:44|177:103,1,93.1500017766953,8|0,0:0|0:0,0:0:0:0:
146,332,55225,6,0,P|210:304|275:279,1,139.725002665043,2|0,1:2|0:0,0:0:0:0:
325,220,55537,2,0,P|373:230|384:286,1,93.1500017766953,8|2,0:0|0:0,0:0:0:0:
327,384,55850,1,2,1:2:0:0:
512,258,56006,1,0,1:0:0:0:
296,215,56162,2,0,P|288:171|276:91,1,93.1500017766953,8|0,0:0|0:0,0:0:0:0:
504,0,56475,6,0,P|493:45|486:91,1,93.1500017766953,2|2,1:2|0:0,0:0:0:0:
444,234,56787,2,0,P|392:252|364:207,1,93.1500017766953,10|2,0:0|0:0,0:0:0:0:
304,74,57100,1,0,1:0:0:0:
512,170,57256,1,2,1:2:0:0:
288,255,57412,2,0,P|242:246|196:239,1,93.1500017766953,8|2,0:0|0:0,0:0:0:0:
75,74,57725,5,4,1:2:0:0:
0,293,60225,6,0,B|99:264|43:335|148:307,1,149.039994996826,4|10,1:2|0:0,0:0:0:0:
236,214,60693,1,2,0:0:0:0:
105,165,60850,2,0,P|112:210|119:262,1,74.5199974984132,2|2,1:2|1:2,0:0:0:0:
272,312,61162,2,0,P|277:275|283:238,1,74.5199974984132,10|2,0:0|0:0,0:0:0:0:
272,53,61475,6,0,P|232:97|128:74,2,149.039994996826,2|10|2,1:2|0:0|1:2,0:0:0:0:
188,0,62256,1,2,1:2:0:0:
349,82,62412,2,0,P|338:115|328:181,1,74.5199974984132,8|2,0:0|0:0,0:0:0:0:
231,250,62725,6,0,P|266:314|299:395,1,149.039994996826,2|8,1:2|0:0,0:0:0:0:
332,253,63193,1,2,0:0:0:0:
172,357,63350,2,0,P|139:346|80:335,1,74.5199974984132,2|2,1:2|1:2,0:0:0:0:
44,220,63662,2,0,P|76:209|136:198,1,74.5199974984132,10|2,0:0|0:0,0:0:0:0:
248,63,63975,6,0,B|155:24|201:101|106:61,2,149.039994996826,2|10|2,1:2|0:0|1:2,0:0:0:0:
329,173,64756,1,2,1:2:0:0:
404,12,64912,2,0,P|367:17|331:26,1,74.5199974984132,8|2,0:0|0:0,0:0:0:0:
147,158,65225,6,0,P|74:147|-25:135,1,149.039994996826,2|10,1:2|0:0,0:0:0:0:
142,73,65693,1,2,0:0:0:0:
59,301,65850,2,0,P|53:264|48:228,1,74.5199974984132,2|2,1:2|1:2,0:0:0:0:
232,132,66162,2,0,P|224:176|218:224,1,74.5199974984132,10|2,0:0|0:0,0:0:0:0:
322,371,66475,6,0,P|374:360|392:266,1,149.039994996826,2|10,1:2|0:0,0:0:0:0:
261,314,66943,1,2,0:0:0:0:
387,190,67100,2,0,P|391:152|400:117,2,74.5199974984132,2|2|10,1:2|1:2|0:0,0:0:0:0:
296,120,67568,1,2,0:0:0:0:
488,49,67725,6,0,P|499:120|510:205,1,149.039994996826,2|8,1:2|0:0,0:0:0:0:
420,297,68193,1,0,0:0:0:0:
342,165,68350,2,0,P|304:169|268:176,1,74.5199974984132,0|0,1:0|1:0,0:0:0:0:
243,326,68662,2,0,P|279:333|316:337,1,74.5199974984132,8|2,0:0|0:0,0:0:0:0:
129,200,68975,6,0,P|95:228|93:283,1,74.5199974984132,0|0,0:0|1:0,0:0:0:0:
159,357,69287,1,10,0:0:0:0:
0,261,69443,1,2,1:2:0:0:
206,248,69600,2,0,P|211:208|221:154,1,74.5199974984132,2|2,0:0|1:2,0:0:0:0:
19,86,69912,2,0,P|25:122|30:159,1,74.5199974984132,10|2,0:0|0:0,0:0:0:0:
242,348,70225,6,0,P|329:322|406:304,1,149.039994996826,6|10,1:2|0:0,0:0:0:0:
270,249,70693,1,2,0:0:0:0:
477,355,70850,2,0,P|484:316|493:276,1,74.5199974984132,2|2,1:2|1:2,0:0:0:0:
333,194,71162,2,0,P|340:230|347:267,1,74.5199974984132,10|2,0:0|0:0,0:0:0:0:
509,111,71475,6,0,P|483:58|389:54,2,149.039994996826,2|10|2,1:2|0:0|1:2,0:0:0:0:
438,201,72256,1,2,1:2:0:0:
308,53,72412,2,0,P|298:92|288:144,1,74.5199974984132,8|2,0:0|0:0,0:0:0:0:
148,241,72725,6,0,B|249:258|168:297|267:316,1,149.039994996826,2|10,1:2|0:0,0:0:0:0:
371,250,73193,1,2,0:0:0:0:
297,144,73350,2,0,P|260:149|224:158,1,74.5199974984132,2|2,1:2|1:2,0:0:0:0:
285,323,73662,2,0,P|322:331|359:337,1,74.5199974984132,10|2,0:0|0:0,0:0:0:0:
479,140,73975,6,0,P|496:212|515:297,2,149.039994996826,2|10|2,1:2|0:0|1:2,0:0:0:0:
417,255,74756,1,2,1:2:0:0:
336,123,74912,2,0,P|329:161|321:211,1,74.5199974984132,8|2,0:0|0:0,0:0:0:0:
223,361,75225,6,0,B|178:375|143:350|143:350|142:304|96:277,1,149.039994996826,2|10,1:2|0:0,0:0:0:0:
0,240,75693,1,2,0:0:0:0:
220,161,75850,2,0,P|213:203|208:245,1,74.5199974984132,2|2,1:2|1:2,0:0:0:0:
10,157,76162,2,0,P|5:120|0:83,1,74.5199974984132,8|2,0:0|0:0,0:0:0:0:
148,0,76475,6,0,B|248:16|167:55|266:75,1,149.039994996826,2|10,1:2|0:0,0:0:0:0:
389,7,76943,1,2,0:0:0:0:
295,175,77100,2,0,P|260:196|212:192,2,74.5199974984132,2|2|10,1:2|1:2|0:0,0:0:0:0:
177,112,77568,1,2,0:0:0:0:
409,155,77725,6,0,P|392:231|374:328,1,149.039994996826,2|8,1:2|0:0,0:0:0:0:
308,206,78193,1,0,0:0:0:0:
427,362,78350,2,0,P|462:339|475:299,1,74.5199974984132,0|0,1:0|1:0,0:0:0:0:
284,290,78662,1,8,0:0:0:0:
512,204,78818,5,2,3:0:0:0:
441,56,79600,6,0,P|450:88|460:138,3,68.8500013132096,2|0|10|0,3:2|1:0|0:0|3:0,0:0:0:0:
368,3,80225,6,0,B|330:-4|304:22|304:22|294:72|246:85,1,139.725002665043,6|0,1:2|0:0,0:0:0:0:
186,86,80537,2,0,P|166:66|206:13,1,93.1500017766953,8|0,0:0|0:0,0:0:0:0:
366,84,80850,1,2,1:2:0:0:
169,219,81006,1,0,1:0:0:0:
264,64,81162,2,0,P|276:109|291:169,1,93.1500017766953,10|0,0:0|0:0,0:0:0:0:
430,245,81475,5,2,1:2:0:0:
203,145,81631,1,2,0:0:0:0:
441,73,81787,2,0,P|434:119|426:180,1,93.1500017766953,10|2,0:0|0:0,0:0:0:0:
280,319,82100,5,0,1:0:0:0:
512,237,82256,1,2,1:2:0:0:
269,174,82412,2,0,P|227:185|162:212,1,93.1500017766953,8|0,0:0|0:0,0:0:0:0:
16,355,82725,6,0,P|26:268|44:162,1,186.300003553391,2|8,1:2|0:0,0:0:0:0:
182,271,83193,1,2,0:0:0:0:
111,100,83350,2,0,P|76:61|19:53,1,93.1500017766953,2|0,1:2|1:0,0:0:0:0:
186,281,83662,2,0,P|229:267|259:231,1,93.1500017766953,8|0,0:0|0:0,0:0:0:0:
319,4,83975,6,0,P|332:46|351:108,1,93.1500017766953,2|2,1:2|0:0,0:0:0:0:
501,136,84287,2,0,P|527:99|511:58,1,93.1500017766953,10|2,0:0|0:0,0:0:0:0:
285,148,84600,1,0,1:0:0:0:
455,0,84756,1,2,1:2:0:0:
408,253,84912,2,0,P|398:205|384:148,1,93.1500017766953,8|0,0:0|0:0,0:0:0:0:
220,0,85225,6,0,B|110:12|180:83|55:89,1,186.300003553391,2|8,1:2|0:0,0:0:0:0:
245,118,85693,1,2,0:0:0:0:
66,264,85850,2,0,B|41:225|41:225|44:178,1,93.1500017766953,2|0,1:2|1:0,0:0:0:0:
273,112,86162,2,0,B|298:151|298:151|294:197,1,93.1500017766953,8|0,0:0|0:0,0:0:0:0:
96,384,86475,6,0,P|140:371|186:362,1,93.1500017766953,2|2,1:2|0:0,0:0:0:0:
314,298,86787,2,0,P|364:303|418:316,1,93.1500017766953,10|2,0:0|0:0,0:0:0:0:
501,183,87100,1,0,1:0:0:0:
257,249,87256,1,2,1:2:0:0:
486,375,87412,2,0,P|497:329|512:280,1,93.1500017766953,8|2,0:0|0:0,0:0:0:0:
401,75,87725,6,0,P|351:71|316:193,1,186.300003553391,6|10,1:2|0:0,0:0:0:0:
494,57,88193,1,2,0:0:0:0:
257,260,88350,6,0,P|174:239|48:210,1,186.300003553391,6|10,1:2|0:0,0:0:0:0:
223,111,88818,1,2,0:0:0:0:
45,362,88975,6,0,B|151:355|87:276|192:268,1,186.300003553391,6|8,1:2|0:0,0:0:0:0:
0,231,89443,1,0,0:0:0:0:
248,377,89600,6,0,P|295:372|336:333,1,93.1500017766953,2|2,1:2|0:0,0:0:0:0:
421,248,89912,2,0,P|466:252|502:281,1,93.1500017766953,10|0,0:0|0:0,0:0:0:0:
233,126,90225,6,0,P|181:138|58:177,1,139.725002665043,6|0,1:2|0:0,0:0:0:0:
34,207,90537,2,0,B|-10:184|-10:184|2:130,1,93.1500017766953,8|0,0:0|0:0,0:0:0:0:
170,39,90850,1,2,1:2:0:0:
104,247,91006,1,0,1:0:0:0:
27,36,91162,2,0,P|70:60|112:86,1,93.1500017766953,10|2,0:0|0:0,0:0:0:0:
296,37,91475,5,2,1:2:0:0:
69,176,91631,1,2,0:0:0:0:
335,177,91787,2,0,P|291:201|250:227,1,93.1500017766953,10|2,0:0|0:0,0:0:0:0:
131,100,92100,5,0,1:2:0:0:
233,338,92256,1,2,1:2:0:0:
33,188,92412,2,0,P|23:238|15:291,1,93.1500017766953,8|0,0:0|0:0,0:0:0:0:
255,367,92725,6,0,P|317:338|287:232,1,186.300003553391,2|10,1:2|0:0,0:0:0:0:
163,327,93193,1,2,0:0:0:0:
289,131,93350,2,0,P|340:136|392:147,1,93.1500017766953,2|0,1:2|1:0,0:0:0:0:
495,327,93662,2,0,P|449:335|402:340,1,93.1500017766953,8|0,0:0|0:0,0:0:0:0:
143,251,93975,6,0,P|150:207|161:159,1,93.1500017766953,2|2,1:2|0:0,0:0:0:0:
148,15,94287,2,0,P|128:3|70:38,1,93.1500017766953,10|2,0:0|0:0,0:0:0:0:
229,191,94600,1,0,1:2:0:0:
0,91,94756,1,2,1:2:0:0:
239,0,94912,2,0,P|245:41|253:98,1,93.1500017766953,10|0,0:0|0:0,0:0:0:0:
405,244,95225,6,0,B|295:256|365:327|240:333,1,186.300003553391,2|8,1:2|0:0,0:0:0:0:
411,339,95693,1,2,0:0:0:0:
236,209,95850,2,0,B|191:186|191:186|135:205,1,93.1500017766953,2|0,1:2|1:0,0:0:0:0:
83,345,96162,2,0,B|128:368|128:368|184:349,1,93.1500017766953,8|0,0:0|0:0,0:0:0:0:
412,110,96475,6,0,P|396:67|376:15,1,93.1500017766953,2|2,1:2|0:0,0:0:0:0:
274,188,96787,2,0,P|291:229|335:239,1,93.1500017766953,10|2,0:0|0:2,0:0:0:0:
493,89,97100,1,0,1:0:0:0:
241,26,97256,1,2,1:2:0:0:
427,228,97412,2,0,B|468:245|468:245|529:213,1,93.1500017766953,8|2,0:0|0:0,0:0:0:0:
393,14,97725,6,0,B|314:32|314:32|307:29|307:29|219:49,1,162,6|8,1:2|0:0,0:0:0:0:
121,28,98193,1,0,3:0:0:0:
65,115,98350,1,4,3:0:0:0:
139,194,98506,1,8,3:0:0:0:
238,124,98662,5,4,3:0:0:0:
124,204,98818,1,4,3:0:0:0:
289,265,98975,6,0,L|322:257,1,20.25,8|8,0:0|0:0,0:0:0:0:
256,192,110225,12,2,117725,0:0:0:0:
68,252,118975,6,0,P|78:284|87:318,1,68.8500013132096,2|0,0:3|0:0,0:0:0:0:
259,169,119287,2,0,P|248:201|240:235,1,68.8500013132096,2|0,0:3|0:0,0:0:0:0:
57,90,119600,5,10,0:0:0:0:
80,57,119678,1,8,0:0:0:0:
116,39,119756,1,8,0:0:0:0:
156,39,119834,1,8,0:0:0:0:
192,57,119912,1,8,0:0:0:0:
227,84,119990,1,8,0:0:0:0:
274,94,120068,1,8,0:0:0:0:
318,74,120146,1,8,0:0:0:0:
334,27,120225,6,0,B|235:31|299:109|212:112,1,162,6|8,1:2|0:0,0:0:0:0:
72,9,120693,1,2,0:0:0:0:
153,213,120850,1,2,1:2:0:0:
153,213,121006,2,0,P|108:192|71:187,1,81,2|10,1:2|0:0,0:0:0:0:
220,342,121318,1,2,0:0:0:0:
220,342,121396,1,2,0:0:0:0:
220,342,121475,6,0,P|305:310|395:288,1,162,2|8,1:2|0:0,0:0:0:0:
446,121,121943,2,0,P|412:143|399:193,1,81,2|0,0:0|1:0,0:0:0:0:
499,300,122256,1,2,1:2:0:0:
268,203,122412,1,8,0:0:0:0:
510,304,122568,1,2,0:0:0:0:
170,343,122725,6,0,B|153:319|134:307|134:307|164:253|178:187,1,162,2|10,1:2|0:0,0:0:0:0:
265,329,123193,1,2,0:0:0:0:
75,212,123350,2,0,P|57:133|31:33,1,162,2|10,1:2|0:0,0:0:0:0:
226,116,123818,1,2,0:0:0:0:
226,116,123896,1,2,0:0:0:0:
226,116,123975,6,0,P|273:95|244:-3,1,162,2|8,1:2|0:0,0:0:0:0:
355,178,124443,2,0,P|396:160|455:151,1,81,2|0,0:0|1:2,0:0:0:0:
299,284,124756,1,2,1:2:0:0:
395,69,124912,1,10,0:0:0:0:
293,299,125068,1,2,0:0:0:0:
265,33,125225,6,0,P|179:16|91:4,1,162,2|10,1:2|0:0,0:0:0:0:
286,132,125693,1,2,0:0:0:0:
82,202,125850,2,0,B|78:245|108:265|108:265|149:242|224:232,1,162,2|10,1:2|0:0,0:0:0:0:
373,352,126318,1,2,0:0:0:0:
373,352,126396,1,2,0:0:0:0:
373,352,126475,6,0,P|391:274|423:162,1,162,2|8,1:2|0:0,0:0:0:0:
270,71,126943,2,0,P|281:111|296:171,1,81,2|0,0:0|1:0,0:0:0:0:
440,67,127256,1,2,1:2:0:0:
215,186,127412,1,10,0:0:0:0:
450,62,127568,1,2,0:0:0:0:
136,23,127725,6,0,B|223:26|159:104|258:108,1,162,6|8,1:2|0:0,0:0:0:0:
146,228,128193,1,2,0:0:0:0:
354,75,128350,6,0,P|329:154|303:261,1,162,6|8,1:2|0:0,0:0:0:0:
245,5,128818,1,2,0:0:0:0:
443,200,128975,6,0,P|506:170|466:69,1,162,6|8,1:2|0:0,0:0:0:0:
372,303,129443,1,2,0:0:0:0:
251,117,129600,1,2,1:2:0:0:
251,117,129756,2,0,P|184:86|142:78,1,81,2|10,1:2|0:0,0:0:0:0:
30,290,130068,1,2,0:0:0:0:
30,290,130146,1,2,0:0:0:0:
30,290,130225,6,0,B|71:310|99:355|99:355|129:337|171:327,1,162,6|8,1:2|0:0,0:0:0:0:
309,160,130693,1,2,0:0:0:0:
105,248,130850,1,2,1:2:0:0:
105,248,131006,2,0,P|92:209|75:167,1,81,2|10,1:2|0:0,0:0:0:0:
256,0,131318,1,2,0:0:0:0:
256,0,131396,1,2,0:0:0:0:
256,0,131475,6,0,P|334:18|422:51,1,162,2|8,1:2|0:0,0:0:0:0:
449,240,131943,2,0,P|419:198|422:160,1,81,2|0,0:0|1:0,0:0:0:0:
323,289,132256,1,2,1:2:0:0:
512,136,132412,1,10,0:0:0:0:
315,296,132568,1,2,0:0:0:0:
397,39,132725,6,0,P|363:9|278:62,1,162,2|10,1:2|0:0,0:0:0:0:
410,222,133193,1,2,0:0:0:0:
174,107,133350,2,0,P|194:181|218:277,1,162,2|10,1:2|0:0,0:0:0:0:
431,324,133818,1,2,0:0:0:0:
431,324,133896,1,2,0:0:0:0:
431,324,133975,6,0,B|346:366|346:366|317:341|281:343,1,162,2|8,1:2|0:0,0:0:0:0:
156,205,134443,2,0,P|195:223|210:276,1,81,2|0,0:0|1:2,0:0:0:0:
105,378,134756,1,2,1:2:0:0:
318,253,134912,1,10,0:0:0:0:
95,384,135068,1,2,0:0:0:0:
206,127,135225,6,0,P|286:107|391:86,1,162,2|10,1:2|0:0,0:0:0:0:
198,9,135693,1,2,0:0:0:0:
373,213,135850,2,0,B|472:209|408:131|495:128,1,162,2|10,1:2|0:0,0:0:0:0:
287,335,136318,1,2,0:0:0:0:
287,335,136396,1,2,0:0:0:0:
287,335,136475,6,0,P|206:309|114:286,1,162,2|8,1:2|0:0,0:0:0:0:
54,150,136943,2,0,P|89:120|150:138,1,81,2|0,0:0|1:2,0:0:0:0:
112,362,137256,1,2,1:2:0:0:
239,152,137412,1,10,0:0:0:0:
107,370,137568,1,2,0:0:0:0:
354,235,137725,6,0,P|396:247|389:353,1,162,2|10,1:2|0:0,0:0:0:0:
485,195,138193,1,0,0:0:0:0:
299,325,138350,2,0,P|262:316|212:307,1,81,2|0,1:2|1:0,0:0:0:0:
100,155,138662,2,0,P|149:169|159:215,1,81,10|0,0:0|0:0,0:0:0:0:
32,379,138975,6,0,P|19:305|0:211,1,162,2|10,1:2|0:0,0:0:0:0:
187,96,139443,1,0,0:0:0:0:
126,277,139600,1,2,1:2:0:0:
126,277,139756,1,0,1:0:0:0:
282,154,139912,6,0,B|297:175|311:190|311:190|294:225|285:279,1,121.5,10|0,0:0|0:0,0:0:0:0:
302,346,140225,6,0,P|346:368|430:300,1,162,6|10,1:2|0:0,0:0:0:0:
255,249,140693,1,0,0:0:0:0:
430,143,140850,2,0,P|447:180|450:221,1,81,2|0,1:2|1:0,0:0:0:0:
253,162,141162,2,0,P|256:121|272:84,1,81,10|0,0:0|0:0,0:0:0:0:
420,23,141475,5,2,1:2:0:0:
187,93,141631,1,2,0:0:0:0:
376,199,141787,2,0,P|343:212|290:243,1,81,10|0,0:0|0:0,0:0:0:0:
147,190,142100,5,2,1:2:0:0:
263,351,142256,1,0,1:0:0:0:
45,224,142412,2,0,P|82:207|117:188,1,81,10|0,0:0|0:0,0:0:0:0:
291,34,142725,6,0,P|270:105|246:208,1,162,2|10,1:2|0:0,0:0:0:0:
124,100,143193,1,0,0:0:0:0:
250,278,143350,2,0,P|296:269|323:231,1,81,2|0,1:2|1:0,0:0:0:0:
200,59,143662,2,0,P|154:68|127:106,1,81,10|0,0:0|0:0,0:0:0:0:
164,275,143975,5,2,1:2:0:0:
267,101,144131,1,2,0:0:0:0:
67,236,144287,2,0,P|56:195|42:152,1,81,10|0,0:0|0:0,0:0:0:0:
191,41,144600,5,2,1:2:0:0:
147,283,144756,1,0,1:0:0:0:
304,77,144912,2,0,P|291:115|281:154,1,81,10|0,0:0|0:0,0:0:0:0:
411,332,145225,6,0,P|466:308|438:200,1,162,2|10,1:2|0:0,0:0:0:0:
289,277,145693,1,0,0:0:0:0:
446,133,145850,2,0,P|400:108|360:107,1,81,2|0,1:2|1:0,0:0:0:0:
223,233,146162,2,0,P|233:272|242:311,1,81,10|0,0:0|0:0,0:0:0:0:
386,181,146475,5,2,1:2:0:0:
166,322,146631,1,2,0:0:0:0:
419,301,146787,2,0,P|381:287|324:271,1,81,10|0,0:0|0:0,0:0:0:0:
196,127,147100,5,2,1:2:0:0:
292,336,147256,1,0,1:0:0:0:
298,97,147412,2,0,P|284:131|268:185,1,81,10|0,0:0|0:0,0:0:0:0:
157,363,147725,6,0,P|81:339|-14:317,1,162,2|10,1:2|0:0,0:0:0:0:
232,266,148193,1,0,0:0:0:0:
17,210,148350,6,0,P|19:152|121:134,1,162,2|10,1:2|0:0,0:0:0:0:
241,279,148818,1,0,0:0:0:0:
157,62,148975,6,0,P|196:51|249:39,1,81,2|2,1:2|0:0,0:0:0:0:
301,257,149287,2,0,P|261:247|222:236,1,81,10|0,0:0|0:0,0:0:0:0:
429,135,149600,5,2,1:2:0:0:
363,314,149756,1,0,1:0:0:0:
286,117,149912,2,0,P|307:79|353:69,1,81,10|0,0:0|0:0,0:0:0:0:
510,306,150225,6,0,P|439:296|321:283,1,162,6|10,1:2|0:0,0:0:0:0:
456,171,150693,1,0,0:0:0:0:
249,309,150850,2,0,P|238:266|224:222,1,81,2|0,1:2|1:0,0:0:0:0:
380,107,151162,2,0,P|367:145|358:184,1,81,10|0,0:0|0:0,0:0:0:0:
222,57,151475,5,2,1:2:0:0:
383,209,151631,1,2,0:0:0:0:
140,123,151787,2,0,P|155:164|175:224,1,81,10|0,0:0|0:0,0:0:0:0:
339,88,152100,5,2,1:2:0:0:
237,294,152256,1,0,1:0:0:0:
456,191,152412,2,0,P|429:149|380:134,1,81,10|0,0:0|0:0,0:0:0:0:
182,21,152725,6,0,B|98:46|98:46|65:87|124:114,1,162,2|8,1:2|0:0,0:0:0:0:
270,100,153193,1,0,0:0:0:0:
128,266,153350,2,0,P|83:252|35:245,1,81,2|0,1:2|1:0,0:0:0:0:
248,369,153662,2,0,P|289:341|295:297,1,81,10|0,0:0|0:0,0:0:0:0:
204,160,153975,5,2,1:2:0:0:
412,257,154131,1,2,0:0:0:0:
136,285,154287,2,0,P|178:271|232:259,1,81,10|0,0:0|0:0,0:0:0:0:
392,137,154600,5,2,1:2:0:0:
322,334,154756,1,0,1:0:0:0:
250,87,154912,2,0,P|271:127|294:174,1,81,10|0,0:0|0:0,0:0:0:0:
453,336,155225,6,0,P|465:255|483:158,1,162,2|10,1:2|0:0,0:0:0:0:
333,50,155693,1,0,0:0:0:0:
396,222,155850,2,0,P|369:262|325:266,1,81,2|0,1:2|1:0,0:0:0:0:
216,89,156162,2,0,P|253:101|272:135,1,81,10|0,0:0|0:0,0:0:0:0:
153,366,156475,5,2,1:2:0:0:
211,169,156631,1,2,0:0:0:0:
263,384,156787,5,10,0:0:0:0:
99,191,156943,1,2,1:2:0:0:
362,212,157100,5,8,0:0:0:0:
4,309,157256,1,2,1:2:0:0:
422,328,157412,5,8,0:0:0:0:
0,168,157568,2,0,P|87:146|183:124,1,162,2|0,0:0|0:0,0:0:0:0:
