osu file format v14

[General]
AudioFilename: audio.mp3
AudioLeadIn: 0
PreviewTime: 39495
Countdown: 0
SampleSet: Normal
StackLeniency: 0.7
Mode: 1
LetterboxInBreaks: 0
WidescreenStoryboard: 0

[Editor]
DistanceSpacing: 1.3
BeatDivisor: 2
GridSize: 32
TimelineZoom: 2

[Metadata]
Title:podruga (Cut Ver.)
TitleUnicode:подруга (Cut Ver.)
Artist:kis-kis
ArtistUnicode:кис-кис
Creator:Lexa14
Version:kantan
Source:
Tags:Russian kiskis кискис rock pop punk pop-punk punk-rock alternative female vocals kiskisnotdead русский юность в стиле панк Софья Сомусева Алина Олешева
BeatmapID:3162853
BeatmapSetID:1547713

[Difficulty]
HPDrainRate:8.5
CircleSize:2
OverallDifficulty:3
ApproachRate:0
SliderMultiplier:1.4
SliderTickRate:1

[Events]
//Background and Video events
0,0,"anime-manga-anime-girls-simple-background-minimalism-brunette-1467853-wallhere.com.jpg",0,60
//Break Periods
//Storyboard Layer 0 (Background)
//Storyboard Layer 1 (Fail)
//Storyboard Layer 2 (Pass)
//Storyboard Layer 3 (Foreground)
//Storyboard Layer 4 (Overlay)
//Storyboard Sound Samples

[TimingPoints]
225,312.5,4,1,0,70,1,0
225,-100,4,1,0,70,0,0
10200,-100,4,1,0,80,0,0
20512,-100,4,1,0,70,0,0
40225,-100,4,1,0,90,0,1
57725,-100,4,1,0,90,0,0
60200,-100,4,1,0,70,0,0
78959,-100,4,1,0,80,0,0
78975,312.5,4,1,0,80,1,8
78984,312.5,4,1,0,80,1,0
80200,-100,4,1,0,90,0,0

[HitObjects]
256,192,225,5,0,0:0:0:0:
256,192,850,1,0,0:0:0:0:
256,192,1475,1,8,0:0:0:0:
256,192,2725,1,0,0:0:0:0:
256,192,3350,1,0,0:0:0:0:
256,192,3975,1,8,0:0:0:0:
256,192,5225,1,0,0:0:0:0:
256,192,5850,1,0,0:0:0:0:
256,192,6475,1,8,0:0:0:0:
256,192,7100,1,8,0:0:0:0:
256,192,7725,1,0,0:0:0:0:
256,192,8975,1,8,0:0:0:0:
256,192,9600,1,8,0:0:0:0:
256,192,9912,1,8,0:0:0:0:
256,192,10225,1,12,0:0:0:0:
256,192,10850,1,0,0:0:0:0:
256,192,11475,1,8,0:0:0:0:
256,192,11787,1,0,0:0:0:0:
256,192,12100,1,8,0:0:0:0:
256,192,12725,1,0,0:0:0:0:
256,192,13975,1,8,0:0:0:0:
256,192,14287,1,0,0:0:0:0:
256,192,14600,1,8,0:0:0:0:
256,192,15225,1,8,0:0:0:0:
256,192,15850,1,0,0:0:0:0:
256,192,16475,1,8,0:0:0:0:
256,192,16787,1,8,0:0:0:0:
256,192,17100,1,0,0:0:0:0:
256,192,17725,1,8,0:0:0:0:
256,192,18975,1,0,0:0:0:0:
256,192,20225,1,4,0:0:0:0:
256,192,20537,1,0,0:0:0:0:
256,192,20850,1,8,0:0:0:0:
256,192,21475,1,8,0:0:0:0:
256,192,22100,1,0,0:0:0:0:
256,192,22725,1,0,0:0:0:0:
256,192,23037,1,8,0:0:0:0:
256,192,23350,1,8,0:0:0:0:
256,192,23975,1,0,0:0:0:0:
256,192,25225,1,8,0:0:0:0:
256,192,25537,1,0,0:0:0:0:
256,192,25850,1,8,0:0:0:0:
256,192,26475,1,0,0:0:0:0:
256,192,27099,1,8,0:0:0:0:
256,192,27725,1,0,0:0:0:0:
256,192,28818,1,8,0:0:0:0:
256,192,29287,1,0,0:0:0:0:
256,192,29912,1,8,0:0:0:0:
256,192,30537,1,0,0:0:0:0:
256,192,30850,1,8,0:0:0:0:
256,192,31475,1,8,0:0:0:0:
256,192,32100,1,0,0:0:0:0:
256,192,32725,1,0,0:0:0:0:
256,192,33037,1,8,0:0:0:0:
256,192,33350,1,0,0:0:0:0:
256,192,33975,1,8,0:0:0:0:
256,192,34600,1,0,0:0:0:0:
256,192,35225,1,8,0:0:0:0:
256,192,35850,1,0,0:0:0:0:
256,192,36475,1,8,0:0:0:0:
256,192,36787,1,0,0:0:0:0:
256,192,37100,1,8,0:0:0:0:
256,192,37725,1,0,0:0:0:0:
256,192,38818,1,8,0:0:0:0:
256,192,39600,1,8,0:0:0:0:
256,192,40225,1,4,0:0:0:0:
256,192,40850,1,0,0:0:0:0:
256,192,41475,1,8,0:0:0:0:
256,192,41787,1,0,0:0:0:0:
256,192,42256,1,0,0:0:0:0:
256,192,42725,1,8,0:0:0:0:
256,192,43350,1,0,0:0:0:0:
256,192,43975,1,8,0:0:0:0:
256,192,44287,1,8,0:0:0:0:
256,192,44756,1,8,0:0:0:0:
256,192,45225,1,0,0:0:0:0:
256,192,45850,1,0,0:0:0:0:
256,192,46475,1,8,0:0:0:0:
256,192,47100,1,8,0:0:0:0:
256,192,47725,1,0,0:0:0:0:
256,192,48975,1,8,0:0:0:0:
256,192,49600,1,0,0:0:0:0:
256,192,49912,1,8,0:0:0:0:
256,192,50225,1,4,0:0:0:0:
256,192,50850,1,0,0:0:0:0:
256,192,51475,1,8,0:0:0:0:
256,192,52725,1,0,0:0:0:0:
256,192,53350,1,8,0:0:0:0:
256,192,53975,1,0,0:0:0:0:
256,192,54287,1,8,0:0:0:0:
256,192,54756,1,8,0:0:0:0:
256,192,55225,1,0,0:0:0:0:
256,192,55850,1,0,0:0:0:0:
256,192,56475,1,8,0:0:0:0:
256,192,57100,1,8,0:0:0:0:
256,192,57725,1,0,0:0:0:0:
256,192,58975,1,8,0:0:0:0:
256,192,60225,1,0,0:0:0:0:
256,192,61475,1,8,0:0:0:0:
256,192,62725,1,0,0:0:0:0:
256,192,63350,1,0,0:0:0:0:
256,192,63975,1,8,0:0:0:0:
256,192,65225,1,8,0:0:0:0:
256,192,65850,1,0,0:0:0:0:
256,192,66475,1,8,0:0:0:0:
256,192,67725,1,0,0:0:0:0:
256,192,68975,1,0,0:0:0:0:
256,192,69600,1,8,0:0:0:0:
256,192,70225,1,8,0:0:0:0:
256,192,70850,1,8,0:0:0:0:
256,192,71475,1,0,0:0:0:0:
256,192,72725,1,8,0:0:0:0:
256,192,73350,1,8,0:0:0:0:
256,192,73975,1,0,0:0:0:0:
256,192,75225,1,0,0:0:0:0:
256,192,75850,1,0,0:0:0:0:
256,192,76475,1,8,0:0:0:0:
256,192,77725,1,0,0:0:0:0:
256,192,78984,1,4,0:0:0:0:
256,192,79609,1,8,0:0:0:0:
256,192,79921,1,8,0:0:0:0:
256,192,80234,1,4,0:0:0:0:
256,192,80702,1,8,0:0:0:0:
256,192,81171,1,0,0:0:0:0:
256,192,81484,1,8,0:0:0:0:
256,192,82734,1,8,0:0:0:0:
256,192,83359,1,0,0:0:0:0:
256,192,83984,1,8,0:0:0:0:
256,192,85234,1,0,0:0:0:0:
256,192,85859,1,0,0:0:0:0:
256,192,86484,1,8,0:0:0:0:
256,192,87734,1,8,0:0:0:0:
256,192,88984,1,8,0:0:0:0:
256,192,89609,1,0,0:0:0:0:
256,192,90234,1,12,0:0:0:0:
256,192,90546,1,8,0:0:0:0:
256,192,90859,1,0,0:0:0:0:
256,192,91484,1,8,0:0:0:0:
256,192,92109,1,0,0:0:0:0:
256,192,92734,1,8,0:0:0:0:
256,192,93984,1,0,0:0:0:0:
256,192,94296,1,0,0:0:0:0:
256,192,94609,1,8,0:0:0:0:
256,192,95234,1,8,0:0:0:0:
256,192,95859,1,0,0:0:0:0:
256,192,96484,1,0,0:0:0:0:
256,192,96796,1,0,0:0:0:0:
256,192,97109,1,8,0:0:0:0:
256,192,97577,1,8,0:0:0:0:
