osu file format v14

[General]
AudioFilename: audio.mp3
AudioLeadIn: 0
PreviewTime: 39495
Countdown: 0
SampleSet: Normal
StackLeniency: 0.7
Mode: 1
LetterboxInBreaks: 0
WidescreenStoryboard: 0

[Editor]
DistanceSpacing: 1.3
BeatDivisor: 4
GridSize: 32
TimelineZoom: 2.2

[Metadata]
Title:podruga (Cut Ver.)
TitleUnicode:подруга (Cut Ver.)
Artist:kis-kis
ArtistUnicode:кис-кис
Creator:Lexa14
Version:falling in love
Source:
Tags:Russian kiskis кискис rock pop punk pop-punk punk-rock alternative female vocals kiskisnotdead русский юность в стиле панк Софья Сомусева Алина Олешева
BeatmapID:3162851
BeatmapSetID:1547713

[Difficulty]
HPDrainRate:5.5
CircleSize:2
OverallDifficulty:5
ApproachRate:0
SliderMultiplier:1.4
SliderTickRate:1

[Events]
//Background and Video events
0,0,"anime-manga-anime-girls-simple-background-minimalism-brunette-1467853-wallhere.com.jpg",0,60
//Break Periods
//Storyboard Layer 0 (Background)
//Storyboard Layer 1 (Fail)
//Storyboard Layer 2 (Pass)
//Storyboard Layer 3 (Foreground)
//Storyboard Layer 4 (Overlay)
//Storyboard Sound Samples

[TimingPoints]
225,312.5,4,1,0,70,1,0
225,-111.111111111111,4,1,0,70,0,0
8871,-109.89010989011,4,1,0,70,0,0
8950,-109.174238809913,4,1,0,70,0,0
9106,-107.7701177173,4,1,0,70,0,0
9262,-106.401768823005,4,1,0,70,0,0
9418,-105.067621521211,4,1,0,70,0,0
9496,-104.41301612659,4,1,0,70,0,0
9575,-103.766517035349,4,1,0,70,0,0
9731,-102.497347881124,4,1,0,70,0,0
9887,-101.258747490049,4,1,0,70,0,0
10043,-100.049724713182,4,1,0,70,0,0
10200,-100,4,1,0,80,0,0
20512,-100,4,1,0,70,0,0
39575,-98.0392156862745,4,1,0,70,0,0
39731,-96.1538461538461,4,1,0,70,0,0
39887,-94.3396226415094,4,1,0,70,0,0
40043,-92.5925925925926,4,1,0,70,0,0
40225,-90.9090909090909,4,1,0,90,0,1
56450,-91.743119266055,4,1,0,90,0,1
56528,-92.2874458618771,4,1,0,90,0,1
56606,-93.4579439252336,4,1,0,90,0,1
56762,-93.9597063195419,4,1,0,90,0,1
56918,-95.1086568850583,4,1,0,90,0,1
57231,-97.4930633685413,4,1,0,90,0,1
57387,-98.7306204133456,4,1,0,90,0,1
57543,-100,4,1,0,90,0,1
57725,-100,4,1,0,90,0,0
60200,-125,4,1,0,70,0,0
78975,312.5,4,1,0,80,1,8
78984,312.5,4,1,0,80,1,0
78984,-111.111111111111,4,1,0,80,0,0
79575,-109.89010989011,4,1,0,80,0,0
79652,-108.695652173913,4,1,0,80,0,0
79731,-107.52688172043,4,1,0,80,0,0
79887,-105.263157894737,4,1,0,80,0,0
79965,-104.166666666667,4,1,0,80,0,0
80043,-103.092783505155,4,1,0,80,0,0
80200,-100,4,1,0,90,0,0

[HitObjects]
256,192,225,5,0,0:0:0:0:
256,192,537,1,0,0:0:0:0:
256,192,850,1,8,0:0:0:0:
256,192,1475,1,8,0:0:0:0:
256,192,1631,1,8,0:0:0:0:
256,192,1787,1,0,0:0:0:0:
256,192,2100,1,8,0:0:0:0:
256,192,2412,1,8,0:0:0:0:
256,192,2725,1,0,0:0:0:0:
256,192,3037,1,8,0:0:0:0:
256,192,3350,1,0,0:0:0:0:
256,192,3975,1,8,0:0:0:0:
256,192,4131,1,8,0:0:0:0:
256,192,4287,1,0,0:0:0:0:
256,192,4600,1,0,0:0:0:0:
256,192,4912,1,8,0:0:0:0:
256,192,5225,1,0,0:0:0:0:
256,192,5537,1,8,0:0:0:0:
256,192,5850,1,0,0:0:0:0:
256,192,6475,1,8,0:0:0:0:
256,192,6631,1,8,0:0:0:0:
256,192,6787,1,0,0:0:0:0:
256,192,7100,1,8,0:0:0:0:
256,192,7412,1,8,0:0:0:0:
256,192,7725,1,0,0:0:0:0:
256,192,7881,1,0,0:0:0:0:
256,192,8037,1,8,0:0:0:0:
256,192,8271,1,0,0:0:0:0:
256,192,8350,1,8,0:0:0:0:
256,192,8506,1,0,0:0:0:0:
256,192,8662,1,8,0:0:0:0:
256,192,8896,1,0,0:0:0:0:
256,192,8975,1,8,0:0:0:0:
256,192,9131,1,8,0:0:0:0:
256,192,9287,1,8,0:0:0:0:
256,192,9443,1,0,0:0:0:0:
256,192,9521,1,0,0:0:0:0:
256,192,9600,1,8,0:0:0:0:
256,192,9756,1,0,0:0:0:0:
256,192,9912,1,8,0:0:0:0:
256,192,10068,1,0,0:0:0:0:
256,192,10225,1,12,0:0:0:0:
256,192,10537,1,8,0:0:0:0:
256,192,10850,1,0,0:0:0:0:
256,192,11162,1,0,0:0:0:0:
256,192,11475,1,8,0:0:0:0:
256,192,11631,1,8,0:0:0:0:
256,192,11787,1,0,0:0:0:0:
256,192,12100,1,8,0:0:0:0:
256,192,12256,1,0,0:0:0:0:
256,192,12412,1,8,0:0:0:0:
256,192,12725,1,0,0:0:0:0:
256,192,13037,1,0,0:0:0:0:
256,192,13350,1,8,0:0:0:0:
256,192,13662,1,8,0:0:0:0:
256,192,13975,1,8,0:0:0:0:
256,192,14131,1,8,0:0:0:0:
256,192,14287,1,0,0:0:0:0:
256,192,14600,1,8,0:0:0:0:
256,192,14756,1,0,0:0:0:0:
256,192,14912,1,8,0:0:0:0:
256,192,15225,1,8,0:0:0:0:
256,192,15537,1,8,0:0:0:0:
256,192,15850,1,0,0:0:0:0:
256,192,16162,1,0,0:0:0:0:
256,192,16475,1,8,0:0:0:0:
256,192,16631,1,8,0:0:0:0:
256,192,16787,1,0,0:0:0:0:
256,192,17100,1,8,0:0:0:0:
256,192,17256,1,0,0:0:0:0:
256,192,17412,1,8,0:0:0:0:
256,192,17725,1,8,0:0:0:0:
256,192,17881,1,8,0:0:0:0:
256,192,18037,1,0,0:0:0:0:
256,192,18271,1,8,0:0:0:0:
256,192,18350,1,0,0:0:0:0:
256,192,18506,1,8,0:0:0:0:
256,192,18662,1,0,0:0:0:0:
256,192,18896,1,8,0:0:0:0:
256,192,18975,1,0,0:0:0:0:
256,192,19131,1,0,0:0:0:0:
256,192,19287,1,8,0:0:0:0:
256,192,19600,1,8,0:0:0:0:
256,192,19756,1,0,0:0:0:0:
256,192,19912,1,8,0:0:0:0:
256,192,20225,1,4,0:0:0:0:
256,192,20537,1,0,0:0:0:0:
256,192,20693,1,8,0:0:0:0:
256,192,20771,1,8,0:0:0:0:
256,192,20850,1,0,0:0:0:0:
256,192,21006,1,0,0:0:0:0:
256,192,21162,1,8,0:0:0:0:
256,192,21318,1,0,0:0:0:0:
256,192,21475,1,8,0:0:0:0:
256,192,21787,1,8,0:0:0:0:
256,192,22100,1,0,0:0:0:0:
256,192,22256,1,8,0:0:0:0:
256,192,22568,1,8,0:0:0:0:
256,192,22725,1,0,0:0:0:0:
256,192,23037,1,0,0:0:0:0:
256,192,23193,1,0,0:0:0:0:
256,192,23350,1,8,0:0:0:0:
256,192,23506,1,8,0:0:0:0:
256,192,23662,1,0,0:0:0:0:
256,192,23818,1,8,0:0:0:0:
256,192,23975,1,0,0:0:0:0:
256,192,24287,1,0,0:0:0:0:
256,192,24600,1,8,0:0:0:0:
256,192,24756,1,0,0:0:0:0:
256,192,25068,1,0,0:0:0:0:
256,192,25225,1,8,0:0:0:0:
256,192,25537,1,0,0:0:0:0:
256,192,25693,1,0,0:0:0:0:
256,192,25850,1,8,0:0:0:0:
256,192,25928,1,8,0:0:0:0:
256,192,26006,1,8,0:0:0:0:
256,192,26162,1,0,0:0:0:0:
256,192,26318,1,0,0:0:0:0:
256,192,26475,1,8,0:0:0:0:
256,192,26787,1,8,0:0:0:0:
256,192,26943,1,0,0:0:0:0:
256,192,27099,1,8,0:0:0:0:
256,192,27178,1,8,0:0:0:0:
256,192,27256,1,0,0:0:0:0:
256,192,27412,1,0,0:0:0:0:
256,192,27568,1,8,0:0:0:0:
256,192,27725,1,8,0:0:0:0:
256,192,28037,1,0,0:0:0:0:
256,192,28193,1,0,0:0:0:0:
256,192,28350,1,8,0:0:0:0:
256,192,28506,1,0,0:0:0:0:
256,192,28662,1,8,0:0:0:0:
256,192,28818,1,8,0:0:0:0:
256,192,28975,1,0,0:0:0:0:
256,192,29131,1,0,0:0:0:0:
256,192,29209,1,0,0:0:0:0:
256,192,29287,1,8,0:0:0:0:
256,192,29443,1,0,0:0:0:0:
256,192,29600,1,8,0:0:0:0:
256,192,29678,1,8,0:0:0:0:
256,192,29756,1,8,0:0:0:0:
256,192,29912,1,0,0:0:0:0:
256,192,30225,1,0,0:0:0:0:
256,192,30537,1,0,0:0:0:0:
256,192,30693,1,8,0:0:0:0:
256,192,30771,1,8,0:0:0:0:
256,192,30850,1,0,0:0:0:0:
256,192,31006,1,0,0:0:0:0:
256,192,31162,1,8,0:0:0:0:
256,192,31318,1,0,0:0:0:0:
256,192,31475,1,8,0:0:0:0:
256,192,31787,1,8,0:0:0:0:
256,192,32100,1,0,0:0:0:0:
256,192,32256,1,8,0:0:0:0:
256,192,32568,1,8,0:0:0:0:
256,192,32725,1,0,0:0:0:0:
256,192,33037,1,8,0:0:0:0:
256,192,33193,1,8,0:0:0:0:
256,192,33350,1,0,0:0:0:0:
256,192,33428,1,0,0:0:0:0:
256,192,33506,1,8,0:0:0:0:
256,192,33662,1,0,0:0:0:0:
256,192,33818,1,0,0:0:0:0:
256,192,33975,1,8,0:0:0:0:
256,192,34287,1,8,0:0:0:0:
256,192,34600,1,8,0:0:0:0:
256,192,34756,1,0,0:0:0:0:
256,192,35068,1,0,0:0:0:0:
256,192,35225,1,8,0:0:0:0:
256,192,35537,1,0,0:0:0:0:
256,192,35693,1,8,0:0:0:0:
256,192,35771,1,8,0:0:0:0:
256,192,35850,1,0,0:0:0:0:
256,192,36006,1,0,0:0:0:0:
256,192,36162,1,8,0:0:0:0:
256,192,36318,1,0,0:0:0:0:
256,192,36475,1,0,0:0:0:0:
256,192,36787,1,8,0:0:0:0:
256,192,36943,1,8,0:0:0:0:
256,192,37100,1,0,0:0:0:0:
256,192,37178,1,8,0:0:0:0:
256,192,37256,1,0,0:0:0:0:
256,192,37412,1,8,0:0:0:0:
256,192,37568,1,8,0:0:0:0:
256,192,37725,1,0,0:0:0:0:
256,192,38037,1,0,0:0:0:0:
256,192,38193,1,8,0:0:0:0:
256,192,38350,1,0,0:0:0:0:
256,192,38506,1,8,0:0:0:0:
256,192,38662,1,8,0:0:0:0:
256,192,38818,1,0,0:0:0:0:
256,192,39600,1,8,0:0:0:0:
256,192,39756,1,8,0:0:0:0:
256,192,39912,1,8,0:0:0:0:
256,192,40068,1,8,0:0:0:0:
256,192,40225,1,4,0:0:0:0:
256,192,40537,1,0,0:0:0:0:
256,192,40693,1,8,0:0:0:0:
256,192,40850,1,0,0:0:0:0:
256,192,41006,1,0,0:0:0:0:
256,192,41162,1,8,0:0:0:0:
256,192,41475,1,8,0:0:0:0:
256,192,41631,1,8,0:0:0:0:
256,192,41709,1,0,0:0:0:0:
256,192,41787,1,8,0:0:0:0:
256,192,41943,1,8,0:0:0:0:
256,192,42100,1,0,0:0:0:0:
256,192,42256,1,0,0:0:0:0:
256,192,42412,1,8,0:0:0:0:
256,192,42725,1,8,0:0:0:0:
256,192,42881,1,8,0:0:0:0:
256,192,43037,1,0,0:0:0:0:
256,192,43193,1,0,0:0:0:0:
256,192,43350,1,8,0:0:0:0:
256,192,43506,1,8,0:0:0:0:
256,192,43662,1,0,0:0:0:0:
256,192,43975,1,8,0:0:0:0:
256,192,44053,1,8,0:0:0:0:
256,192,44131,1,0,0:0:0:0:
256,192,44287,1,8,0:0:0:0:
256,192,44443,1,0,0:0:0:0:
256,192,44756,1,0,0:0:0:0:
256,192,44912,1,8,0:0:0:0:
256,192,45225,1,0,0:0:0:0:
256,192,45381,1,0,0:0:0:0:
256,192,45537,1,8,0:0:0:0:
256,192,45693,1,8,0:0:0:0:
256,192,45850,1,0,0:0:0:0:
256,192,46162,1,8,0:0:0:0:
256,192,46475,1,0,0:0:0:0:
256,192,46631,1,8,0:0:0:0:
256,192,46709,1,8,0:0:0:0:
256,192,46787,1,0,0:0:0:0:
256,192,46943,1,8,0:0:0:0:
256,192,47100,1,8,0:0:0:0:
256,192,47256,1,0,0:0:0:0:
256,192,47412,1,8,0:0:0:0:
256,192,47490,1,0,0:0:0:0:
256,192,47568,1,0,0:0:0:0:
256,192,47725,1,0,0:0:0:0:
256,192,48037,1,8,0:0:0:0:
256,192,48193,1,8,0:0:0:0:
256,192,48350,1,0,0:0:0:0:
256,192,48662,1,0,0:0:0:0:
256,192,48818,1,0,0:0:0:0:
256,192,48975,1,8,0:0:0:0:
256,192,49287,1,8,0:0:0:0:
256,192,49600,1,0,0:0:0:0:
256,192,49756,1,0,0:0:0:0:
256,192,49834,1,0,0:0:0:0:
256,192,49912,1,8,0:0:0:0:
256,192,50068,1,8,0:0:0:0:
256,192,50225,1,4,0:0:0:0:
256,192,50537,1,0,0:0:0:0:
256,192,50693,1,0,0:0:0:0:
256,192,50850,1,8,0:0:0:0:
256,192,51006,1,0,0:0:0:0:
256,192,51162,1,8,0:0:0:0:
256,192,51475,1,0,0:0:0:0:
256,192,51631,1,0,0:0:0:0:
256,192,51709,1,0,0:0:0:0:
256,192,51787,1,8,0:0:0:0:
256,192,51943,1,8,0:0:0:0:
256,192,52100,1,0,0:0:0:0:
256,192,52256,1,0,0:0:0:0:
256,192,52412,1,8,0:0:0:0:
256,192,52725,1,0,0:0:0:0:
256,192,53037,1,0,0:0:0:0:
256,192,53193,1,0,0:0:0:0:
256,192,53350,1,8,0:0:0:0:
256,192,53506,1,0,0:0:0:0:
256,192,53662,1,8,0:0:0:0:
256,192,53818,1,0,0:0:0:0:
256,192,53896,1,0,0:0:0:0:
256,192,53975,1,8,0:0:0:0:
256,192,54131,1,0,0:0:0:0:
256,192,54287,1,8,0:0:0:0:
256,192,54443,1,0,0:0:0:0:
256,192,54756,1,0,0:0:0:0:
256,192,54912,1,8,0:0:0:0:
256,192,55225,1,0,0:0:0:0:
256,192,55381,1,0,0:0:0:0:
256,192,55537,1,8,0:0:0:0:
256,192,55850,1,8,0:0:0:0:
256,192,56006,1,0,0:0:0:0:
256,192,56162,1,8,0:0:0:0:
256,192,56475,1,0,0:0:0:0:
256,192,56553,1,0,0:0:0:0:
256,192,56631,1,0,0:0:0:0:
256,192,56787,1,8,0:0:0:0:
256,192,56943,1,8,0:0:0:0:
256,192,57256,1,0,0:0:0:0:
256,192,57412,1,0,0:0:0:0:
256,192,57568,1,8,0:0:0:0:
256,192,57725,1,0,0:0:0:0:
256,192,58037,1,8,0:0:0:0:
256,192,58193,1,0,0:0:0:0:
256,192,58350,1,8,0:0:0:0:
256,192,58506,1,0,0:0:0:0:
256,192,58662,1,0,0:0:0:0:
256,192,58818,1,0,0:0:0:0:
256,192,58975,1,8,0:0:0:0:
256,192,60225,1,0,0:0:0:0:
256,192,60537,1,0,0:0:0:0:
256,192,60850,1,8,0:0:0:0:
256,192,61475,1,8,0:0:0:0:
256,192,61787,1,0,0:0:0:0:
256,192,61943,1,0,0:0:0:0:
256,192,62256,1,8,0:0:0:0:
256,192,62568,1,8,0:0:0:0:
256,192,62725,1,0,0:0:0:0:
256,192,63350,1,0,0:0:0:0:
256,192,63662,1,8,0:0:0:0:
256,192,63975,1,0,0:0:0:0:
256,192,64131,1,0,0:0:0:0:
256,192,64287,1,8,0:0:0:0:
256,192,64443,1,0,0:0:0:0:
256,192,64756,1,0,0:0:0:0:
256,192,65225,1,8,0:0:0:0:
256,192,65537,1,8,0:0:0:0:
256,192,65850,1,0,0:0:0:0:
256,192,66475,1,8,0:0:0:0:
256,192,66631,1,8,0:0:0:0:
256,192,66787,1,0,0:0:0:0:
256,192,66943,1,8,0:0:0:0:
256,192,67256,1,8,0:0:0:0:
256,192,67568,1,8,0:0:0:0:
256,192,67725,1,0,0:0:0:0:
256,192,68037,1,0,0:0:0:0:
256,192,68193,1,0,0:0:0:0:
256,192,68350,1,8,0:0:0:0:
256,192,68662,1,8,0:0:0:0:
256,192,68818,1,8,0:0:0:0:
256,192,68975,1,0,0:0:0:0:
256,192,69600,1,8,0:0:0:0:
256,192,69756,1,0,0:0:0:0:
256,192,69912,1,0,0:0:0:0:
256,192,70225,1,8,0:0:0:0:
256,192,70537,1,8,0:0:0:0:
256,192,70850,1,0,0:0:0:0:
256,192,71475,1,0,0:0:0:0:
256,192,71631,1,8,0:0:0:0:
256,192,71787,1,8,0:0:0:0:
256,192,71943,1,0,0:0:0:0:
256,192,72256,1,0,0:0:0:0:
256,192,72412,1,8,0:0:0:0:
256,192,72725,1,0,0:0:0:0:
256,192,73037,1,0,0:0:0:0:
256,192,73350,1,8,0:0:0:0:
256,192,73975,1,0,0:0:0:0:
256,192,74131,1,0,0:0:0:0:
256,192,74287,1,8,0:0:0:0:
256,192,74443,1,0,0:0:0:0:
256,192,74756,1,0,0:0:0:0:
256,192,74912,1,8,0:0:0:0:
256,192,75225,1,0,0:0:0:0:
256,192,75537,1,0,0:0:0:0:
256,192,75850,1,8,0:0:0:0:
256,192,76475,1,0,0:0:0:0:
256,192,76631,1,8,0:0:0:0:
256,192,76787,1,8,0:0:0:0:
256,192,76943,1,0,0:0:0:0:
256,192,77256,1,8,0:0:0:0:
256,192,77412,1,0,0:0:0:0:
256,192,77568,1,0,0:0:0:0:
256,192,77725,1,8,0:0:0:0:
256,192,78984,1,4,0:0:0:0:
256,192,79296,1,4,0:0:0:0:
256,192,79609,1,8,0:0:0:0:
256,192,79687,1,8,0:0:0:0:
256,192,79765,1,8,0:0:0:0:
256,192,79921,1,8,0:0:0:0:
256,192,79999,1,8,0:0:0:0:
256,192,80077,1,8,0:0:0:0:
256,192,80234,1,4,0:0:0:0:
256,192,80390,1,0,0:0:0:0:
256,192,80702,1,0,0:0:0:0:
256,192,81015,1,8,0:0:0:0:
256,192,81171,1,0,0:0:0:0:
256,192,81327,1,8,0:0:0:0:
256,192,81484,1,0,0:0:0:0:
256,192,81640,1,0,0:0:0:0:
256,192,81952,1,0,0:0:0:0:
256,192,82265,1,0,0:0:0:0:
256,192,82421,1,8,0:0:0:0:
256,192,82577,1,8,0:0:0:0:
256,192,82734,1,0,0:0:0:0:
256,192,82890,1,0,0:0:0:0:
256,192,83202,1,8,0:0:0:0:
256,192,83359,1,0,0:0:0:0:
256,192,83671,1,0,0:0:0:0:
256,192,83984,1,8,0:0:0:0:
256,192,84140,1,8,0:0:0:0:
256,192,84452,1,0,0:0:0:0:
256,192,84765,1,0,0:0:0:0:
256,192,84922,1,8,0:0:0:0:
256,192,85078,1,8,0:0:0:0:
256,192,85234,1,0,0:0:0:0:
256,192,85702,1,8,0:0:0:0:
256,192,85859,1,0,0:0:0:0:
256,192,86015,1,8,0:0:0:0:
256,192,86171,1,8,0:0:0:0:
256,192,86484,1,0,0:0:0:0:
256,192,86640,1,0,0:0:0:0:
256,192,86952,1,8,0:0:0:0:
256,192,87265,1,8,0:0:0:0:
256,192,87421,1,0,0:0:0:0:
256,192,87577,1,0,0:0:0:0:
256,192,87734,1,8,0:0:0:0:
256,192,88046,1,0,0:0:0:0:
256,192,88359,1,0,0:0:0:0:
256,192,88515,1,8,0:0:0:0:
256,192,88671,1,0,0:0:0:0:
256,192,88827,1,8,0:0:0:0:
256,192,88984,1,8,0:0:0:0:
256,192,89296,1,0,0:0:0:0:
256,192,89609,1,8,0:0:0:0:
256,192,89765,1,0,0:0:0:0:
256,192,89921,1,8,0:0:0:0:
256,192,90234,1,12,0:0:0:0:
256,192,90546,1,8,0:0:0:0:
256,192,90859,1,0,0:0:0:0:
256,192,91171,1,0,0:0:0:0:
256,192,91484,1,8,0:0:0:0:
256,192,91640,1,8,0:0:0:0:
256,192,91796,1,0,0:0:0:0:
256,192,92109,1,8,0:0:0:0:
256,192,92265,1,0,0:0:0:0:
256,192,92421,1,8,0:0:0:0:
256,192,92734,1,0,0:0:0:0:
256,192,93046,1,0,0:0:0:0:
256,192,93359,1,8,0:0:0:0:
256,192,93671,1,8,0:0:0:0:
256,192,93984,1,8,0:0:0:0:
256,192,94140,1,8,0:0:0:0:
256,192,94296,1,0,0:0:0:0:
256,192,94609,1,8,0:0:0:0:
256,192,94765,1,8,0:0:0:0:
256,192,94921,1,0,0:0:0:0:
256,192,95077,1,0,0:0:0:0:
256,192,95234,1,8,0:0:0:0:
256,192,95546,1,8,0:0:0:0:
256,192,95859,1,0,0:0:0:0:
256,192,96171,1,0,0:0:0:0:
256,192,96484,1,0,0:0:0:0:
256,192,96640,1,0,0:0:0:0:
256,192,96796,1,8,0:0:0:0:
256,192,96952,1,0,0:0:0:0:
256,192,97109,1,8,0:0:0:0:
256,192,97265,1,8,0:0:0:0:
256,192,97421,1,0,0:0:0:0:
256,192,97577,1,8,0:0:0:0:
