osu file format v14

[General]
AudioFilename: audio.mp3
AudioLeadIn: 0
PreviewTime: 41504
Countdown: 0
SampleSet: Soft
StackLeniency: 0.7
Mode: 0
LetterboxInBreaks: 0
WidescreenStoryboard: 0

[Editor]
DistanceSpacing: 1.5
BeatDivisor: 4
GridSize: 4
TimelineZoom: 1

[Metadata]
Title:ne uchi (Cut Ver.)
TitleUnicode:не учи (Cut Ver.)
Artist:kis-kis
ArtistUnicode:кис-кис
Creator:A r M i N
Version:stop feeding me all this content, my head feels bloated
Source:
Tags:russian female vocal punk punk-rock rock Armin A_r_M_i_N Kujinn Reform schoolboy Komore SpokenAway Xenon- Xen Xehn русский панк рок пир во время чумы
BeatmapID:2759787
BeatmapSetID:1331950

[Difficulty]
HPDrainRate:5.6
CircleSize:3.8
OverallDifficulty:9
ApproachRate:9.3
SliderMultiplier:1.8
SliderTickRate:1

[Events]
//Background and Video events
0,0,"63890894_p0.jpg",0,0
//Break Periods
//Storyboard Layer 0 (Background)
//Storyboard Layer 1 (Fail)
//Storyboard Layer 2 (Pass)
//Storyboard Layer 3 (Foreground)
//Storyboard Layer 4 (Overlay)
//Storyboard Sound Samples

[TimingPoints]
38,307.692307692308,4,2,1,60,1,0
6191,-166.666666666667,4,2,1,60,0,0
6653,-166.666666666667,4,2,1,60,0,0
7415,307.692307692308,4,2,1,65,1,0
7415,-125,4,2,1,65,0,0
8030,-250,4,2,1,65,0,0
8645,-125,4,2,1,65,0,0
9261,-250,4,2,1,65,0,0
9876,-125,4,2,1,65,0,0
10491,-250,4,2,1,65,0,0
11107,-125,4,2,1,65,0,0
12338,-100,4,2,1,70,0,0
22184,-125,4,2,1,70,0,0
29568,-111.111111111111,4,2,1,70,0,0
32030,-125,4,2,1,70,0,0
40645,-100,4,2,1,70,0,0
41876,-90.9090909090909,4,2,1,80,0,1
49261,-90.9090909090909,4,2,1,80,0,0
51722,-90.9090909090909,4,2,1,80,0,1
61568,-100,4,2,1,70,0,0
71415,-90.9090909090909,4,2,1,85,0,1
76338,-83.3333333333333,4,2,1,85,0,1
81261,-166.666666666667,4,2,1,85,0,0
81722,-166.666666666667,4,2,1,50,0,0

[Colours]
Combo1 : 184,118,20
Combo2 : 188,24,24
Combo3 : 184,130,97
Combo4 : 78,23,22

[HitObjects]
396,269,6653,6,0,L|400:295,1,26.9999991760254,0|0,1:2|1:2,0:0:0:0:
420,380,6807,1,8,0:0:0:0:
458,208,6961,2,0,P|406:216|354:186,1,107.999996704102,8|0,3:0|0:0,0:0:0:0:
190,84,7415,6,0,L|164:225,1,144,2|2,1:2|0:0,0:0:0:0:
98,289,7876,1,2,1:2:0:0:
267,171,8030,2,0,L|285:276,1,108,10|0,0:0|0:0,0:0:0:0:
343,119,8645,6,0,P|288:82|209:99,1,144,2|2,1:2|0:0,0:0:0:0:
175,179,9107,1,2,1:2:0:0:
153,13,9261,2,0,P|196:44|214:94,1,108,10|0,0:0|0:0,0:0:0:0:
93,222,9876,6,0,B|74:150|74:150|124:102,1,144,2|2,1:2|1:2,0:0:0:0:
361,153,10491,2,0,B|319:186|319:186|267:171,1,108,10|0,0:0|0:0,0:0:0:0:
407,72,11107,6,0,P|453:136|436:209,1,144,2|2,1:2|1:2,0:0:0:0:
132,248,11722,5,10,0:0:0:0:
248,12,11876,1,10,0:0:0:0:
318,281,12030,1,8,0:0:0:0:
176,84,12184,1,8,0:0:0:0:
246,353,12338,6,0,P|284:378|331:382,1,90,6|0,1:2|0:0,0:0:0:0:
347,183,12645,2,0,L|258:198,1,90,10|0,0:0|0:0,0:0:0:0:
504,298,12953,1,2,1:2:0:0:
407,101,13107,1,0,1:2:0:0:
318,281,13261,2,0,L|333:369,1,90,8|0,0:0|0:0,0:0:0:0:
160,226,13568,6,0,L|175:137,1,90,2|0,1:2|0:0,0:0:0:0:
62,287,13876,1,10,0:0:0:0:
258,198,14030,1,2,0:0:0:0:
18,93,14184,1,2,1:2:0:0:
214,4,14338,1,0,1:2:0:0:
160,226,14491,2,0,L|175:314,1,90,8|0,0:0|0:0,0:0:0:0:
330,126,14799,6,0,P|292:101|245:97,1,90,2|0,1:2|0:0,0:0:0:0:
381,249,15107,2,0,L|469:233,1,90,10|0,0:0|0:0,0:0:0:0:
320,24,15415,1,2,1:2:0:0:
258,198,15568,1,0,1:2:0:0:
448,133,15722,2,0,P|443:88|418:51,1,90,8|0,0:0|0:0,0:0:0:0:
175,137,16030,6,0,L|160:226,1,90,2|0,1:2|0:0,0:0:0:0:
305,380,16338,2,0,P|300:335|275:298,1,90,10|0,0:0|0:0,0:0:0:0:
62,200,16645,1,2,1:2:0:0:
258,78,16799,2,0,L|273:166,1,90,2|8,1:2|0:0,0:0:0:0:
102,67,17107,1,0,0:0:0:0:
330,6,17261,6,0,P|355:43|359:87,1,90,6|0,1:2|0:0,0:0:0:0:
190,225,17568,2,0,L|175:137,1,90,10|0,0:0|0:0,0:0:0:0:
303,334,17876,1,2,1:2:0:0:
103,280,18030,1,0,1:2:0:0:
273,166,18184,2,0,L|361:181,1,90,8|0,0:0|0:0,0:0:0:0:
470,35,18491,6,0,P|426:40|389:64,1,90,2|0,1:2|0:0,0:0:0:0:
302,264,18799,1,10,0:0:0:0:
461,136,18953,1,2,0:0:0:0:
337,371,19107,1,2,1:2:0:0:
273,166,19261,1,0,1:2:0:0:
481,261,19415,2,0,P|443:286|399:290,1,90,8|0,0:0|0:0,0:0:0:0:
192,227,19722,6,0,L|177:315,1,90,2|0,1:2|0:0,0:0:0:0:
370,195,20030,2,0,L|355:107,1,90,10|0,0:0|0:0,0:0:0:0:
115,162,20338,1,2,1:2:0:0:
302,264,20491,1,0,1:2:0:0:
226,40,20645,2,0,L|211:128,1,90,8|0,0:0|0:0,0:0:0:0:
28,209,20953,6,0,P|3:172|-1:128,1,90,2|0,1:2|0:0,0:0:0:0:
214,227,21261,2,0,L|199:315,1,90,10|0,0:0|0:0,0:0:0:0:
103,96,21568,1,2,1:2:0:0:
352,149,21722,5,10,0:0:0:0:
117,255,21876,1,10,0:0:0:0:
245,34,22030,1,10,0:0:0:0:
355,252,22184,6,0,L|214:227,1,144,6|10,1:2|0:0,0:0:0:0:
160,152,22645,2,0,P|193:137|235:138,1,72,2|0,1:2|1:2,0:0:0:0:
121,235,22953,2,0,P|90:213|73:184,1,72,2|8,0:0|0:0,0:0:0:0:
175,312,23261,6,0,L|163:383,1,72,2|0,0:0|1:2,0:0:0:0:
121,235,23568,1,2,1:2:0:0:
264,287,23722,1,8,0:0:0:0:
82,321,23876,2,0,P|51:297|34:267,1,72,0|0,1:2|1:2,0:0:0:0:
151,146,24184,1,2,0:0:0:0:
175,312,24338,1,10,0:0:0:0:
60,164,24491,1,2,0:0:0:0:
204,223,24645,6,0,B|273:211|273:211|274:207|274:207|343:194,1,144,2|10,1:2|0:0,0:0:0:0:
409,45,25107,2,0,P|390:75|386:111,1,72,2|0,1:2|1:2,0:0:0:0:
481,243,25415,2,0,P|463:212|436:190,1,72,2|8,0:0|0:0,0:0:0:0:
324,286,25722,6,0,P|360:287|393:273,1,72,2|0,0:0|1:2,0:0:0:0:
255,224,26030,1,2,1:2:0:0:
281,369,26184,1,8,0:0:0:0:
342,193,26338,2,0,P|325:162|297:140,1,72,0|0,1:2|1:2,0:0:0:0:
111,151,26645,1,2,0:0:0:0:
255,224,26799,1,10,0:0:0:0:
246,62,26953,1,2,0:0:0:0:
163,229,27107,6,0,L|188:370,1,144,2|10,1:2|0:0,0:0:0:0:
332,332,27568,2,0,P|296:331|264:317,1,72,2|0,1:2|1:2,0:0:0:0:
405,274,27876,2,0,P|422:305|425:340,1,72,2|8,0:0|0:0,0:0:0:0:
317,240,28184,6,0,L|329:170,1,72,2|0,0:0|1:2,0:0:0:0:
470,127,28491,2,0,P|451:157|422:178,1,72,2|8,1:2|0:0,0:0:0:0:
316,77,28799,2,0,P|351:77|384:93,1,72,2|0,1:2|1:2,0:0:0:0:
329,169,29107,1,2,0:0:0:0:
226,97,29261,2,0,L|238:27,1,72,10|0,0:0|0:0,0:0:0:0:
162,165,29568,5,2,1:2:0:0:
316,77,29722,1,2,1:2:0:0:
181,257,29876,1,8,0:0:0:0:
329,169,30030,2,0,L|409:183,1,80.9999975280762,2|0,1:2|1:2,0:0:0:0:
238,26,30338,1,2,0:0:0:0:
276,245,30491,2,0,P|313:262|356:259,1,80.9999975280763,8|0,0:0|0:0,0:0:0:0:
472,71,30799,5,2,1:2:0:0:
329,169,30953,1,0,1:2:0:0:
512,256,31107,1,8,0:0:0:0:
358,53,31261,1,8,0:0:0:0:
276,245,31415,1,4,1:2:0:0:
472,71,31568,5,10,0:0:0:0:
229,153,31722,1,10,0:0:0:0:
429,269,31876,1,10,0:0:0:0:
282,76,32030,6,0,P|249:61|213:60,1,72,6|0,1:2|1:2,0:0:0:0:
321,161,32338,1,10,0:0:0:0:
374,84,32491,2,0,L|361:13,1,72,2|0,1:2|1:2,0:0:0:0:
414,169,32799,2,0,P|447:184|483:185,1,72,2|8,0:0|0:0,0:0:0:0:
321,161,33107,6,0,P|291:182|272:212,1,72,2|0,0:0|1:2,0:0:0:0:
374,339,33415,1,2,0:0:0:0:
360,246,33568,1,8,0:0:0:0:
219,288,33722,2,0,P|252:303|288:305,1,72,0|0,1:2|1:2,0:0:0:0:
181,204,34030,1,2,0:0:0:0:
147,348,34184,1,10,0:0:0:0:
273,212,34338,1,2,0:0:0:0:
120,133,34491,6,0,P|88:195|108:262,1,144,2|10,1:2|0:0,0:0:0:0:
210,115,34953,2,0,P|198:82|172:57,1,72,2|0,1:2|1:2,0:0:0:0:
181,204,35261,2,0,P|223:209|259:196,1,72,2|8,0:0|0:0,0:0:0:0:
334,61,35568,6,0,P|312:89|303:124,1,72,2|0,0:0|1:2,0:0:0:0:
436,217,35876,1,2,1:2:0:0:
396,132,36030,1,8,0:0:0:0:
383,293,36184,2,0,P|436:313|461:307,1,72,0|0,1:2|1:2,0:0:0:0:
344,209,36491,1,2,0:0:0:0:
313,354,36645,1,10,0:0:0:0:
436,217,36799,1,2,0:0:0:0:
273,269,36953,6,0,B|200:282|209:230|135:244,1,144,2|10,1:2|0:0,0:0:0:0:
20,361,37415,2,0,P|50:340|69:310,1,72,2|0,1:2|1:2,0:0:0:0:
25,151,37722,2,0,P|29:187|46:219,1,72,2|8,0:0|0:0,0:0:0:0:
79,75,38030,6,0,P|46:60|10:58,1,72,2|0,0:0|1:2,0:0:0:0:
118,159,38338,1,2,1:2:0:0:
153,18,38491,1,8,0:0:0:0:
210,170,38645,2,0,P|245:168|278:153,1,72,2|0,1:2|1:2,0:0:0:0:
364,29,38953,1,2,0:0:0:0:
459,149,39107,2,0,L|446:219,1,72,8|0,0:0|0:0,0:0:0:0:
239,259,39415,5,14,0:0:0:0:
366,122,39568,1,2,1:2:0:0:
142,129,39722,5,8,0:0:0:0:
332,218,39876,1,2,1:2:0:0:
82,218,40030,5,12,0:0:0:0:
270,86,40184,1,2,1:2:0:0:
12,67,40338,5,8,0:0:0:0:
236,182,40491,1,0,1:2:0:0:
16,290,40645,5,14,0:0:0:0:
129,49,40799,1,0,1:2:0:0:
178,368,40953,5,12,0:0:0:0:
65,130,41107,1,0,1:2:0:0:
64,375,41261,5,12,0:0:0:0:
286,235,41415,1,8,0:0:0:0:
65,130,41568,1,10,0:0:0:0:
218,370,41722,1,10,0:0:0:0:
216,86,41876,6,0,L|198:183,1,99.0000030212403,6|0,1:2|1:0,0:0:0:0:
396,344,42184,1,10,0:0:0:0:
294,151,42338,1,2,0:0:0:0:
229,384,42491,2,0,L|131:366,1,99.0000030212403,2|0,1:2|0:0,0:0:0:0:
198,119,42799,1,10,0:0:0:0:
300,312,42953,1,2,0:0:0:0:
273,51,43107,5,2,1:2:0:0:
195,288,43261,1,2,0:0:0:0:
369,83,43415,2,0,P|371:29|349:-15,1,99.0000030212403,10|0,0:0|0:0,0:0:0:0:
198,119,43722,1,0,1:2:0:0:
404,178,43876,1,0,1:2:0:0:
195,288,44030,1,10,0:0:0:0:
273,51,44184,1,2,0:0:0:0:
419,278,44338,6,0,P|370:272|329:245,1,99.0000030212403,2|0,1:2|0:0,0:0:0:0:
404,28,44645,1,10,0:0:0:0:
498,215,44799,1,2,0:0:0:0:
295,102,44953,2,0,L|197:119,1,99.0000030212403,2|0,1:2|1:2,0:0:0:0:
28,273,45261,1,10,0:0:0:0:
120,65,45415,1,2,0:0:0:0:
202,315,45568,5,2,1:2:0:0:
63,138,45722,1,2,0:0:0:0:
11,364,45876,2,0,P|60:358|101:331,1,99.0000030212403,10|0,0:0|0:0,0:0:0:0:
197,118,46184,1,0,1:2:0:0:
291,289,46338,1,0,1:2:0:0:
63,138,46491,1,10,0:0:0:0:
299,59,46645,1,2,0:0:0:0:
98,235,46799,6,0,L|0:218,1,99.0000030212403,6|0,1:2|0:0,0:0:0:0:
150,12,47107,1,10,0:0:0:0:
224,225,47261,1,2,0:0:0:0:
374,19,47415,2,0,L|472:36,1,99.0000030212403,2|0,1:2|1:2,0:0:0:0:
259,129,47722,2,0,L|161:146,1,99.0000030212403,10|0,0:0|0:0,0:0:0:0:
376,250,48030,5,2,1:2:0:0:
284,39,48184,1,2,0:0:0:0:
176,248,48338,2,0,P|128:242|87:215,1,99.0000030212403,10|0,0:0|0:0,0:0:0:0:
190,0,48645,1,0,1:2:0:0:
282,211,48799,1,0,1:2:0:0:
72,123,48953,1,10,0:0:0:0:
284,39,49107,1,2,0:0:0:0:
176,248,49261,5,10,0:0:0:0:
86,4,49415,1,0,1:2:0:0:
42,290,49568,5,10,0:0:0:0:
159,62,49722,1,2,1:2:0:0:
166,341,49876,5,8,0:0:0:0:
73,97,50030,1,2,1:2:0:0:
20,381,50184,5,10,0:0:0:0:
145,156,50338,1,0,1:2:0:0:
248,384,50491,5,10,0:0:0:0:
18,232,50645,1,2,1:2:0:0:
262,210,50799,6,0,L|360:193,1,99.0000030212403,8|0,0:0|1:2,0:0:0:0:
512,347,51107,1,8,0:0:0:0:
451,106,51261,2,0,L|402:98,1,49.5000015106202,0|0,1:0|1:2,0:0:0:0:
333,22,51415,1,10,0:0:0:0:
296,28,51491,1,8,0:0:0:0:
259,34,51568,1,8,0:0:0:0:
223,41,51645,1,8,0:0:0:0:
186,47,51722,6,0,P|159:88|153:136,1,99.0000030212403,6|0,1:2|1:2,0:0:0:0:
297,348,52030,1,10,0:0:0:0:
254,123,52184,1,2,0:0:0:0:
102,335,52338,2,0,L|200:318,1,99.0000030212403,2|0,1:2|1:2,0:0:0:0:
86,60,52645,1,10,0:0:0:0:
17,280,52799,1,2,0:0:0:0:
216,217,52953,5,2,1:2:0:0:
0,137,53107,1,2,0:0:0:0:
196,18,53261,2,0,L|179:116,1,99.0000030212403,10|0,0:0|0:0,0:0:0:0:
323,326,53568,1,0,1:2:0:0:
279,135,53722,1,0,1:2:0:0:
132,273,53876,1,10,0:0:0:0:
364,215,54030,1,2,0:0:0:0:
165,91,54184,6,0,L|182:189,1,99.0000030212403,2|0,1:2|0:0,0:0:0:0:
36,370,54491,1,10,0:0:0:0:
86,156,54645,1,2,0:0:0:0:
225,343,54799,2,0,L|323:326,1,99.0000030212403,2|0,1:2|1:2,0:0:0:0:
404,116,55107,1,10,0:0:0:0:
259,247,55261,1,2,0:0:0:0:
339,38,55415,5,2,1:2:0:0:
415,283,55568,1,2,0:0:0:0:
250,88,55722,2,0,P|201:93|160:120,1,99.0000030212403,10|0,0:0|0:0,0:0:0:0:
74,343,56030,1,0,1:2:0:0:
236,190,56184,1,0,1:2:0:0:
33,115,56338,1,10,0:0:0:0:
179,291,56491,1,2,0:0:0:0:
97,36,56645,6,0,L|-1:19,1,99.0000030212403,6|0,1:2|0:0,0:0:0:0:
98,230,56953,1,10,0:0:0:0:
197,17,57107,1,2,0:0:0:0:
20,165,57261,2,0,P|-1:208|2:263,1,99.0000030212403,2|0,1:2|1:2,0:0:0:0:
213,146,57568,2,0,L|115:129,1,99.0000030212403,10|0,0:0|0:0,0:0:0:0:
243,259,57876,5,2,1:2:0:0:
286,58,58030,1,2,0:0:0:0:
147,226,58184,2,0,P|142:274|161:319,1,99.0000030212403,10|0,0:0|0:0,0:0:0:0:
382,252,58491,1,0,1:2:0:0:
213,146,58645,1,0,1:2:0:0:
294,347,58799,1,10,0:0:0:0:
401,130,58953,1,2,0:0:0:0:
190,245,59107,6,0,B|87:218|103:305|0:278,1,198.000006042481,2|10,1:2|0:0,0:0:0:0:
213,146,59568,2,0,P|285:209|272:305,1,198.000006042481,2|2,0:0|1:2,0:0:0:0:
112,142,60030,2,0,L|129:44,1,99.0000030212403,10|0,0:0|0:0,0:0:0:0:
18,234,60338,6,0,B|52:252|75:285|75:285|190:245,1,198.000006042481,2|8,1:2|0:0,0:0:0:0:
439,141,60953,1,0,1:2:0:0:
432,177,61029,1,8,0:0:0:0:
426,214,61106,1,8,0:0:0:0:
419,250,61183,1,8,0:0:0:0:
413,287,61261,2,0,L|364:295,1,49.5000015106202,8|8,0:0|0:0,0:0:0:0:
277,192,61415,2,0,L|325:200,1,49.5000015106202,8|8,0:0|0:0,0:0:0:0:
265,313,61568,5,6,1:2:0:0:
212,114,61722,2,0,P|256:92|305:94,1,90,2|8,1:2|0:0,0:0:0:0:
189,245,62030,1,2,0:0:0:0:
148,34,62184,2,0,P|187:13|232:12,1,90,2|0,1:2|1:2,0:0:0:0:
123,166,62491,1,10,0:0:0:0:
53,0,62645,6,0,L|37:88,1,90,2|0,0:0|1:2,0:0:0:0:
232,12,62953,1,2,1:2:0:0:
123,166,63107,2,0,L|138:254,1,90,10|0,0:0|0:0,0:0:0:0:
37,88,63415,1,2,1:2:0:0:
221,194,63568,2,0,P|265:192|305:172,1,90,2|8,1:2|0:0,0:0:0:0:
433,20,63876,1,2,0:0:0:0:
403,200,64030,6,0,L|388:112,1,90,2|0,1:2|1:2,0:0:0:0:
494,248,64338,1,10,0:0:0:0:
306,173,64491,2,0,P|261:174|221:194,1,90,2|0,0:0|1:2,0:0:0:0:
108,347,64799,1,2,1:2:0:0:
135,140,64953,1,10,0:0:0:0:
286,274,65107,1,2,0:0:0:0:
200,61,65261,6,0,P|160:40|115:39,1,90,2|0,1:2|1:2,0:0:0:0:
0,235,65568,1,10,0:0:0:0:
135,140,65722,1,2,0:0:0:0:
25,334,65876,1,2,1:2:0:0:
39,105,66030,1,2,1:2:0:0:
232,256,66184,2,0,L|320:241,1,90,10|0,0:0|0:0,0:0:0:0:
477,17,66491,5,6,1:2:0:0:
282,73,66645,2,0,P|262:113|261:157,1,90,2|8,1:2|0:0,0:0:0:0:
378,41,66953,1,2,0:0:0:0:
168,7,67107,2,0,L|183:95,1,90,2|0,1:2|1:2,0:0:0:0:
89,256,67415,1,10,0:0:0:0:
261,157,67568,6,0,P|305:157|345:177,1,90,2|0,0:0|1:2,0:0:0:0:
456,300,67876,1,2,1:2:0:0:
267,345,68030,2,0,L|282:257,1,90,10|0,0:0|0:0,0:0:0:0:
183,95,68338,1,2,1:2:0:0:
101,247,68491,2,0,P|145:246|185:226,1,90,2|8,1:2|0:0,0:0:0:0:
90,51,68799,1,2,0:0:0:0:
4,219,68953,6,0,L|19:307,1,90,2|0,1:2|1:2,0:0:0:0:
122,148,69261,1,10,0:0:0:0:
207,327,69415,2,0,P|162:326|122:306,1,90,2|0,0:0|1:2,0:0:0:0:
221,130,69722,1,2,1:2:0:0:
307,308,69876,1,10,0:0:0:0:
121,189,70030,1,2,0:0:0:0:
320,102,70184,6,0,L|305:190,1,90,2|0,1:2|1:2,0:0:0:0:
207,327,70491,1,10,0:0:0:0:
389,248,70645,1,2,0:0:0:0:
221,130,70799,1,2,1:2:0:0:
307,308,70953,1,2,1:2:0:0:
420,126,71107,2,0,L|508:141,1,90,10|0,0:0|0:0,0:0:0:0:
220,224,71415,5,14,0:0:0:0:
316,11,71568,1,2,1:2:0:0:
332,276,71722,5,10,0:0:0:0:
227,61,71876,1,2,1:2:0:0:
116,286,72030,5,10,0:0:0:0:
315,113,72184,1,0,1:2:0:0:
44,97,72338,5,10,0:0:0:0:
263,201,72491,1,2,1:2:0:0:
0,243,72645,5,12,0:0:0:0:
122,30,72799,1,2,1:2:0:0:
151,312,72953,5,10,0:0:0:0:
44,97,73107,1,0,1:2:0:0:
13,344,73261,5,10,0:0:0:0:
140,130,73415,1,2,1:2:0:0:
224,384,73568,2,0,P|273:378|314:351,1,99.0000030212403,8|2,0:0|1:2,0:0:0:0:
357,75,73876,5,14,0:0:0:0:
238,283,74030,1,0,1:2:0:0:
224,21,74184,5,10,0:0:0:0:
334,251,74338,1,2,1:2:0:0:
443,23,74491,5,8,0:0:0:0:
257,182,74645,1,2,1:2:0:0:
493,218,74799,5,10,0:0:0:0:
286,83,74953,1,2,1:2:0:0:
367,341,75107,6,0,L|394:195,1,148.50000453186,14|0,0:0|1:2,0:0:0:0:
461,120,75415,2,0,L|442:22,1,99.0000030212403,10|0,0:0|1:2,0:0:0:0:
257,182,75722,5,14,0:0:0:0:
474,315,75876,1,2,1:2:0:0:
474,315,75953,1,0,1:2:0:0:
474,315,76030,2,0,L|492:217,1,99.0000030212403,10|0,0:0|1:2,0:0:0:0:
202,111,76338,5,12,0:0:0:0:
330,377,76491,1,0,1:2:0:0:
292,63,76645,5,10,0:0:0:0:
148,346,76799,1,2,1:2:0:0:
116,55,76953,5,10,0:0:0:0:
244,321,77106,1,0,1:2:0:0:
206,7,77260,5,10,0:0:0:0:
62,290,77414,1,2,1:2:0:0:
374,206,77568,5,14,0:0:0:0:
116,55,77722,1,0,1:2:0:0:
428,33,77876,5,10,0:0:0:0:
147,153,78030,1,2,1:2:0:0:
451,278,78184,5,10,0:0:0:0:
268,9,78338,1,0,1:2:0:0:
209,357,78491,5,10,0:0:0:0:
339,84,78645,1,2,1:2:0:0:
436,378,78799,5,14,0:0:0:0:
178,259,78953,1,0,1:2:0:0:
469,178,79107,5,10,0:0:0:0:
209,357,79261,1,2,1:2:0:0:
258,51,79415,5,10,0:0:0:0:
334,347,79568,1,0,1:2:0:0:
161,90,79722,5,10,0:0:0:0:
56,346,79876,2,0,L|110:336,1,53.9999983520508,2|0,1:2|1:2,0:0:0:0:
351,183,80030,5,10,0:0:0:0:
66,27,80184,1,8,0:0:0:0:
209,357,80338,1,10,0:0:0:0:
343,22,80491,1,8,0:0:0:0:
110,336,80645,5,10,0:0:0:0:
244,1,80798,1,10,0:0:0:0:
308,378,80953,1,10,0:0:0:0:
91,199,81107,1,0,1:2:0:0:
441,121,81261,6,0,P|411:189|407:293,1,161.999995056153,4|0,1:2|0:0,0:0:0:0:
