osu file format v14

[General]
AudioFilename: audio.mp3
AudioLeadIn: 0
PreviewTime: 41504
Countdown: 0
SampleSet: Soft
StackLeniency: 0.7
Mode: 0
LetterboxInBreaks: 0
WidescreenStoryboard: 1

[Editor]
DistanceSpacing: 0.3
BeatDivisor: 4
GridSize: 8
TimelineZoom: 1

[Metadata]
Title:ne uchi (Cut Ver.)
TitleUnicode:не учи (Cut Ver.)
Artist:kis-kis
ArtistUnicode:кис-кис
Creator:A r M i N
Version:schoolboy's Extra
Source:
Tags:russian female vocal punk punk-rock rock Armin A_r_M_i_N Kujinn Reform schoolboy Komore SpokenAway Xenon- Xen Xehn русский панк рок пир во время чумы
BeatmapID:2761640
BeatmapSetID:1331950

[Difficulty]
HPDrainRate:5.6
CircleSize:4.1
OverallDifficulty:9
ApproachRate:9.3
SliderMultiplier:1.6
SliderTickRate:1

[Events]
//Background and Video events
0,0,"63890894_p0.jpg",0,0
//Break Periods
//Storyboard Layer 0 (Background)
//Storyboard Layer 1 (Fail)
//Storyboard Layer 2 (Pass)
//Storyboard Layer 3 (Foreground)
//Storyboard Layer 4 (Overlay)
//Storyboard Sound Samples

[TimingPoints]
38,307.692307692308,4,2,1,60,1,0
6160,-100,4,2,1,5,0,0
6653,-100,4,2,1,60,0,0
7268,-100,4,2,1,5,0,0
7415,307.692307692308,4,2,1,65,1,0
7415,-76.9230769230769,4,2,1,65,0,0
8030,-285.714285714284,4,2,1,65,0,0
8491,-285.714285714284,4,2,1,5,0,0
8645,-76.9230769230769,4,2,1,65,0,0
9260,-285.714285714284,4,2,1,65,0,0
9722,-285.714285714284,4,2,1,5,0,0
9876,-83.3333333333333,4,2,1,65,0,0
10106,-83.3333333333333,4,2,1,5,0,0
10184,-83.3333333333333,4,2,1,65,0,0
10414,-83.3333333333333,4,2,1,5,0,0
10491,-285.714285714284,4,2,1,65,0,0
10952,-285.714285714284,4,2,1,5,0,0
11107,-83.3333333333333,4,2,1,65,0,0
11645,-83.3333333333333,4,2,1,5,0,0
11722,-83.3333333333333,4,2,1,65,0,0
12338,-90.9090909090909,4,2,1,70,0,0
15953,-90.9090909090909,4,2,1,5,0,0
16030,-90.9090909090909,4,2,1,70,0,0
22184,-111.111111111111,4,2,1,70,0,0
33876,-111.111111111111,4,2,1,70,0,0
36338,-111.111111111111,4,2,1,70,0,0
36953,-100,4,2,1,70,0,0
37261,-111.111111111111,4,2,1,70,0,0
39415,-111.111111111111,4,2,1,70,0,0
40184,-90.9090909090909,4,2,1,70,0,0
40491,-90.9090909090909,4,2,1,5,0,0
40645,-90.9090909090909,4,2,1,70,0,0
41876,-90.9090909090909,4,2,1,80,0,0
43415,-64.5161290322581,4,2,1,80,0,0
43568,-90.9090909090909,4,2,1,80,0,0
43645,-90.9090909090909,4,2,1,5,0,0
43722,-90.9090909090909,4,2,1,80,0,0
44645,-90.9090909090909,4,2,1,80,0,0
45876,-83.3333333333333,4,2,1,80,0,0
46106,-83.3333333333333,4,2,1,5,0,0
46184,-90.9090909090909,4,2,1,80,0,0
47029,-90.9090909090909,4,2,1,5,0,0
47107,-90.9090909090909,4,2,1,80,0,0
47952,-90.9090909090909,4,2,1,5,0,0
48030,-90.9090909090909,4,2,1,80,0,0
48953,-90.9090909090909,4,2,1,80,0,0
53261,-66.6666666666667,4,2,1,80,0,0
53491,-66.6666666666667,4,2,1,5,0,0
53568,-90.9090909090909,4,2,1,80,0,0
54491,-90.9090909090909,4,2,1,80,0,0
55722,-66.6666666666667,4,2,1,80,0,0
55952,-90.9090909090909,4,2,1,5,0,0
56030,-90.9090909090909,4,2,1,80,0,0
56875,-90.9090909090909,4,2,1,5,0,0
56953,-90.9090909090909,4,2,1,80,0,0
57798,-90.9090909090909,4,2,1,5,0,0
57876,-90.9090909090909,4,2,1,80,0,0
60030,-76.9230769230769,4,2,1,80,0,0
60260,-76.9230769230769,4,2,1,5,0,0
60338,-90.9090909090909,4,2,1,80,0,0
61568,-90.9090909090909,4,2,1,70,0,0
65261,-76.9230769230769,4,2,1,70,0,0
65491,-76.9230769230769,4,2,1,5,0,0
65568,-90.9090909090909,4,2,1,70,0,0
66414,-90.9090909090909,4,2,1,5,0,0
66491,-90.9090909090909,4,2,1,70,0,0
68337,-90.9090909090909,4,2,1,70,0,0
70184,-83.3333333333333,4,2,1,70,0,0
70414,-83.3333333333333,4,2,1,5,0,0
70491,-90.9090909090909,4,2,1,70,0,0
71107,-76.9230769230769,4,2,1,70,0,0
71337,-76.9230769230769,4,2,1,5,0,0
71415,-90.9090909090909,4,2,1,85,0,0
76338,-76.9230769230769,4,2,1,85,0,0
76568,-76.9230769230769,4,2,1,5,0,0
76645,-76.9230769230769,4,2,1,85,0,0
76953,-90.9090909090909,4,2,1,85,0,0
81183,-90.9090909090909,4,2,1,5,0,0
81261,-66.6666666666667,4,2,1,85,0,0
81722,-66.6666666666667,4,2,1,5,0,0

[Colours]
Combo1 : 184,118,20
Combo2 : 217,28,28
Combo3 : 184,130,97
Combo4 : 176,52,49

[HitObjects]
101,384,6653,6,0,L|91:345,2,40,0|0|8,1:2|1:2|0:0,0:0:0:0:
180,327,6961,2,0,L|26:282,1,160,8|0,3:0|0:0,0:0:0:0:
27,282,7415,6,2,B|-8:212|61:112|166:166|166:166|128:186|125:236,1,311.999985717774,2|0,1:2|1:2,0:0:0:0:
127,218,8030,2,0,L|112:133,1,83.9999974365235,10|0,0:0|0:0,0:0:0:0:
190,88,8645,6,2,B|108:156|5:140|-17:26|50:-10|99:0|117:38,1,311.999985717774,2|0,1:2|1:2,0:0:0:0:
110,28,9261,2,0,P|70:37|17:49,1,83.9999974365235,10|0,0:0|0:0,0:0:0:0:
28,46,9876,6,0,P|134:76|151:123,1,143.999995605469,2|0,1:2|0:0,0:0:0:0:
200,167,10184,2,0,B|176:134|194:73|237:78|237:78|226:95|228:126,1,143.999995605469,2|0,1:2|0:0,0:0:0:0:
302,141,10491,2,0,L|388:168,1,83.9999974365235,10|0,0:0|0:0,0:0:0:0:
502,40,11107,6,0,P|455:42|427:79,1,95.9999970703126,2|0,1:2|0:0,0:0:0:0:
449,264,11415,2,0,P|489:230|477:141,1,143.999995605469,2|0,1:2|0:0,0:0:0:0:
427,79,11722,5,10,0:0:0:0:
375,360,11876,2,2,B|382:309|441:287|481:313|481:313|433:320|416:362,1,191.999994140625,10|2,0:0|0:0,0:0:0:0:
360,370,12338,6,0,L|239:351,1,88.000002685547,6|0,1:2|0:0,0:0:0:0:
138,208,12645,2,0,P|146:251|158:313,1,88.000002685547,10|0,0:0|0:0,0:0:0:0:
217,104,12953,1,2,1:2:0:0:
19,216,13107,1,0,1:2:0:0:
249,271,13261,2,0,P|294:269|337:218,1,88.000002685547,8|0,0:0|1:0,0:0:0:0:
369,168,13491,1,8,0:0:0:0:
383,173,13568,6,0,L|483:193,1,88.000002685547,2|0,1:2|0:0,0:0:0:0:
287,88,13876,2,0,P|268:50|284:-3,1,88.000002685547,10|2,0:0|0:0,0:0:0:0:
369,168,14184,1,2,1:2:0:0:
249,271,14338,2,0,B|227:232|173:222|148:243|148:243|128:277|91:284,1,176.000005371094,0|0,1:2|0:0,0:0:0:0:
25,222,14799,6,0,L|4:121,1,88.000002685547,2|0,1:2|0:0,0:0:0:0:
154,355,15107,2,0,P|93:374|45:339,1,88.000002685547,10|0,0:0|0:0,0:0:0:0:
255,240,15415,2,0,P|298:249|352:261,1,88.000002685547,2|0,1:2|1:2,0:0:0:0:
136,111,15722,2,0,P|71:123|6:135,1,132.00000402832,8|0,0:0|0:0,0:0:0:0:
3,147,16030,6,0,P|58:154|95:202,1,88.000002685547,2|0,1:2|0:0,0:0:0:0:
280,22,16338,2,0,P|248:50|205:55,1,88.000002685547,10|0,0:0|0:0,0:0:0:0:
333,222,16645,1,2,1:2:0:0:
429,158,16799,2,0,B|460:124|444:52|392:46|392:46|411:70|404:112,1,176.000005371094,2|0,1:2|0:0,0:0:0:0:
333,222,17261,6,0,L|316:323,1,88.000002685547,6|0,1:2|0:0,0:0:0:0:
115,207,17568,2,0,P|157:218|210:196,1,88.000002685547,10|0,0:0|0:0,0:0:0:0:
284,137,17876,1,2,1:2:0:0:
175,331,18030,1,0,1:2:0:0:
26,176,18184,2,0,P|16:129|54:82,1,88.000002685547,8|0,0:0|1:0,0:0:0:0:
92,31,18415,1,8,0:0:0:0:
109,36,18491,6,0,L|215:58,1,88.000002685547,2|0,1:2|0:0,0:0:0:0:
399,192,18799,2,0,P|352:198|315:241,1,88.000002685547,10|2,0:0|0:0,0:0:0:0:
126,331,19107,1,2,1:2:0:0:
242,373,19261,2,0,P|224:277|207:181,1,176.000005371094,0|0,1:2|0:0,0:0:0:0:
324,316,19722,6,0,P|366:324|417:334,1,88.000002685547,2|0,1:2|0:0,0:0:0:0:
117,259,20030,2,0,P|73:267|30:275,1,88.000002685547,10|0,0:0|0:0,0:0:0:0:
290,166,20338,1,2,1:2:0:0:
209,356,20491,1,0,1:2:0:0:
296,152,20645,1,8,0:0:0:0:
203,370,20798,1,0,0:0:0:0:
302,138,20953,6,0,P|295:88|287:27,1,88.000002685547,2|0,1:2|0:0,0:0:0:0:
155,275,21261,2,0,B|172:237|214:226|248:241|248:241|264:278|311:284,1,176.000005371094,10|2,0:0|1:2,0:0:0:0:
470,216,21722,1,10,0:0:0:0:
302,138,21876,1,10,0:0:0:0:
405,363,22030,1,10,0:0:0:0:
472,203,22184,6,0,L|492:101,1,71.9999978027344,6|0,1:2|0:0,0:0:0:0:
385,33,22491,1,10,0:0:0:0:
387,45,22645,2,0,L|400:126,1,71.9999978027344,2|0,1:2|1:2,0:0:0:0:
327,183,22953,2,0,P|282:181|244:146,1,71.9999978027344,2|8,0:0|0:0,0:0:0:0:
183,97,23261,2,0,L|90:114,1,71.9999978027344,2|0,0:0|1:2,0:0:0:0:
33,179,23568,2,0,P|16:108|0:38,1,143.999995605469,2|0,1:2|0:0,0:0:0:0:
112,109,24030,1,0,1:2:0:0:
38,193,24184,6,0,P|73:194|106:208,1,71.9999978027344,2|10,0:0|0:0,0:0:0:0:
173,384,24491,1,2,0:0:0:0:
0,353,24645,6,0,P|54:307|148:316,1,143.999995605469,2|10,1:2|0:0,0:0:0:0:
205,260,25107,2,0,P|238:269|282:281,1,71.9999978027344,2|0,1:2|1:2,0:0:0:0:
391,177,25415,2,0,P|355:177|317:208,1,71.9999978027344,2|8,0:0|0:0,0:0:0:0:
224,79,25722,2,0,L|245:149,1,71.9999978027344,2|0,0:0|1:2,0:0:0:0:
340,56,26030,2,0,B|385:58|424:76|424:76|464:48|456:8,1,143.999995605469,2|0,1:2|0:0,0:0:0:0:
245,149,26491,1,0,1:2:0:0:
331,234,26645,6,0,P|347:188|335:155,1,71.9999978027344,2|10,0:0|0:0,0:0:0:0:
249,57,26953,1,2,0:0:0:0:
192,236,27107,6,0,L|205:324,1,71.9999978027344,2|0,1:2|0:0,0:0:0:0:
130,354,27415,1,10,0:0:0:0:
119,352,27568,2,0,L|42:342,1,71.9999978027344,2|0,1:2|1:2,0:0:0:0:
279,260,27876,2,0,L|356:270,1,71.9999978027344,2|8,0:0|0:0,0:0:0:0:
423,214,28184,2,0,P|422:178|404:147,1,71.9999978027344,2|0,0:0|1:2,0:0:0:0:
399,353,28491,2,0,P|438:361|490:330,1,71.9999978027344,2|8,1:2|0:0,0:0:0:0:
317,280,28799,2,0,P|281:283|245:312,1,71.9999978027344,2|0,1:2|1:2,0:0:0:0:
177,367,29107,2,0,B|137:336|101:349|101:349|79:374|41:373,1,143.999995605469,2|0,0:0|0:0,0:0:0:0:
126,245,29568,5,2,1:2:0:0:
61,127,29722,2,0,P|43:159|53:208,1,71.9999978027344,2|8,1:2|0:0,0:0:0:0:
235,311,30030,2,0,P|240:278|230:242,1,71.9999978027344,2|0,1:2|1:2,0:0:0:0:
301,180,30338,2,0,B|344:170|393:199|393:199|369:170|336:169,1,143.999995605469,2|0,0:0|0:0,0:0:0:0:
132,241,30799,5,2,1:2:0:0:
325,329,30953,1,0,1:2:0:0:
130,383,31107,1,8,0:0:0:0:
218,171,31261,2,0,L|234:265,1,71.9999978027344,8|4,0:0|1:2,0:0:0:0:
251,370,31568,5,10,0:0:0:0:
463,318,31722,1,10,0:0:0:0:
234,373,31876,1,10,0:0:0:0:
480,315,32030,6,0,P|511:268|482:188,1,143.999995605469,6|10,1:2|0:0,0:0:0:0:
402,238,32491,2,0,L|378:328,1,71.9999978027344,2|0,1:2|1:2,0:0:0:0:
320,196,32799,2,0,L|239:205,1,71.9999978027344,2|8,0:0|0:0,0:0:0:0:
439,119,33107,2,0,L|510:126,1,71.9999978027344,2|0,0:0|1:2,0:0:0:0:
334,38,33415,2,0,B|264:51|264:51|263:53|263:53|169:72|169:72,1,143.999995605469,2|0,0:0|0:0,0:0:0:0:
97,192,33876,1,0,1:2:0:0:
12,96,34030,6,0,L|111:112,1,71.9999978027344,2|10,0:0|0:0,0:0:0:0:
188,207,34338,1,2,0:0:0:0:
95,333,34491,6,0,P|75:294|90:252,1,71.9999978027344,2|0,1:2|0:0,0:0:0:0:
185,369,34799,1,10,0:0:0:0:
261,322,34953,2,0,L|350:339,1,71.9999978027344,2|0,1:2|1:2,0:0:0:0:
468,263,35261,2,0,P|423:260|390:283,1,71.9999978027344,2|8,0:0|0:0,0:0:0:0:
328,210,35568,2,0,L|311:131,1,71.9999978027344,2|0,0:0|1:2,0:0:0:0:
378,65,35876,2,0,B|473:83|473:83|462:54|468:36,1,143.999995605469,2|0,1:2|1:2,0:0:0:0:
312,139,36338,1,0,1:2:0:0:
457,220,36491,6,0,P|427:199|388:198,1,71.9999978027344,2|10,0:0|0:0,0:0:0:0:
241,340,36799,1,2,0:0:0:0:
359,353,36953,6,0,B|385:312|362:257|308:258|308:258|320:276|321:300,1,160,2|10,1:2|0:0,0:0:0:0:
241,340,37415,2,0,L|161:350,1,71.9999978027344,2|0,1:2|1:2,0:0:0:0:
51,255,37722,2,0,P|86:251|118:267,1,71.9999978027344,2|8,0:0|0:0,0:0:0:0:
239,166,38030,2,0,P|204:185|163:185,1,71.9999978027344,2|0,0:0|1:2,0:0:0:0:
100,128,38338,2,0,L|80:54,1,71.9999978027344,2|8,1:2|0:0,0:0:0:0:
225,257,38645,2,0,L|205:331,1,71.9999978027344,2|0,1:2|1:2,0:0:0:0:
369,183,38953,2,0,B|439:170|439:170|440:168|440:168|538:149,1,143.999995605469,2|0,0:0|0:0,0:0:0:0:
430,78,39415,5,14,0:0:0:0:
355,318,39568,1,2,1:2:0:0:
344,44,39722,5,8,0:0:0:0:
444,356,39876,1,2,1:2:0:0:
439,23,40030,5,12,0:0:0:0:
281,358,40184,2,0,B|237:379|189:361|181:307|181:307|215:262,1,176.000005371094,2|0,1:2|0:0,0:0:0:0:
272,192,40645,5,14,0:0:0:0:
82,235,40799,1,0,1:2:0:0:
365,209,40953,5,12,0:0:0:0:
136,127,41107,1,0,1:2:0:0:
367,306,41261,5,12,0:0:0:0:
238,19,41415,1,8,0:0:0:0:
279,352,41568,5,10,0:0:0:0:
354,107,41722,1,10,0:0:0:0:
164,242,41876,2,0,L|40:259,1,88.000002685547,6|0,1:2|1:2,0:0:0:0:
378,191,42184,5,10,0:0:0:0:
170,100,42338,1,2,0:0:0:0:
309,309,42491,2,0,L|420:331,1,88.000002685547,2|0,1:2|0:0,0:0:0:0:
292,73,42799,5,10,0:0:0:0:
190,333,42953,1,2,0:0:0:0:
405,194,43107,1,2,1:2:0:0:
151,81,43261,1,2,0:0:0:0:
325,329,43415,6,0,B|359:310|359:234|286:219|286:219|299:243|296:270,1,186.000001419067,10|0,0:0|0:0,0:0:0:0:
281,267,43722,2,0,P|229:274|189:247,1,88.000002685547,0|0,1:2|1:2,0:0:0:0:
53,76,44030,5,10,0:0:0:0:
218,165,44184,1,2,0:0:0:0:
96,300,44338,2,0,P|80:254|110:204,1,88.000002685547,2|0,1:2|0:0,0:0:0:0:
217,53,44645,5,10,0:0:0:0:
271,308,44799,1,2,0:0:0:0:
444,190,44953,2,0,L|337:171,1,88.000002685547,2|0,1:2|1:2,0:0:0:0:
167,367,45261,5,10,0:0:0:0:
383,274,45415,1,2,0:0:0:0:
157,162,45568,1,2,1:2:0:0:
395,280,45722,1,2,0:0:0:0:
167,367,45876,6,0,B|137:343|100:351|100:351|70:375|32:371,1,143.999995605469,10|0,0:0|0:0,0:0:0:0:
20,360,46184,2,0,P|20:309|66:278,1,88.000002685547,0|0,1:2|1:2,0:0:0:0:
82,61,46491,6,0,L|109:180,1,88.000002685547,10|2,0:0|0:0,0:0:0:0:
375,97,46799,2,0,P|285:90|240:53,1,132.00000402832,6|0,1:2|0:0,0:0:0:0:
244,60,47107,1,10,0:0:0:0:
320,273,47261,1,2,0:0:0:0:
153,212,47415,2,0,P|194:185|242:192,1,88.000002685547,2|0,1:2|1:2,0:0:0:0:
383,366,47722,2,0,P|318:326|239:343,1,132.00000402832,10|0,0:0|0:0,0:0:0:0:
198,373,48030,5,2,1:2:0:0:
374,247,48184,2,0,P|417:254|460:262,1,88.000002685547,2|10,0:0|0:0,0:0:0:0:
159,178,48491,2,0,B|101:172|36:203|36:203|57:168|91:169,1,176.000005371094,2|0,0:0|1:0,0:0:0:0:
289,101,48953,1,10,0:0:0:0:
229,277,49107,1,2,0:0:0:0:
219,54,49261,5,10,0:0:0:0:
296,324,49415,1,0,1:2:0:0:
293,19,49568,5,10,0:0:0:0:
223,363,49722,2,0,B|141:352|141:352|139:353|139:353|45:340,1,176.000005371094,2|2,1:2|1:2,0:0:0:0:
380,166,50184,5,10,0:0:0:0:
127,228,50337,1,0,1:2:0:0:
394,259,50491,5,10,0:0:0:0:
138,93,50645,1,2,1:2:0:0:
336,335,50799,5,8,0:0:0:0:
249,17,50953,1,0,1:2:0:0:
511,199,51107,6,0,L|423:189,1,88.000002685547,8|0,0:0|1:2,0:0:0:0:
340,182,51338,1,0,1:2:0:0:
330,172,51415,5,10,0:0:0:0:
309,133,51491,1,8,0:0:0:0:
315,90,51568,1,8,0:0:0:0:
345,59,51645,1,8,0:0:0:0:
388,52,51722,2,0,L|480:40,1,88.000002685547,6|0,1:2|1:2,0:0:0:0:
191,272,52030,5,10,0:0:0:0:
423,189,52184,1,2,0:0:0:0:
177,84,52338,2,0,L|89:72,1,88.000002685547,2|0,1:2|1:2,0:0:0:0:
342,286,52645,5,10,0:0:0:0:
234,22,52799,1,2,0:0:0:0:
410,171,52953,1,2,1:2:0:0:
156,253,53107,1,2,0:0:0:0:
302,111,53261,6,0,B|305:68|335:38|373:44|373:44|327:67|323:131,1,180.000006866455,10|0,0:0|0:0,0:0:0:0:
399,149,53568,2,0,L|491:170,1,88.000002685547,0|0,1:2|1:2,0:0:0:0:
125,321,53876,5,10,0:0:0:0:
381,272,54030,1,2,0:0:0:0:
199,94,54184,2,0,L|216:185,1,88.000002685547,2|0,1:2|0:0,0:0:0:0:
286,34,54491,5,10,0:0:0:0:
85,159,54645,1,2,0:0:0:0:
320,223,54799,2,0,P|366:224|410:185,1,88.000002685547,2|0,1:2|1:2,0:0:0:0:
189,69,55107,5,10,0:0:0:0:
279,323,55261,1,2,0:0:0:0:
183,57,55415,1,2,1:2:0:0:
285,335,55569,1,2,0:0:0:0:
451,144,55722,6,0,B|477:114|464:41|394:46|394:46|412:65|402:94|402:94,1,180.000006866455,10|0,0:0|0:0,0:0:0:0:
340,133,56030,2,0,L|240:118,1,88.000002685547,0|0,1:2|1:2,0:0:0:0:
173,30,56338,5,10,0:0:0:0:
228,255,56491,1,2,0:0:0:0:
9,192,56645,2,0,P|73:180|139:169,1,132.00000402832,6|0,1:2|0:0,0:0:0:0:
152,177,56953,1,10,0:0:0:0:
327,277,57107,1,2,0:0:0:0:
160,384,57261,2,0,P|143:343|175:287,1,88.000002685547,2|0,1:2|1:2,0:0:0:0:
264,52,57568,2,0,P|308:94|302:163,1,132.00000402832,10|0,0:0|0:0,0:0:0:0:
243,222,57876,5,2,1:2:0:0:
77,141,58030,2,0,P|119:117|170:130,1,88.000002685547,2|10,0:0|0:0,0:0:0:0:
396,12,58338,2,0,P|386:42|254:37,1,176.000005371094,2|0,0:0|1:0,0:0:0:0:
156,122,58799,1,10,0:0:0:0:
357,210,58953,1,2,0:0:0:0:
211,347,59107,6,0,L|227:231,1,88.000002685547,2|0,1:2|0:0,0:0:0:0:
47,215,59415,1,10,0:0:0:0:
129,68,59568,2,0,L|144:187,1,88.000002685547,2|0,0:0|1:2,0:0:0:0:
313,278,59876,1,2,1:2:0:0:
130,377,60030,2,0,B|119:328|163:285|207:297|207:297|187:319|193:358,1,155.999992858887,10|0,0:0|0:0,0:0:0:0:
273,356,60338,6,0,B|363:365|363:365|365:366|365:366|470:376,2,176.000005371094,2|8|0,1:2|0:0|1:2,0:0:0:0:
184,249,61107,2,0,L|191:190,1,44.0000013427735,8|8,0:0|0:0,0:0:0:0:
155,121,61261,1,8,0:0:0:0:
116,102,61337,1,8,0:0:0:0:
74,111,61414,1,8,0:0:0:0:
47,145,61491,1,8,0:0:0:0:
47,188,61568,5,6,1:2:0:0:
240,95,61722,2,0,L|266:-9,1,88.000002685547,2|8,1:2|0:0,0:0:0:0:
434,220,62030,5,2,0:0:0:0:
241,127,62184,2,0,L|215:23,1,88.000002685547,2|0,1:2|1:2,0:0:0:0:
47,252,62491,5,10,0:0:0:0:
240,159,62645,2,0,L|266:55,1,88.000002685547,2|0,0:0|1:2,0:0:0:0:
434,284,62953,5,2,1:2:0:0:
241,191,63107,2,0,L|215:87,1,88.000002685547,10|0,0:0|0:0,0:0:0:0:
47,316,63414,5,2,1:2:0:0:
240,223,63568,2,0,L|266:119,1,88.000002685547,2|8,1:2|0:0,0:0:0:0:
434,348,63876,5,2,0:0:0:0:
241,255,64030,2,0,L|215:151,1,88.000002685547,2|0,1:2|1:2,0:0:0:0:
47,380,64337,5,10,0:0:0:0:
240,287,64491,2,0,B|261:203|261:203|262:202|262:202|290:83,1,176.000005371094,2|2,0:0|1:2,0:0:0:0:
359,287,64953,1,10,0:0:0:0:
128,216,65107,1,2,0:0:0:0:
287,109,65261,6,0,B|302:80|345:70|369:85|369:85|376:122|416:141,1,155.999992858887,2|0,1:2|0:0,0:0:0:0:
481,105,65568,2,0,P|499:64|471:13,1,88.000002685547,10|2,0:0|0:0,0:0:0:0:
322,193,65876,1,2,1:2:0:0:
322,193,66030,1,2,1:2:0:0:
429,280,66184,2,0,B|459:231|513:250|513:250|479:250|456:289,1,132.00000402832,10|0,0:0|0:0,0:0:0:0:
490,280,66491,5,6,1:2:0:0:
327,367,66645,2,0,L|237:353,1,88.000002685547,2|8,1:2|0:0,0:0:0:0:
33,210,66953,5,2,0:0:0:0:
196,297,67107,2,0,L|286:283,1,88.000002685547,2|0,1:2|1:2,0:0:0:0:
490,140,67414,5,10,0:0:0:0:
327,227,67568,2,0,L|237:213,1,88.000002685547,2|0,0:0|1:2,0:0:0:0:
33,70,67876,5,2,1:2:0:0:
196,157,68030,2,0,L|286:143,1,88.000002685547,10|0,0:0|0:0,0:0:0:0:
490,0,68337,5,2,1:2:0:0:
327,87,68491,2,0,L|237:73,1,88.000002685547,2|8,1:2|0:0,0:0:0:0:
33,70,68799,5,2,0:0:0:0:
196,157,68953,2,0,L|286:143,1,88.000002685547,2|0,1:2|1:2,0:0:0:0:
490,140,69261,5,10,0:0:0:0:
327,227,69415,2,0,B|246:213|246:213|243:214|243:214|144:196,1,176.000005371094,2|2,0:0|1:2,0:0:0:0:
42,352,69876,1,10,0:0:0:0:
178,301,70030,1,2,0:0:0:0:
91,135,70184,6,0,P|37:177|49:245,1,143.999995605469,2|0,1:2|0:0,0:0:0:0:
61,263,70491,2,0,P|104:262|145:279,1,88.000002685547,10|2,0:0|0:0,0:0:0:0:
324,107,70799,1,2,1:2:0:0:
174,180,70953,1,2,1:2:0:0:
330,264,71107,2,0,B|384:251|431:280|431:280|409:249|369:244,1,155.999992858887,10|0,0:0|0:0,0:0:0:0:
386,234,71415,6,0,P|433:221|505:222,1,88.000002685547,14|2,0:0|1:2,0:0:0:0:
166,166,71722,2,0,P|119:179|47:178,1,88.000002685547,10|2,0:0|1:2,0:0:0:0:
308,56,72030,5,10,0:0:0:0:
246,238,72184,1,0,1:2:0:0:
243,9,72338,5,10,0:0:0:0:
316,275,72491,1,2,1:2:0:0:
446,138,72645,6,0,P|401:108|352:119,1,88.000002685547,12|2,0:0|1:2,0:0:0:0:
141,310,72953,2,0,P|191:315|224:288,1,88.000002685547,10|0,0:0|1:2,0:0:0:0:
236,63,73261,6,0,P|212:90|221:170,1,88.000002685547,10|2,0:0|1:2,0:0:0:0:
368,370,73568,2,0,P|382:319|355:283,1,88.000002685547,8|2,0:0|1:2,0:0:0:0:
146,279,73876,5,14,0:0:0:0:
421,187,74030,1,0,1:2:0:0:
138,100,74184,5,10,0:0:0:0:
434,190,74338,1,2,1:2:0:0:
224,353,74491,6,0,L|112:372,1,88.000002685547,8|2,0:0|1:2,0:0:0:0:
285,85,74799,2,0,L|371:99,1,88.000002685547,10|2,0:0|1:2,0:0:0:0:
86,246,75107,6,0,P|71:208|91:167,1,88.000002685547,14|0,0:0|1:2,0:0:0:0:
151,107,75338,1,0,1:2:0:0:
145,91,75415,2,0,L|126:-2,1,88.000002685547,10|0,0:0|1:2,0:0:0:0:
307,206,75722,2,0,L|288:299,1,88.000002685547,14|2,0:0|1:2,0:0:0:0:
351,357,75953,1,0,1:2:0:0:
363,363,76030,2,0,P|420:357|449:307,1,88.000002685547,10|0,0:0|1:2,0:0:0:0:
202,247,76338,6,0,B|125:261|125:261|124:263|124:263|35:279,1,155.999992858887,12|0,0:0|0:0,0:0:0:0:
36,275,76645,5,10,0:0:0:0:
245,149,76799,1,2,1:2:0:0:
77,32,76953,2,0,L|103:155,1,88.000002685547,10|0,0:0|1:2,0:0:0:0:
143,354,77261,5,10,0:0:0:0:
258,126,77415,1,2,1:2:0:0:
11,208,77568,2,0,L|104:227,1,88.000002685547,14|0,0:0|1:2,0:0:0:0:
324,20,77876,5,10,0:0:0:0:
111,116,78030,1,2,1:2:0:0:
274,253,78184,2,0,P|305:205|279:160,1,88.000002685547,10|0,0:0|1:2,0:0:0:0:
202,42,78491,5,10,0:0:0:0:
420,190,78645,1,2,1:2:0:0:
172,282,78799,2,0,L|76:298,1,88.000002685547,14|0,0:0|1:2,0:0:0:0:
310,42,79107,5,10,0:0:0:0:
92,190,79261,1,2,1:2:0:0:
340,282,79415,2,0,L|436:298,1,88.000002685547,10|0,0:0|1:2,0:0:0:0:
192,40,79722,5,10,0:0:0:0:
388,183,79876,1,2,1:2:0:0:
398,191,79953,1,0,1:2:0:0:
409,198,80030,2,0,L|519:174,1,88.000002685547,10|8,0:0|0:0,0:0:0:0:
192,40,80338,5,10,0:0:0:0:
292,313,80491,1,8,0:0:0:0:
297,13,80645,5,10,0:0:0:0:
190,340,80799,1,10,0:0:0:0:
409,198,80953,6,0,L|279:176,1,132.00000402832,10|0,0:0|0:0,0:0:0:0:
209,238,81261,6,0,B|319:141|203:-10|98:46|88:141|165:171,1,360.000013732911,4|0,1:2|0:0,0:0:0:0:
