osu file format v14

[General]
AudioFilename: audio.mp3
AudioLeadIn: 0
PreviewTime: 41504
Countdown: 0
SampleSet: Soft
StackLeniency: 0.7
Mode: 0
LetterboxInBreaks: 0
WidescreenStoryboard: 1

[Editor]
Bookmarks: 6666,12351,22197,32043,41889,51735,61581,71428,81274
DistanceSpacing: 1
BeatDivisor: 4
GridSize: 16
TimelineZoom: 1

[Metadata]
Title:ne uchi (Cut Ver.)
TitleUnicode:не учи (Cut Ver.)
Artist:kis-kis
ArtistUnicode:кис-кис
Creator:A r M i N
Version:Xenon's Normal
Source:
Tags:russian female vocal punk punk-rock rock Armin A_r_M_i_N Kujinn Reform schoolboy Komore SpokenAway Xenon- Xen Xehn русский панк рок пир во время чумы
BeatmapID:2780015
BeatmapSetID:1331950

[Difficulty]
HPDrainRate:3
CircleSize:3
OverallDifficulty:4
ApproachRate:5.5
SliderMultiplier:0.999999999999999
SliderTickRate:1

[Events]
//Background and Video events
0,0,"63890894_p0.jpg",0,0
//Break Periods
//Storyboard Layer 0 (Background)
//Storyboard Layer 1 (Fail)
//Storyboard Layer 2 (Pass)
//Storyboard Layer 3 (Foreground)
//Storyboard Layer 4 (Overlay)
//Storyboard Sound Samples

[TimingPoints]
38,307.692307692308,4,2,1,60,1,0
6653,-100,4,2,1,60,0,0
7415,307.692307692308,4,2,1,65,1,0
7415,-100,4,2,1,65,0,0
12338,-100,4,2,1,70,0,0
41876,-100,4,2,1,80,0,1
49261,-100,4,2,1,80,0,0
51722,-100,4,2,1,80,0,1
61568,-100,4,2,1,70,0,0
71415,-100,4,2,1,85,0,1
81261,-100,4,2,1,85,0,0
81722,-100,4,2,1,70,0,0

[Colours]
Combo1 : 184,118,20
Combo2 : 188,24,24
Combo3 : 184,130,97
Combo4 : 78,23,22

[HitObjects]
50,143,6653,6,0,L|42:79,2,50,0|8|8,1:2|0:0|3:0,0:0:0:0:
160,212,7415,2,0,P|200:183|253:180,1,99.9999999999999,2|2,1:2|0:0,0:0:0:0:
291,216,7876,1,2,1:2:0:0:
291,216,8030,2,0,L|303:116,1,99.9999999999999,10|0,0:0|0:0,0:0:0:0:
384,58,8645,2,0,P|433:62|473:90,1,99.9999999999999,2|2,1:2|0:0,0:0:0:0:
501,139,9106,1,2,1:2:0:0:
501,139,9260,2,0,L|488:238,1,99.9999999999999,10|0,0:0|0:0,0:0:0:0:
413,305,9876,5,2,1:2:0:0:
332,245,10184,1,2,1:2:0:0:
256,309,10491,2,0,P|215:280|166:276,1,99.9999999999999,10|0,0:0|0:0,0:0:0:0:
84,333,11107,1,2,1:2:0:0:
5,273,11415,1,2,1:2:0:0:
46,182,11722,2,0,L|39:132,1,50,10|10,0:0|0:0,0:0:0:0:
1,99,12030,2,0,L|7:49,1,50,8|8,0:0|0:0,0:0:0:0:
43,15,12338,6,0,P|92:15|133:42,1,99.9999999999999,6|10,1:2|0:0,0:0:0:0:
185,128,12953,2,0,L|177:191,1,50,2|0,1:2|1:2,0:0:0:0:
172,227,13261,1,8,0:0:0:0:
250,290,13568,2,0,P|299:285|339:257,1,99.9999999999999,2|10,1:2|0:0,0:0:0:0:
366,216,14030,1,2,0:0:0:0:
366,216,14184,2,0,L|429:223,1,50,2|0,1:2|1:2,0:0:0:0:
465,229,14491,1,8,0:0:0:0:
510,141,14799,6,0,P|505:91|477:51,1,99.9999999999999,2|10,1:2|0:0,0:0:0:0:
388,4,15415,2,0,L|324:11,1,50,2|0,1:2|1:2,0:0:0:0:
289,17,15722,1,8,0:0:0:0:
217,86,16030,2,0,L|204:185,1,99.9999999999999,2|10,1:2|0:0,0:0:0:0:
249,280,16645,1,2,1:2:0:0:
249,280,16800,2,0,L|298:273,2,50,2|8|0,1:2|0:0|0:0,0:0:0:0:
215,316,17261,6,0,P|165:311|125:283,1,99.9999999999999,6|10,1:2|0:0,0:0:0:0:
75,197,17876,2,0,L|82:133,1,50,2|0,1:2|1:2,0:0:0:0:
88,98,18184,1,8,0:0:0:0:
163,33,18491,2,0,P|212:37|252:65,1,99.9999999999999,2|10,1:2|0:0,0:0:0:0:
283,112,18953,1,2,0:0:0:0:
283,112,19107,2,0,L|290:175,1,50,2|0,1:2|1:2,0:0:0:0:
296,211,19414,1,8,0:0:0:0:
219,275,19722,6,0,P|259:303|308:307,1,99.9999999999999,2|10,1:2|0:0,0:0:0:0:
373,384,20338,2,0,L|436:376,1,50,2|0,1:2|1:2,0:0:0:0:
472,371,20645,1,8,0:0:0:0:
510,279,20953,2,0,P|505:229|477:189,1,99.9999999999999,2|10,1:2|0:0,0:0:0:0:
398,137,21568,1,2,1:2:0:0:
398,137,21723,2,0,L|391:87,2,50,10|10|10,0:0|0:0|0:0,0:0:0:0:
361,171,22184,5,6,1:2:0:0:
270,142,22491,1,10,0:0:0:0:
270,142,22645,2,0,P|229:170|180:174,1,99.9999999999999,2|2,1:2|0:0,0:0:0:0:
145,80,23261,2,0,P|185:51|234:47,1,99.9999999999999,2|2,0:0|1:2,0:0:0:0:
314,230,24184,2,0,L|307:279,2,50,2|10|2,0:0|0:0|0:0,0:0:0:0:
356,203,24645,5,2,1:2:0:0:
428,280,24953,1,10,0:0:0:0:
428,280,25107,2,0,P|456:239|460:190,1,99.9999999999999,2|2,1:2|0:0,0:0:0:0:
396,113,25723,2,0,L|383:13,1,99.9999999999999,2|2,0:0|1:2,0:0:0:0:
212,100,26645,2,0,L|219:36,2,50,2|10|2,0:0|0:0|0:0,0:0:0:0:
246,136,27107,5,2,1:2:0:0:
161,187,27415,1,10,0:0:0:0:
161,187,27569,2,0,P|120:158|71:154,1,99.9999999999999,2|2,1:2|0:0,0:0:0:0:
1,225,28184,2,0,L|14:336,1,99.9999999999999,2|2,0:0|1:2,0:0:0:0:
96,378,28799,2,0,P|145:373|185:345,1,99.9999999999999,2|2,1:2|0:0,0:0:0:0:
215,304,29261,1,10,0:0:0:0:
144,241,29568,5,2,1:2:0:0:
144,241,29722,2,0,L|130:129,2,99.9999999999999,2|2|2,1:2|1:2|0:0,0:0:0:0:
110,278,30491,1,8,0:0:0:0:
185,344,30799,2,0,P|225:315|274:310,1,99.9999999999999,2|8,1:2|0:0,0:0:0:0:
325,333,31261,1,8,0:0:0:0:
325,333,31415,2,0,L|317:269,1,50,4|10,1:2|0:0,0:0:0:0:
358,253,31722,2,0,L|366:189,1,50,10|10,0:0|0:0,0:0:0:0:
339,159,32030,5,6,1:2:0:0:
273,91,32337,1,10,0:0:0:0:
273,91,32491,2,0,P|223:95|182:122,1,99.9999999999999,2|2,1:2|0:0,0:0:0:0:
146,216,33107,2,0,L|159:316,1,99.9999999999999,2|2,0:0|0:0,0:0:0:0:
356,281,34030,2,0,L|363:232,2,50,2|10|2,0:0|0:0|0:0,0:0:0:0:
314,308,34491,5,2,1:2:0:0:
242,246,34799,1,10,0:0:0:0:
242,246,34953,2,0,P|270:205|274:156,1,99.9999999999999,2|2,1:2|0:0,0:0:0:0:
180,121,35569,2,0,P|151:161|147:210,1,99.9999999999999,2|2,0:0|1:2,0:0:0:0:
0,335,36491,2,0,L|7:399,2,50,2|10|2,0:0|0:0|0:0,0:0:0:0:
34,299,36953,5,2,1:2:0:0:
127,347,37261,1,10,0:0:0:0:
127,347,37415,2,0,P|168:318|217:314,1,99.9999999999999,2|2,1:2|0:0,0:0:0:0:
301,366,38030,2,0,P|350:361|390:332,1,99.9999999999999,2|2,0:0|1:2,0:0:0:0:
454,255,38645,2,0,L|441:144,1,99.9999999999999,2|2,1:2|0:0,0:0:0:0:
435,105,39107,1,8,0:0:0:0:
356,53,39414,5,14,0:0:0:0:
356,53,39568,2,0,P|306:57|266:86,2,99.9999999999999,2|2|2,1:2|1:2|1:2,0:0:0:0:
392,19,40337,1,8,0:0:0:0:
472,78,40645,2,0,L|460:177,1,99.9999999999999,14|12,0:0|0:0,0:0:0:0:
437,223,41107,1,0,1:2:0:0:
437,223,41261,2,0,L|373:231,1,50,12|8,0:0|0:0,0:0:0:0:
357,190,41568,2,0,L|293:182,1,50,10|10,0:0|0:0,0:0:0:0:
271,219,41876,6,0,L|171:231,1,99.9999999999999,6|10,1:2|0:0,0:0:0:0:
86,179,42491,1,2,1:2:0:0:
11,244,42799,1,10,0:0:0:0:
50,336,43107,2,0,L|113:343,1,50,2|2,1:2|0:0,0:0:0:0:
128,383,43415,2,0,P|168:354|217:350,1,99.9999999999999,10|0,0:0|1:2,0:0:0:0:
294,286,44030,2,0,L|287:236,1,50,10|2,0:0|0:0,0:0:0:0:
324,202,44338,6,0,L|337:90,1,99.9999999999999,2|10,1:2|0:0,0:0:0:0:
341,53,44799,1,2,0:0:0:0:
341,53,44953,1,2,1:2:0:0:
259,5,45261,1,10,0:0:0:0:
185,72,45568,2,0,L|192:135,1,50,2|2,1:2|0:0,0:0:0:0:
198,171,45876,2,0,P|148:174|108:203,1,99.9999999999999,10|0,0:0|1:2,0:0:0:0:
52,286,46491,2,0,L|59:349,1,50,10|2,0:0|0:0,0:0:0:0:
101,360,46799,6,0,L|200:372,1,99.9999999999999,6|10,1:2|0:0,0:0:0:0:
249,380,47260,1,2,0:0:0:0:
249,380,47415,1,2,1:2:0:0:
311,302,47722,1,10,0:0:0:0:
242,232,48030,2,0,L|235:168,1,50,2|2,1:2|0:0,0:0:0:0:
252,134,48338,2,0,P|292:105|341:102,1,99.9999999999999,10|0,0:0|1:2,0:0:0:0:
422,162,48953,2,0,L|415:225,1,50,10|2,0:0|0:0,0:0:0:0:
410,261,49261,5,10,0:0:0:0:
317,299,49568,1,10,0:0:0:0:
242,232,49876,1,8,0:0:0:0:
149,270,50183,1,10,0:0:0:0:
74,203,50491,2,0,P|76:153|105:113,1,99.9999999999999,10|8,0:0|0:0,0:0:0:0:
191,62,51107,1,8,0:0:0:0:
267,126,51415,2,0,L|275:189,1,50,10|8,0:0|0:0,0:0:0:0:
243,216,51722,6,0,L|343:228,1,99.9999999999999,6|10,1:2|0:0,0:0:0:0:
428,176,52337,1,2,1:2:0:0:
503,241,52645,1,10,0:0:0:0:
464,333,52953,2,0,L|401:340,1,50,2|2,1:2|0:0,0:0:0:0:
386,380,53261,2,0,P|346:351|297:347,1,99.9999999999999,10|0,0:0|1:2,0:0:0:0:
220,283,53876,2,0,L|227:233,1,50,10|2,0:0|0:0,0:0:0:0:
190,199,54184,6,0,L|177:87,1,99.9999999999999,2|10,1:2|0:0,0:0:0:0:
170,50,54645,1,2,0:0:0:0:
170,50,54799,1,2,1:2:0:0:
84,8,55107,1,10,0:0:0:0:
5,68,55414,2,0,L|0:117,1,50,2|2,1:2|0:0,0:0:0:0:
32,156,55722,2,0,P|3:196|0:245,1,99.9999999999999,10|0,0:0|1:2,0:0:0:0:
72,316,56338,2,0,L|135:309,1,50,10|2,0:0|0:0,0:0:0:0:
162,339,56645,6,0,L|174:240,1,99.9999999999999,6|10,1:2|0:0,0:0:0:0:
182,195,57106,1,2,0:0:0:0:
182,195,57260,1,2,1:2:0:0:
258,130,57568,1,10,0:0:0:0:
321,206,57876,2,0,L|385:213,1,50,2|2,1:2|0:0,0:0:0:0:
418,193,58184,2,0,P|446:152|449:103,1,99.9999999999999,10|0,0:0|1:2,0:0:0:0:
391,23,58799,2,0,L|328:30,1,50,10|2,0:0|0:0,0:0:0:0:
310,68,59107,6,0,L|210:55,1,99.9999999999999,2|10,1:2|0:0,0:0:0:0:
166,49,59568,1,2,0:0:0:0:
166,49,59722,2,0,P|137:89|134:138,1,99.9999999999999,0|10,1:2|0:0,0:0:0:0:
219,191,60338,1,2,1:2:0:0:
171,279,60645,1,8,0:0:0:0:
250,340,60953,2,0,L|299:346,1,50,0|8,1:2|0:0,0:0:0:0:
336,311,61261,2,0,L|399:303,1,50,8|8,0:0|0:0,0:0:0:0:
434,292,61568,6,0,P|463:252|466:203,1,99.9999999999999,6|8,1:2|0:0,0:0:0:0:
438,167,62030,1,2,0:0:0:0:
438,167,62184,2,0,L|326:153,1,99.9999999999999,2|10,1:2|0:0,0:0:0:0:
290,145,62645,1,2,0:0:0:0:
231,224,62953,2,0,L|181:230,1,50,2|10,1:2|0:0,0:0:0:0:
87,217,63415,1,2,1:2:0:0:
87,217,63568,2,0,P|58:177|55:127,1,99.9999999999999,2|2,1:2|0:0,0:0:0:0:
67,78,64030,5,2,1:2:0:0:
149,21,64338,2,0,L|206:27,1,50,10|2,0:0|0:0,0:0:0:0:
302,42,64800,1,2,1:2:0:0:
302,42,64953,1,10,0:0:0:0:
375,109,65261,2,0,P|372:158|343:198,1,99.9999999999999,2|10,1:2|0:0,0:0:0:0:
257,250,65876,2,0,L|264:313,1,50,2|2,1:2|1:2,0:0:0:0:
271,348,66183,1,10,0:0:0:0:
365,379,66491,6,0,P|414:376|454:347,1,99.9999999999999,6|8,1:2|0:0,0:0:0:0:
482,306,66953,1,2,0:0:0:0:
482,306,67107,2,0,L|468:194,1,99.9999999999999,2|10,1:2|0:0,0:0:0:0:
460,157,67568,1,2,0:0:0:0:
385,90,67876,2,0,L|335:96,1,50,2|10,1:2|0:0,0:0:0:0:
266,168,68338,1,2,1:2:0:0:
266,168,68491,2,0,L|253:267,1,99.9999999999999,2|2,1:2|0:0,0:0:0:0:
245,316,68953,5,2,1:2:0:0:
160,370,69261,2,0,L|110:363,1,50,10|2,0:0|0:0,0:0:0:0:
47,294,69723,1,2,1:2:0:0:
47,294,69876,1,10,0:0:0:0:
109,215,70184,2,0,L|96:115,1,99.9999999999999,2|10,1:2|0:0,0:0:0:0:
167,45,70799,2,0,L|230:52,1,50,2|2,1:2|1:2,0:0:0:0:
265,59,71106,1,10,0:0:0:0:
335,130,71415,6,0,P|332:179|303:219,1,99.9999999999999,14|10,0:0|0:0,0:0:0:0:
261,243,71876,1,2,1:2:0:0:
261,243,72030,1,10,0:0:0:0:
191,171,72338,2,0,L|91:159,1,99.9999999999999,10|12,0:0|0:0,0:0:0:0:
45,154,72799,1,2,1:2:0:0:
45,154,72953,1,10,0:0:0:0:
0,245,73261,2,0,P|3:294|32:334,1,99.9999999999999,10|8,0:0|0:0,0:0:0:0:
78,365,73722,1,2,1:2:0:0:
78,365,73876,5,14,0:0:0:0:
149,295,74184,2,0,L|248:283,1,99.9999999999999,10|8,0:0|0:0,0:0:0:0:
301,279,74645,1,2,1:2:0:0:
301,279,74799,1,10,0:0:0:0:
373,348,75107,2,0,P|422:345|462:316,1,99.9999999999999,14|10,0:0|0:0,0:0:0:0:
512,231,75722,2,0,L|504:167,1,50,14|2,0:0|1:2,0:0:0:0:
499,131,76030,1,10,0:0:0:0:
423,66,76338,6,0,L|311:52,1,99.9999999999999,12|10,0:0|0:0,0:0:0:0:
253,125,76953,1,10,0:0:0:0:
296,214,77261,1,10,0:0:0:0:
224,281,77568,2,0,P|199:279|177:267,1,50,10|0,0:0|0:0,0:0:0:0:
140,236,77876,1,10,0:0:0:0:
153,140,78184,2,0,L|166:28,1,99.9999999999999,10|10,0:0|0:0,0:0:0:0:
257,4,78799,6,0,P|279:13|295:32,1,50,10|0,0:0|0:0,0:0:0:0:
318,78,79107,1,10,0:0:0:0:
257,157,79415,1,10,0:0:0:0:
324,232,79722,1,10,0:0:0:0:
413,187,80030,2,0,P|462:190|502:219,1,99.9999999999999,10|10,0:0|0:0,0:0:0:0:
512,273,80491,1,8,0:0:0:0:
512,273,80645,2,0,L|504:336,1,50,10|10,0:0|0:0,0:0:0:0:
472,360,80953,2,0,L|422:366,1,50,10|0,0:0|1:2,0:0:0:0:
372,370,81261,5,4,1:2:0:0:
