osu file format v14

[General]
AudioFilename: audio.mp3
AudioLeadIn: 0
PreviewTime: 41504
Countdown: 0
SampleSet: Soft
StackLeniency: 0.7
Mode: 0
LetterboxInBreaks: 0
WidescreenStoryboard: 1

[Editor]
DistanceSpacing: 1.5
BeatDivisor: 4
GridSize: 32
TimelineZoom: 1.9

[Metadata]
Title:ne uchi (Cut Ver.)
TitleUnicode:не учи (Cut Ver.)
Artist:kis-kis
ArtistUnicode:кис-кис
Creator:A r M i N
Version:Reform's Expert
Source:
Tags:russian female vocal punk punk-rock rock Armin A_r_M_i_N Kujinn Reform schoolboy Komore SpokenAway Xenon- Xen Xehn русский панк рок пир во время чумы
BeatmapID:2774812
BeatmapSetID:1331950

[Difficulty]
HPDrainRate:5.4
CircleSize:3.8
OverallDifficulty:8.8
ApproachRate:9.2
SliderMultiplier:1.74
SliderTickRate:1

[Events]
//Background and Video events
0,0,"63890894_p0.jpg",0,0
//Break Periods
//Storyboard Layer 0 (Background)
//Storyboard Layer 1 (Fail)
//Storyboard Layer 2 (Pass)
//Storyboard Layer 3 (Foreground)
//Storyboard Layer 4 (Overlay)
//Storyboard Sound Samples

[TimingPoints]
38,307.692307692308,4,2,1,60,1,0
6653,-181.818181818181,4,2,1,60,0,0
7415,307.692307692308,4,2,1,65,1,0
7415,-133.333333333333,4,2,1,65,0,0
8030,-285.714285714284,4,2,1,65,0,0
8645,-133.333333333333,4,2,1,65,0,0
9261,-285.714285714284,4,2,1,65,0,0
9876,-133.333333333333,4,2,1,65,0,0
10491,-285.714285714284,4,2,1,65,0,0
11107,-133.333333333333,4,2,1,65,0,0
12338,-105.263157894737,4,2,1,70,0,0
22184,-133.333333333334,4,2,1,70,0,0
39415,-95.2380952380956,4,2,1,70,0,0
41876,-95.2380952380956,4,2,1,80,0,1
61568,-95.2380952380956,4,2,1,70,0,0
71415,-95.2380952380956,4,2,1,85,0,1
81261,-133.333333333333,4,2,1,85,0,0
81722,-133.333333333333,4,2,1,50,0,0

[Colours]
Combo1 : 184,118,20
Combo2 : 188,24,24
Combo3 : 184,130,97
Combo4 : 78,23,22

[HitObjects]
118,332,6653,6,0,L|111:372,2,23.9250007301331,0|0|8,1:2|1:2|0:0,0:0:0:0:
68,264,6961,2,0,L|51:155,1,95.7000029205323,8|0,3:0|0:0,0:0:0:0:
111,89,7415,6,0,P|146:130|229:119,1,130.50000497818,2|2,1:2|0:0,0:0:0:0:
296,87,7876,1,2,1:2:0:0:
296,87,8030,2,0,L|311:188,1,91.3499972122193,10|0,0:0|0:0,0:0:0:0:
373,307,8645,6,0,P|338:266|255:277,1,130.50000497818,2|2,1:2|0:0,0:0:0:0:
179,233,9107,1,2,1:2:0:0:
179,233,9261,2,0,L|164:334,1,91.3499972122193,10|0,0:0|0:0,0:0:0:0:
114,380,9876,6,0,P|73:322|113:251,1,130.50000497818,2|2,1:2|1:2,0:0:0:0:
90,270,10491,2,0,L|-7:251,1,91.3499972122193,10|0,0:0|0:0,0:0:0:0:
118,141,11107,6,0,P|143:166|250:141,1,130.50000497818,2|2,1:2|1:2,0:0:0:0:
231,161,11722,1,10,0:0:0:0:
268,7,11876,1,10,0:0:0:0:
398,227,12030,1,8,0:0:0:0:
374,43,12184,1,8,0:0:0:0:
323,258,12338,6,0,P|362:300|467:272,2,165.299995586014,6|10|2,1:2|0:0|1:2,0:0:0:0:
261,114,13107,1,0,1:2:0:0:
168,247,13261,2,0,P|156:191|141:132,1,82.649997793007,8|0,0:0|0:0,0:0:0:0:
305,338,13568,6,0,P|317:282|332:223,1,82.649997793007,2|0,1:2|0:0,0:0:0:0:
126,328,13876,2,0,P|183:345|240:362,1,82.649997793007,10|2,0:0|0:0,0:0:0:0:
81,150,14184,1,2,1:2:0:0:
16,291,14338,1,0,1:2:0:0:
192,238,14491,2,0,P|211:188|195:140,1,82.649997793007,8|0,0:0|0:0,0:0:0:0:
4,92,14799,6,0,P|71:107|144:24,2,165.299995586014,2|10|2,1:2|0:0|1:2,0:0:0:0:
53,5,15568,1,0,1:2:0:0:
117,136,15722,2,0,P|134:178|116:237,1,82.649997793007,8|0,0:0|0:0,0:0:0:0:
0,330,16030,6,0,P|27:294|87:280,1,82.649997793007,2|0,1:2|0:0,0:0:0:0:
238,345,16338,2,0,P|195:329|142:311,1,82.649997793007,10|0,0:0|0:0,0:0:0:0:
288,186,16645,1,2,1:2:0:0:
360,332,16799,1,2,1:2:0:0:
208,231,16953,2,0,P|195:186|211:138,1,82.649997793007,8|0,0:0|0:0,0:0:0:0:
461,105,17261,6,0,P|448:162|430:275,2,165.299995586014,6|10|2,1:2|0:0|1:2,0:0:0:0:
354,0,18030,1,0,1:2:0:0:
252,125,18184,2,0,P|290:152|344:148,1,82.649997793007,8|0,0:0|0:0,0:0:0:0:
207,23,18491,6,0,P|164:42|141:91,1,82.649997793007,2|0,1:2|0:0,0:0:0:0:
70,210,18799,2,0,P|56:145|44:98,1,82.649997793007,10|2,0:0|0:0,0:0:0:0:
197,248,19107,1,2,1:2:0:0:
79,328,19261,1,0,1:2:0:0:
186,159,19415,2,0,P|229:165|267:210,1,82.649997793007,8|0,0:0|0:0,0:0:0:0:
388,373,19722,6,0,B|378:333|342:310|342:310|392:196,2,165.299995586014,2|10|2,1:2|0:0|1:2,0:0:0:0:
464,298,20491,1,0,1:2:0:0:
305,182,20645,2,0,P|258:194|232:241,1,82.649997793007,8|0,0:0|0:0,0:0:0:0:
173,384,20953,6,0,P|186:337|158:291,1,82.649997793007,2|0,1:2|0:0,0:0:0:0:
84,202,21261,2,0,P|76:259|70:311,1,82.649997793007,10|0,0:0|0:0,0:0:0:0:
176,77,21568,1,2,1:2:0:0:
0,174,21722,1,10,0:0:0:0:
186,235,21876,1,10,0:0:0:0:
68,59,22030,1,10,0:0:0:0:
55,310,22184,6,0,P|90:279|66:185,1,130.50000497818,6|10,1:2|0:0,0:0:0:0:
128,112,22645,2,0,P|172:120|214:128,1,65.2500024890901,2|0,1:2|1:2,0:0:0:0:
269,186,22953,2,0,P|301:180|333:174,1,65.2500024890901,2|8,0:0|0:0,0:0:0:0:
412,114,23261,6,0,L|426:40,1,65.2500024890901,2|0,0:0|1:2,0:0:0:0:
417,204,23568,2,0,L|451:357,1,130.50000497818,2|0,1:2|1:2,0:0:0:0:
445,331,24030,1,0,1:2:0:0:
350,373,24184,2,0,P|311:368|282:335,2,65.2500024890901,2|10|2,0:0|0:0|0:0,0:0:0:0:
313,265,24645,6,0,P|260:268|214:351,1,130.50000497818,2|10,1:2|0:0,0:0:0:0:
119,359,25107,2,0,P|112:310|106:264,1,65.2500024890901,2|0,1:2|1:2,0:0:0:0:
161,215,25415,2,0,P|168:166|174:120,1,65.2500024890901,2|8,0:0|0:0,0:0:0:0:
141,56,25722,6,0,L|70:37,1,65.2500024890901,2|0,0:0|1:2,0:0:0:0:
245,115,26030,2,0,P|292:129|353:58,1,130.50000497818,2|0,1:2|1:2,0:0:0:0:
350,81,26491,1,0,1:2:0:0:
457,153,26645,2,0,P|463:185|469:216,2,65.2500024890901,2|10|2,0:0|0:0|0:0,0:0:0:0:
500,51,27107,6,0,P|444:35|364:8,1,130.50000497818,2|10,1:2|0:0,0:0:0:0:
288,27,27568,2,0,P|272:60|286:104,1,65.2500024890901,2|0,1:2|1:2,0:0:0:0:
393,188,27876,2,0,P|372:157|327:147,1,65.2500024890901,2|8,0:0|0:0,0:0:0:0:
203,202,28184,6,0,P|239:199|270:165,1,65.2500024890901,2|0,0:0|1:2,0:0:0:0:
132,152,28491,2,0,P|116:184|130:228,1,65.2500024890901,2|8,1:2|0:0,0:0:0:0:
189,344,28799,2,0,P|204:311|190:267,1,65.2500024890901,2|0,1:2|1:2,0:0:0:0:
59,283,29107,1,2,0:0:0:0:
59,283,29261,2,0,P|102:294|135:303,1,65.2500024890901,10|0,0:0|0:0,0:0:0:0:
231,132,29568,5,2,1:2:0:0:
231,132,29722,2,0,P|188:143|155:152,1,65.2500024890901,2|8,1:2|0:0,0:0:0:0:
306,242,30030,2,0,P|349:253|382:262,1,65.2500024890901,2|0,1:2|1:2,0:0:0:0:
430,109,30338,1,2,0:0:0:0:
430,109,30491,2,0,P|400:130|388:179,1,65.2500024890901,8|0,0:0|0:0,0:0:0:0:
459,246,30799,6,0,L|472:154,1,65.2500024890901,2|0,1:2|1:2,0:0:0:0:
342,360,31107,1,8,0:0:0:0:
309,231,31261,1,8,0:0:0:0:
411,310,31415,2,0,P|444:327|491:322,1,65.2500024890901,4|10,1:2|0:0,0:0:0:0:
360,153,31722,1,10,0:0:0:0:
360,153,31876,1,10,0:0:0:0:
262,291,32030,6,0,P|207:309|139:244,1,130.50000497818,6|10,1:2|0:0,0:0:0:0:
49,176,32491,2,0,P|85:183|127:191,1,65.2500024890901,2|0,1:2|1:2,0:0:0:0:
158,47,32799,2,0,P|138:78|138:118,1,65.2500024890901,2|8,0:0|0:0,0:0:0:0:
216,221,33107,6,0,P|236:190|236:150,1,65.2500024890901,2|0,0:0|1:2,0:0:0:0:
113,188,33415,2,0,L|139:327,1,130.50000497818,2|0,0:0|1:2,0:0:0:0:
136,316,33876,1,0,1:2:0:0:
234,366,34030,2,0,P|275:357|324:348,2,65.2500024890901,2|10|2,0:0|0:0|0:0,0:0:0:0:
284,272,34491,6,0,P|339:279|384:350,1,130.50000497818,2|10,1:2|0:0,0:0:0:0:
471,374,34953,2,0,P|476:334|481:290,1,65.2500024890901,2|0,1:2|1:2,0:0:0:0:
417,229,35261,2,0,P|412:189|407:145,1,65.2500024890901,2|8,0:0|0:0,0:0:0:0:
448,55,35568,6,0,P|486:62|528:68,1,65.2500024890901,2|0,0:0|1:2,0:0:0:0:
347,109,35876,2,0,P|312:134|212:95,1,130.50000497818,2|0,1:2|1:2,0:0:0:0:
230,118,36338,1,0,1:2:0:0:
120,81,36491,2,0,P|113:40|107:4,2,65.2500024890901,2|10|2,0:0|0:0|0:0,0:0:0:0:
139,194,36953,6,0,P|132:248|119:351,1,130.50000497818,2|10,1:2|0:0,0:0:0:0:
202,376,37415,2,0,P|243:376|272:354,1,65.2500024890901,2|0,1:2|1:2,0:0:0:0:
319,287,37722,2,0,P|360:287|389:309,1,65.2500024890901,2|8,0:0|0:0,0:0:0:0:
473,384,38030,6,0,L|462:307,1,65.2500024890901,2|0,0:0|1:2,0:0:0:0:
472,169,38338,2,0,L|462:233,1,65.2500024890901,2|8,1:2|0:0,0:0:0:0:
418,90,38645,2,0,P|448:72|500:77,1,65.2500024890901,2|0,1:2|1:2,0:0:0:0:
370,184,38953,1,2,0:0:0:0:
314,99,39107,2,0,L|330:8,1,65.2500024890901,8|0,0:0|0:0,0:0:0:0:
263,251,39415,5,14,0:0:0:0:
189,33,39568,1,2,1:2:0:0:
153,287,39722,5,8,0:0:0:0:
243,94,39876,1,2,1:2:0:0:
234,358,40030,5,12,0:0:0:0:
155,128,40184,1,2,1:2:0:0:
129,384,40338,5,8,0:0:0:0:
221,180,40491,1,0,1:2:0:0:
255,379,40645,6,0,P|307:366|355:359,1,91.3499972122193,14|0,0:0|1:2,0:0:0:0:
114,210,40953,2,0,P|91:258|116:319,1,91.3499972122193,12|0,0:0|1:2,0:0:0:0:
89,90,41261,5,12,0:0:0:0:
201,325,41415,1,8,0:0:0:0:
204,73,41568,1,10,0:0:0:0:
110,285,41722,1,10,0:0:0:0:
290,165,41876,6,0,P|354:152|417:265,1,182.699994424439,6|10,1:2|0:0,0:0:0:0:
306,352,42338,1,2,0:0:0:0:
191,208,42491,2,0,P|172:160|194:107,1,91.3499972122193,2|0,1:2|0:0,0:0:0:0:
332,247,42799,2,0,P|276:264|229:280,1,91.3499972122193,10|2,0:0|0:0,0:0:0:0:
372,65,43107,5,2,1:2:0:0:
467,205,43261,1,2,0:0:0:0:
264,111,43415,2,0,P|277:49|287:3,1,91.3499972122193,10|0,0:0|0:0,0:0:0:0:
349,269,43722,1,0,1:2:0:0:
197,172,43876,1,0,1:2:0:0:
372,65,44030,2,0,P|381:109|390:154,1,91.3499972122193,10|2,0:0|0:0,0:0:0:0:
237,271,44338,6,0,B|188:250|140:286|174:314|109:351|52:304,1,182.699994424439,2|10,1:2|0:0,0:0:0:0:
0,226,44799,1,2,0:0:0:0:
140,134,44953,2,0,P|127:187|112:244,1,91.3499972122193,2|0,1:2|1:2,0:0:0:0:
80,58,45261,2,0,P|123:34|184:50,1,91.3499972122193,10|2,0:0|0:0,0:0:0:0:
364,223,45568,5,2,1:2:0:0:
223,138,45722,1,2,0:0:0:0:
395,30,45876,2,0,P|410:93|425:152,1,91.3499972122193,10|0,0:0|0:0,0:0:0:0:
310,320,46184,1,0,1:2:0:0:
456,235,46338,1,0,1:2:0:0:
308,119,46492,2,0,P|293:182|278:241,1,91.3499972122193,10|2,0:0|0:0,0:0:0:0:
380,348,46799,6,0,P|452:364|506:253,1,182.699994424439,6|10,1:2|0:0,0:0:0:0:
409,154,47261,1,2,0:0:0:0:
283,296,47415,2,0,P|234:280|188:266,1,91.3499972122193,2|0,1:2|1:2,0:0:0:0:
76,128,47722,2,0,P|92:177|106:223,1,91.3499972122193,10|0,0:0|0:0,0:0:0:0:
224,126,48030,1,2,1:2:0:0:
128,24,48184,6,0,P|83:14|38:5,1,91.3499972122193,2|10,0:0|0:0,0:0:0:0:
224,126,48491,2,0,P|268:116|313:107,1,91.3499972122193,0|0,0:0|1:2,0:0:0:0:
148,299,48799,1,0,1:2:0:0:
70,133,48953,1,10,0:0:0:0:
243,216,49107,1,2,0:0:0:0:
66,351,49261,6,0,P|49:296|63:247,1,91.3499972122193,10|0,0:0|1:2,0:0:0:0:
148,104,49568,1,10,0:0:0:0:
325,293,49722,2,0,P|342:238|328:189,1,91.3499972122193,2|8,1:2|0:0,0:0:0:0:
243,46,50029,1,2,1:2:0:0:
78,266,50184,2,0,P|61:211|75:162,1,91.3499972122193,10|0,0:0|1:2,0:0:0:0:
159,19,50491,5,10,0:0:0:0:
228,238,50645,1,2,1:2:0:0:
385,72,50799,1,8,0:0:0:0:
151,147,50953,1,0,1:2:0:0:
326,291,51107,1,8,0:0:0:0:
276,66,51261,1,0,1:0:0:0:
276,66,51338,1,0,1:2:0:0:
276,66,51415,2,0,L|266:4,3,45.6749986061097,10|8|8|8,0:0|0:0|0:0|0:0,0:0:0:0:
166,129,51722,6,0,B|216:112|265:150|233:161|284:200|335:175,1,182.699994424439,6|10,1:2|0:0,0:0:0:0:
506,225,52184,1,2,0:0:0:0:
413,42,52338,2,0,P|368:54|341:96,1,91.3499972122193,2|0,1:2|1:2,0:0:0:0:
410,224,52645,2,0,L|425:112,1,91.3499972122193,10|2,0:0|0:0,0:0:0:0:
324,357,52953,5,2,1:2:0:0:
487,286,53107,1,2,0:0:0:0:
308,167,53261,2,0,P|288:208|306:263,1,91.3499972122193,10|0,0:0|0:0,0:0:0:0:
462,369,53568,1,0,1:2:0:0:
393,184,53722,1,0,1:2:0:0:
262,328,53876,2,0,P|315:339|376:354,1,91.3499972122193,10|2,0:0|0:0,0:0:0:0:
245,175,54184,6,0,B|190:163|154:206|185:225|144:270|81:247,1,182.699994424439,2|10,1:2|0:0,0:0:0:0:
5,156,54645,1,2,0:0:0:0:
97,47,54799,2,0,L|120:163,1,91.3499972122193,2|0,1:2|1:2,0:0:0:0:
227,264,55107,2,0,L|244:174,1,91.3499972122193,10|2,0:0|0:0,0:0:0:0:
439,12,55415,5,2,1:2:0:0:
284,90,55568,1,2,0:0:0:0:
449,206,55722,2,0,P|475:158|448:102,1,91.3499972122193,10|0,0:0|0:0,0:0:0:0:
277,5,56030,1,0,1:2:0:0:
354,202,56184,1,0,1:2:0:0:
490,38,56338,2,0,P|444:28|391:16,1,91.3499972122193,10|2,0:0|0:0,0:0:0:0:
206,111,56645,6,0,B|221:156|264:168|264:168|209:277,1,182.699994424439,6|10,1:2|0:0,0:0:0:0:
105,177,57107,1,2,0:0:0:0:
210,344,57261,2,0,P|264:338|302:290,1,91.3499972122193,2|0,1:2|1:2,0:0:0:0:
99,291,57568,2,0,P|83:346|113:396,1,91.3499972122193,10|0,0:0|0:0,0:0:0:0:
219,255,57876,5,2,1:2:0:0:
120,86,58030,2,0,L|104:181,1,91.3499972122193,2|10,0:0|0:0,0:0:0:0:
289,17,58338,2,0,L|305:112,1,91.3499972122193,0|0,0:0|1:2,0:0:0:0:
409,251,58645,1,0,1:2:0:0:
238,163,58799,1,10,0:0:0:0:
401,71,58953,1,2,0:0:0:0:
289,269,59107,6,0,P|221:266|183:380,1,182.699994424439,2|10,1:2|0:0,0:0:0:0:
36,223,59568,2,0,P|53:287|68:345,1,91.3499972122193,2|0,0:0|1:2,0:0:0:0:
189,169,59876,1,2,1:2:0:0:
96,39,60030,2,0,P|79:103|64:161,1,91.3499972122193,10|0,0:0|0:0,0:0:0:0:
250,336,60338,6,0,P|242:274|225:150,1,182.699994424439,2|8,1:2|0:0,0:0:0:0:
392,236,60953,5,0,1:2:0:0:
392,236,61030,1,8,0:0:0:0:
392,236,61107,2,0,L|403:292,1,45.6749986061097,8|8,0:0|0:0,0:0:0:0:
464,146,61261,1,8,0:0:0:0:
464,146,61338,1,8,0:0:0:0:
464,146,61415,2,0,L|475:90,1,45.6749986061097,8|8,0:0|0:0,0:0:0:0:
356,24,61568,5,6,1:2:0:0:
283,112,61722,2,0,P|235:127|186:98,1,91.3499972122193,2|8,1:2|0:0,0:0:0:0:
52,27,62030,5,2,0:0:0:0:
97,130,62184,2,0,L|76:225,1,91.3499972122193,2|0,1:2|1:2,0:0:0:0:
176,275,62491,5,10,0:0:0:0:
52,342,62645,2,0,P|104:357|165:381,1,91.3499972122193,2|0,0:0|1:2,0:0:0:0:
292,328,62953,5,2,1:2:0:0:
194,191,63107,2,0,P|170:236|185:291,1,91.3499972122193,10|0,0:0|0:0,0:0:0:0:
319,197,63415,5,2,1:2:0:0:
247,114,63568,2,0,L|232:0,1,91.3499972122193,2|8,1:2|0:0,0:0:0:0:
52,233,63876,5,2,0:0:0:0:
124,150,64030,2,0,L|139:36,1,91.3499972122193,2|0,1:2|1:2,0:0:0:0:
243,270,64338,5,10,0:0:0:0:
129,292,64491,2,0,P|114:339|149:389,1,91.3499972122193,2|0,0:0|1:2,0:0:0:0:
204,160,64799,5,2,1:2:0:0:
92,215,64953,2,0,P|37:203|-17:197,1,91.3499972122193,10|2,0:0|0:0,0:0:0:0:
185,76,65261,6,0,B|233:54|285:90|258:106|307:146|361:120,1,182.699994424439,2|10,1:2|0:0,0:0:0:0:
465,0,65722,1,2,0:0:0:0:
335,41,65876,1,2,1:2:0:0:
470,135,66030,1,2,1:2:0:0:
346,221,66184,2,0,P|293:207|230:197,1,91.3499972122193,10|0,0:0|0:0,0:0:0:0:
130,103,66491,5,6,1:2:0:0:
54,175,66645,2,0,P|41:222|70:267,1,91.3499972122193,2|8,1:2|0:0,0:0:0:0:
177,246,66953,5,2,0:0:0:0:
119,341,67107,2,0,P|69:354|18:370,1,91.3499972122193,2|0,1:2|1:2,0:0:0:0:
228,370,67415,5,10,0:0:0:0:
318,272,67568,2,0,P|344:321|319:371,1,91.3499972122193,2|0,0:0|1:2,0:0:0:0:
229,248,67876,5,2,1:2:0:0:
307,149,68030,2,0,P|366:135|424:124,1,91.3499972122193,10|0,0:0|0:0,0:0:0:0:
152,153,68338,5,2,1:2:0:0:
215,20,68491,2,0,P|225:83|235:132,1,91.3499972122193,2|8,1:2|0:0,0:0:0:0:
346,216,68799,5,2,0:0:0:0:
278,295,68953,2,0,P|222:280|170:272,1,91.3499972122193,2|0,1:2|1:2,0:0:0:0:
100,359,69261,5,10,0:0:0:0:
34,202,69415,2,0,P|12:249|35:301,1,91.3499972122193,2|0,0:0|1:2,0:0:0:0:
177,181,69722,5,2,1:2:0:0:
85,111,69876,2,0,P|78:57|73:7,1,91.3499972122193,10|2,0:0|0:0,0:0:0:0:
278,159,70184,6,0,P|266:230|246:378,1,182.699994424439,2|10,1:2|0:0,0:0:0:0:
359,229,70645,1,2,0:0:0:0:
204,132,70799,1,2,1:2:0:0:
335,65,70953,1,2,1:2:0:0:
231,226,71107,2,0,P|180:226|132:178,1,91.3499972122193,10|0,0:0|0:0,0:0:0:0:
189,41,71415,6,0,P|196:86|203:131,1,91.3499972122193,14|2,0:0|1:2,0:0:0:0:
30,253,71722,2,0,P|37:207|44:162,1,91.3499972122193,10|2,0:0|1:2,0:0:0:0:
206,315,72030,5,10,0:0:0:0:
122,106,72184,1,0,1:2:0:0:
88,324,72338,5,10,0:0:0:0:
203,131,72491,1,2,1:2:0:0:
307,308,72645,6,0,P|353:335|405:325,1,91.3499972122193,12|2,0:0|1:2,0:0:0:0:
419,159,72953,2,0,P|372:185|355:235,1,91.3499972122193,10|0,0:0|1:2,0:0:0:0:
472,276,73261,5,10,0:0:0:0:
398,59,73415,1,2,1:2:0:0:
389,332,73568,5,8,0:0:0:0:
471,103,73722,1,2,1:2:0:0:
294,248,73876,6,0,P|240:233|182:217,1,91.3499972122193,14|0,0:0|1:2,0:0:0:0:
99,104,74184,2,0,P|153:89|211:73,1,91.3499972122193,10|2,0:0|1:2,0:0:0:0:
367,141,74491,5,8,0:0:0:0:
163,8,74645,1,2,1:2:0:0:
397,46,74799,5,10,0:0:0:0:
160,175,74953,1,2,1:2:0:0:
305,335,75107,6,0,P|316:275|331:223,1,91.3499972122193,14|0,0:0|0:0,0:0:0:0:
187,79,75415,2,0,P|198:123|205:168,1,91.3499972122193,10|0,0:0|1:2,0:0:0:0:
39,303,75722,1,14,0:0:0:0:
103,140,75876,1,2,1:2:0:0:
244,292,76030,2,0,P|184:305|137:320,1,91.3499972122193,10|0,0:0|1:2,0:0:0:0:
223,143,76338,5,12,0:0:0:0:
324,349,76491,1,0,1:2:0:0:
345,101,76645,1,10,0:0:0:0:
244,292,76799,1,2,1:2:0:0:
146,95,76953,2,0,P|185:60|246:64,1,91.3499972122193,10|0,0:0|1:2,0:0:0:0:
392,252,77261,5,10,0:0:0:0:
223,143,77415,1,2,1:2:0:0:
380,19,77568,2,0,P|366:80|358:132,1,91.3499972122193,14|0,0:0|1:2,0:0:0:0:
107,222,77876,5,10,0:0:0:0:
203,40,78030,1,2,1:2:0:0:
316,265,78184,2,0,P|268:288|221:279,1,91.3499972122193,10|0,0:0|1:2,0:0:0:0:
83,74,78491,5,10,0:0:0:0:
263,162,78645,1,2,1:2:0:0:
98,307,78799,2,0,P|89:262|79:217,1,91.3499972122193,14|0,0:0|1:2,0:0:0:0:
195,52,79107,5,10,0:0:0:0:
264,267,79261,1,2,1:2:0:0:
18,151,79415,2,0,P|61:123|122:139,1,91.3499972122193,10|0,0:0|1:2,0:0:0:0:
199,324,79722,1,10,0:0:0:0:
295,136,79876,1,2,1:2:0:0:
348,336,80030,5,10,0:0:0:0:
169,68,80184,1,8,0:0:0:0:
425,198,80338,1,10,0:0:0:0:
170,310,80491,1,8,0:0:0:0:
286,28,80645,5,10,0:0:0:0:
379,338,80799,1,10,0:0:0:0:
109,195,80953,1,10,0:0:0:0:
373,93,81107,1,0,1:2:0:0:
239,349,81261,6,0,B|200:256|200:256|220:205|274:209,1,195.75000746727,4|0,1:2|0:0,0:0:0:0:
