osu file format v14

[General]
AudioFilename: audio.mp3
AudioLeadIn: 0
PreviewTime: 41504
Countdown: 0
SampleSet: Soft
StackLeniency: 0.7
Mode: 0
LetterboxInBreaks: 0
WidescreenStoryboard: 1

[Editor]
Bookmarks: 80043
DistanceSpacing: 1.5
BeatDivisor: 4
GridSize: 4
TimelineZoom: 1

[Metadata]
Title:ne uchi (Cut Ver.)
TitleUnicode:не учи (Cut Ver.)
Artist:kis-kis
ArtistUnicode:кис-кис
Creator:A r M i N
Version:Insane
Source:
Tags:russian female vocal punk punk-rock rock Armin A_r_M_i_N Kujinn Reform schoolboy Komore SpokenAway Xenon- Xen Xehn русский панк рок пир во время чумы
BeatmapID:2768998
BeatmapSetID:1331950

[Difficulty]
HPDrainRate:5
CircleSize:3.6
OverallDifficulty:8
ApproachRate:9
SliderMultiplier:1.7
SliderTickRate:1

[Events]
//Background and Video events
0,0,"63890894_p0.jpg",0,0
//Break Periods
//Storyboard Layer 0 (Background)
//Storyboard Layer 1 (Fail)
//Storyboard Layer 2 (Pass)
//Storyboard Layer 3 (Foreground)
//Storyboard Layer 4 (Overlay)
//Storyboard Sound Samples

[TimingPoints]
38,307.692307692308,4,2,1,60,1,0
6191,-166.666666666667,4,2,1,60,0,0
6653,-133.333333333333,4,2,1,60,0,0
7415,307.692307692308,4,2,1,65,1,0
7415,-125,4,2,1,65,0,0
7799,-125,4,2,1,65,0,0
7876,-125,4,2,1,65,0,0
8030,-250,4,2,1,65,0,0
8645,-125,4,2,1,65,0,0
9030,-125,4,2,1,65,0,0
9107,-125,4,2,1,65,0,0
9261,-250,4,2,1,65,0,0
9876,-125,4,2,1,65,0,0
10491,-250,4,2,1,65,0,0
11107,-125,4,2,1,65,0,0
12338,-100,4,2,1,70,0,0
22184,-125,4,2,1,70,0,0
29568,-111.111111111111,4,2,1,70,0,0
32030,-125,4,2,1,70,0,0
39415,-100,4,2,1,70,0,0
40645,-100,4,2,1,70,0,0
41876,-90.9090909090909,4,2,1,80,0,1
49261,-90.9090909090909,4,2,1,80,0,0
51722,-90.9090909090909,4,2,1,80,0,1
53491,-90.9090909090909,4,2,1,80,0,1
53568,-90.9090909090909,4,2,1,80,0,1
61568,-100,4,2,1,70,0,0
71415,-90.9090909090909,4,2,1,85,0,1
76338,-90.9090909090909,4,2,1,85,0,1
81261,-166.666666666667,4,2,1,85,0,0
81722,-166.666666666667,4,2,1,50,0,0

[Colours]
Combo1 : 184,118,20
Combo2 : 188,24,24
Combo3 : 184,130,97
Combo4 : 78,23,22

[HitObjects]
131,154,6653,6,0,L|125:185,2,31.8750012159348,0|0|8,1:2|1:2|0:0,0:0:0:0:
94,75,6961,2,0,P|139:115|196:96,1,127.500004863739,8|0,3:0|0:0,0:0:0:0:
282,11,7415,6,0,L|305:144,1,136,2|2,1:2|0:0,0:0:0:0:
383,196,7876,1,2,1:2:0:0:
383,196,8030,2,0,L|365:296,1,102,10|0,0:0|0:0,0:0:0:0:
255,363,8645,6,0,B|186:374|194:327|124:339,1,136,2|2,1:2|0:0,0:0:0:0:
47,372,9107,1,2,1:2:0:0:
47,372,9261,2,0,L|29:271,1,102,10|0,0:0|0:0,0:0:0:0:
69,107,9876,6,0,B|129:74|129:74|168:128,1,136,2|2,1:2|1:2,0:0:0:0:
290,26,10491,2,0,B|245:2|245:2|216:43,1,102,10|0,0:0|0:0,0:0:0:0:
271,113,11107,6,0,P|337:124|403:141,1,136,2|2,1:2|1:2,0:0:0:0:
262,328,11722,5,10,0:0:0:0:
318,214,11876,1,10,0:0:0:0:
376,384,12030,1,8,0:0:0:0:
432,270,12184,1,8,0:0:0:0:
262,328,12338,6,0,B|174:307|186:377|99:356,2,170,6|10|2,1:2|0:0|1:2,0:0:0:0:
155,241,13107,1,0,1:2:0:0:
264,143,13261,2,0,P|253:183|247:226,1,85,8|0,0:0|0:0,0:0:0:0:
198,78,13568,6,0,P|230:52|272:51,1,85,2|0,1:2|0:0,0:0:0:0:
337,196,13876,1,10,0:0:0:0:
264,143,14030,1,2,0:0:0:0:
367,21,14184,2,0,P|356:62|348:104,1,85,2|0,1:2|1:2,0:0:0:0:
509,152,14491,2,0,P|499:110|488:69,1,85,8|0,0:0|0:0,0:0:0:0:
337,196,14799,6,0,P|417:193|471:258,2,170,2|10|2,1:2|0:0|1:2,0:0:0:0:
231,280,15568,1,0,1:2:0:0:
182,120,15722,2,0,P|224:129|266:137,1,85,8|0,0:0|0:0,0:0:0:0:
123,197,16030,6,0,B|102:167|79:148|79:148|111:47,2,170,2|10|2,1:2|0:0|1:2,0:0:0:0:
151,325,16799,2,0,P|109:315|68:304,1,85,2|8,1:2|0:0,0:0:0:0:
202,247,17107,1,0,0:0:0:0:
329,370,17261,6,0,P|313:286|301:202,2,170,6|10|2,1:2|0:0|1:2,0:0:0:0:
408,246,18030,1,0,1:2:0:0:
491,354,18184,2,0,P|449:342|408:333,1,85,8|0,0:0|0:0,0:0:0:0:
466,170,18491,6,0,P|495:199|500:240,1,85,2|0,1:2|0:0,0:0:0:0:
369,160,18799,1,10,0:0:0:0:
426,86,18953,1,2,0:0:0:0:
408,246,19107,2,0,P|377:252|325:262,1,85,2|0,1:2|1:2,0:0:0:0:
215,118,19415,2,0,P|256:109|297:98,1,85,8|0,0:0|0:0,0:0:0:0:
151,243,19722,6,0,P|134:163|116:75,2,170,2|10|2,1:2|0:0|1:2,0:0:0:0:
271,351,20491,1,0,1:2:0:0:
343,208,20645,2,0,P|384:202|419:225,1,85,8|0,0:0|0:0,0:0:0:0:
249,260,20953,6,0,P|256:198|270:92,2,170,2|10|2,1:2|0:0|1:2,0:0:0:0:
54,312,21722,1,10,0:0:0:0:
143,153,21876,1,10,0:0:0:0:
191,333,22030,1,10,0:0:0:0:
30,222,22184,6,0,B|100:206|90:260|159:245,1,136,6|10,1:2|0:0,0:0:0:0:
210,117,22645,2,0,P|179:132|158:158,1,68,2|0,1:2|1:2,0:0:0:0:
244,266,22953,2,0,P|245:232|234:200,1,68,2|8,0:0|0:0,0:0:0:0:
185,330,23261,6,0,P|213:348|246:354,1,68,2|0,0:0|1:2,0:0:0:0:
159,246,23568,2,0,P|129:262|107:288,1,68,2|8,1:2|0:0,0:0:0:0:
244,266,23876,2,0,L|267:132,1,136,0|2,1:2|0:0,0:0:0:0:
335,76,24338,1,10,0:0:0:0:
335,76,24491,1,2,0:0:0:0:
463,192,24645,6,0,P|413:149|349:164,1,136,2|10,1:2|0:0,0:0:0:0:
308,297,25107,2,0,P|336:279|356:252,1,68,2|0,1:2|1:2,0:0:0:0:
263,150,25415,2,0,P|263:183|277:214,1,68,2|8,0:0|0:0,0:0:0:0:
319,82,25722,6,0,P|273:62|230:68,1,68,2|0,0:0|1:2,0:0:0:0:
117,123,26030,2,0,L|183:111,1,68,2|8,1:2|0:0,0:0:0:0:
48,70,26338,2,0,B|83:105|83:105|57:188,1,136,0|2,1:2|0:0,0:0:0:0:
39,277,26799,1,10,0:0:0:0:
39,277,26953,1,2,0:0:0:0:
157,210,27107,6,0,B|228:194|219:249|290:233,1,136,2|10,1:2|0:0,0:0:0:0:
385,138,27568,2,0,P|351:139|321:154,1,68,2|0,1:2|1:2,0:0:0:0:
361,291,27876,2,0,L|373:225,1,68,2|8,0:0|0:0,0:0:0:0:
470,127,28184,6,0,P|469:160|454:191,1,68,2|0,0:0|1:2,0:0:0:0:
417,57,28491,2,0,P|448:42|482:40,1,68,2|8,1:2|0:0,0:0:0:0:
385,138,28799,2,0,L|319:126,1,68,2|0,1:2|1:2,0:0:0:0:
258,62,29107,1,2,0:0:0:0:
191,196,29261,2,0,P|217:175|233:145,1,68,10|0,0:0|0:0,0:0:0:0:
135,44,29568,5,2,1:2:0:0:
135,44,29722,2,0,L|149:120,1,76.4999976654053,2|8,1:2|0:0,0:0:0:0:
89,270,30030,2,0,L|103:195,1,76.4999976654053,2|0,1:2|1:2,0:0:0:0:
182,248,30338,1,2,0:0:0:0:
26,330,30491,2,0,P|5:295|5:253,1,76.4999976654053,8|0,0:0|0:0,0:0:0:0:
160,341,30799,6,0,L|235:327,1,76.4999976654053,2|0,1:2|1:2,0:0:0:0:
355,206,31107,1,8,0:0:0:0:
182,248,31261,1,8,0:0:0:0:
316,380,31415,2,0,L|330:305,1,76.4999976654053,4|10,1:2|0:0,0:0:0:0:
296,123,31722,1,10,0:0:0:0:
429,277,31876,1,10,0:0:0:0:
377,62,32030,6,0,P|329:26|251:31,1,136,6|10,1:2|0:0,0:0:0:0:
144,115,32491,2,0,L|211:104,1,68,2|0,1:2|1:2,0:0:0:0:
83,53,32799,2,0,P|63:81|57:114,1,68,2|8,0:0|0:0,0:0:0:0:
88,258,33107,6,0,L|100:192,1,68,2|0,0:0|1:2,0:0:0:0:
4,281,33415,2,0,P|18:311|43:333,1,68,2|8,0:0|0:0,0:0:0:0:
205,374,33722,2,0,L|181:241,1,136,0|2,1:2|0:0,0:0:0:0:
232,170,34184,1,10,0:0:0:0:
232,170,34338,1,2,0:0:0:0:
335,279,34491,6,0,P|390:291|456:246,1,136,2|10,1:2|0:0,0:0:0:0:
390,137,34953,2,0,L|379:204,1,68,2|0,1:2|1:2,0:0:0:0:
460,84,35261,2,0,P|436:61|404:50,1,68,2|8,0:0|0:0,0:0:0:0:
265,113,35568,6,0,P|297:103|323:82,1,68,2|0,0:0|1:2,0:0:0:0:
185,78,35876,2,0,P|177:110|183:144,1,68,2|8,1:2|0:0,0:0:0:0:
255,27,36184,2,0,P|221:-1|129:11,1,136,0|2,1:2|0:0,0:0:0:0:
83,79,36645,1,10,0:0:0:0:
83,79,36799,1,2,0:0:0:0:
219,133,36953,6,0,B|205:197|205:197|207:204|207:204|195:266,1,136,2|10,1:2|0:0,0:0:0:0:
331,287,37415,2,0,P|309:260|279:245,1,68,2|0,1:2|1:2,0:0:0:0:
195,353,37722,2,0,P|228:348|255:329,1,68,2|8,0:0|0:0,0:0:0:0:
119,309,38030,6,0,L|108:376,1,68,2|0,0:0|1:2,0:0:0:0:
16,261,38338,2,0,L|27:328,1,68,2|8,1:2|0:0,0:0:0:0:
61,186,38645,2,0,P|32:167|0:167,1,68,2|0,1:2|1:2,0:0:0:0:
103,263,38953,1,2,0:0:0:0:
149,188,39107,2,0,P|142:151|137:116,1,68,8|0,0:0|0:0,0:0:0:0:
272,79,39415,5,14,0:0:0:0:
215,246,39568,1,2,1:2:0:0:
345,127,39722,1,8,0:0:0:0:
288,294,39876,2,0,L|303:380,1,85,2|12,1:2|0:0,0:0:0:0:
401,195,40184,1,2,1:2:0:0:
215,246,40338,2,0,P|201:289|208:329,1,85,8|0,0:0|1:2,0:0:0:0:
388,362,40645,6,0,L|374:279,1,85,14|0,0:0|1:2,0:0:0:0:
512,104,40953,2,0,L|497:187,1,85,12|0,0:0|1:2,0:0:0:0:
308,221,41261,5,12,0:0:0:0:
425,115,41415,1,8,0:0:0:0:
462,273,41568,1,10,0:0:0:0:
341,139,41722,1,10,0:0:0:0:
263,297,41876,6,0,B|174:284|174:284|170:280|170:280|79:265,1,187.000005706787,6|10,1:2|0:0,0:0:0:0:
198,110,42338,1,2,0:0:0:0:
73,45,42491,2,0,P|85:90|95:135,1,93.5000028533936,2|0,1:2|0:0,0:0:0:0:
264,44,42799,2,0,P|224:16|178:19,1,93.5000028533936,10|2,0:0|0:0,0:0:0:0:
288,135,43107,5,2,1:2:0:0:
346,0,43261,1,2,0:0:0:0:
198,110,43415,2,0,B|154:215|154:215|180:238|199:272,1,187.000005706787,10|0,0:0|1:2,0:0:0:0:
270,377,43876,1,0,1:2:0:0:
340,227,44030,2,0,P|303:199|257:199,1,93.5000028533936,10|2,0:0|0:0,0:0:0:0:
412,308,44338,6,0,P|424:215|436:122,1,187.000005706787,2|10,1:2|0:0,0:0:0:0:
316,16,44799,1,2,0:0:0:0:
241,142,44953,2,0,P|287:145|325:119,1,93.5000028533936,2|0,1:2|1:2,0:0:0:0:
159,78,45261,2,0,P|149:123|140:169,1,93.5000028533936,10|2,0:0|0:0,0:0:0:0:
210,287,45568,5,2,1:2:0:0:
59,216,45722,1,2,0:0:0:0:
148,356,45876,2,0,P|228:378|299:312,1,187.000005706787,10|0,0:0|1:2,0:0:0:0:
368,187,46338,1,0,1:2:0:0:
483,308,46491,2,0,P|438:295|393:286,1,93.5000028533936,10|2,0:0|0:0,0:0:0:0:
305,117,46799,6,0,P|391:96|455:158,1,187.000005706787,6|10,1:2|0:0,0:0:0:0:
306,256,47261,1,2,0:0:0:0:
204,148,47415,2,0,P|213:102|220:56,1,93.5000028533936,2|0,1:2|1:2,0:0:0:0:
71,138,47722,2,0,P|83:184|92:232,1,93.5000028533936,10|0,0:0|0:0,0:0:0:0:
106,384,48030,5,2,1:2:0:0:
184,240,48184,1,2,0:0:0:0:
281,363,48338,2,0,B|375:389|361:305|456:332,1,187.000005706787,10|0,0:0|1:2,0:0:0:0:
387,153,48799,1,0,1:2:0:0:
293,263,48953,2,0,P|343:253|385:243,1,93.5000028533936,10|2,0:0|0:0,0:0:0:0:
305,83,49261,6,0,P|297:129|288:175,1,93.5000028533936,10|0,0:0|1:2,0:0:0:0:
179,331,49568,1,10,0:0:0:0:
120,198,49722,2,0,P|165:192|199:222,1,93.5000028533936,2|8,1:2|0:0,0:0:0:0:
65,302,50030,1,2,1:2:0:0:
55,119,50184,2,0,P|100:108|145:97,1,93.5000028533936,10|0,0:0|1:2,0:0:0:0:
297,39,50491,6,0,P|252:28|207:17,1,93.5000028533936,10|2,0:0|1:2,0:0:0:0:
371,109,50799,2,0,P|399:72|398:26,1,93.5000028533936,8|0,0:0|1:2,0:0:0:0:
229,119,51107,2,0,P|240:188|249:257,1,140.25000428009,8|0,0:0|1:2,0:0:0:0:
260,292,51415,2,0,P|281:297|307:306,3,46.7500014266968,10|8|8|8,0:0|0:0|0:0|0:0,0:0:0:0:
329,332,51722,6,0,P|420:312|512:291,1,187.000005706787,6|10,1:2|0:0,0:0:0:0:
373,191,52184,1,2,0:0:0:0:
480,119,52338,2,0,P|472:165|463:210,1,93.5000028533936,2|0,1:2|1:2,0:0:0:0:
306,125,52645,2,0,P|344:98|390:99,1,93.5000028533936,10|2,0:0|0:0,0:0:0:0:
273,213,52953,5,2,1:2:0:0:
238,63,53107,1,2,0:0:0:0:
373,191,53261,2,0,B|357:279|357:279|354:282|354:282|335:376,1,187.000005706787,10|0,0:0|1:2,0:0:0:0:
200,260,53722,1,0,1:2:0:0:
146,376,53876,2,0,P|191:363|236:350,1,93.5000028533936,10|2,0:0|0:0,0:0:0:0:
373,191,54184,6,0,P|288:175|188:155,1,187.000005706787,2|10,1:2|0:0,0:0:0:0:
51,226,54645,1,2,0:0:0:0:
125,75,54799,2,0,P|170:66|216:55,1,93.5000028533936,2|0,1:2|1:2,0:0:0:0:
60,10,55107,2,0,P|32:47|33:93,1,93.5000028533936,10|2,0:0|0:0,0:0:0:0:
177,230,55415,5,2,1:2:0:0:
125,75,55568,1,2,0:0:0:0:
88,257,55722,2,0,P|151:320|238:299,1,187.000005706787,10|0,0:0|1:2,0:0:0:0:
341,174,56184,1,0,1:2:0:0:
404,275,56338,2,0,P|396:321|389:367,1,93.5000028533936,10|2,0:0|0:0,0:0:0:0:
253,206,56645,6,0,B|219:93|219:93|249:76|269:47,1,187.000005706787,6|10,1:2|0:0,0:0:0:0:
381,0,57107,1,2,0:0:0:0:
415,151,57261,2,0,P|370:137|325:126,1,93.5000028533936,2|0,1:2|1:2,0:0:0:0:
477,80,57568,2,0,P|506:115|507:161,1,93.5000028533936,10|0,0:0|0:0,0:0:0:0:
333,283,57876,5,2,1:2:0:0:
415,151,58030,1,2,0:0:0:0:
395,352,58184,2,0,P|308:373|244:310,1,187.000005706787,10|0,0:0|1:2,0:0:0:0:
176,164,58645,1,0,1:2:0:0:
77,281,58799,2,0,P|122:268|168:257,1,93.5000028533936,10|2,0:0|0:0,0:0:0:0:
198,72,59107,6,0,P|111:96|84:181,1,187.000005706787,2|10,1:2|0:0,0:0:0:0:
244,310,59568,2,0,P|260:217|279:126,1,187.000005706787,2|2,0:0|1:2,0:0:0:0:
424,43,60030,2,0,P|435:88|446:133,1,93.5000028533936,10|0,0:0|0:0,0:0:0:0:
311,37,60338,6,0,P|266:27|225:49,1,93.5000028533936,2|2,1:2|0:0,0:0:0:0:
108,170,60645,2,0,P|99:124|89:78,1,93.5000028533936,8|0,0:0|0:0,0:0:0:0:
288,182,60953,5,0,1:2:0:0:
288,182,61030,1,8,0:0:0:0:
288,182,61107,2,0,P|283:205|279:228,1,46.7500014266968,8|8,0:0|0:0,0:0:0:0:
194,278,61261,1,8,0:0:0:0:
194,278,61338,1,8,0:0:0:0:
194,278,61415,2,0,P|190:255|185:233,1,46.7500014266968,8|8,0:0|0:0,0:0:0:0:
329,306,61568,5,6,1:2:0:0:
372,223,61722,2,0,P|412:210|453:198,1,85,2|8,1:2|0:0,0:0:0:0:
493,32,62030,5,2,0:0:0:0:
509,125,62184,2,0,P|468:112|427:100,1,85,2|0,1:2|1:2,0:0:0:0:
227,23,62491,5,10,0:0:0:0:
314,52,62645,2,0,P|333:90|330:132,1,85,2|0,0:0|1:2,0:0:0:0:
189,264,62953,5,2,1:2:0:0:
287,288,63107,2,0,P|279:246|270:204,1,85,10|0,0:0|0:0,0:0:0:0:
125,83,63415,5,2,1:2:0:0:
97,173,63568,2,0,P|61:194|19:192,1,85,2|8,1:2|0:0,0:0:0:0:
188,152,63876,5,2,0:0:0:0:
125,83,64030,2,0,P|134:34|144:-12,1,85,2|0,1:2|1:2,0:0:0:0:
330,24,64338,5,10,0:0:0:0:
264,89,64491,2,0,P|274:130|283:171,1,85,2|0,0:0|1:2,0:0:0:0:
361,349,64799,5,2,1:2:0:0:
302,276,64953,2,0,P|265:258|223:259,1,85,10|2,0:0|0:0,0:0:0:0:
82,352,65261,6,0,P|93:311|103:269,1,85,2|0,1:2|1:2,0:0:0:0:
0,141,65568,2,0,P|9:182|21:224,1,85,10|2,0:0|0:0,0:0:0:0:
157,85,65876,1,2,1:2:0:0:
41,42,66030,1,2,1:2:0:0:
136,176,66184,2,0,P|180:183|215:154,1,85,10|0,0:0|0:0,0:0:0:0:
340,19,66491,5,6,1:2:0:0:
290,97,66645,2,0,P|301:137|311:179,1,85,2|8,1:2|0:0,0:0:0:0:
467,279,66953,5,2,0:0:0:0:
387,232,67107,2,0,P|380:273|373:316,1,85,2|0,1:2|1:2,0:0:0:0:
168,341,67415,5,10,0:0:0:0:
214,259,67568,2,0,P|255:254|289:279,1,85,2|0,0:0|1:2,0:0:0:0:
143,200,67876,5,2,1:2:0:0:
214,138,68030,2,0,P|203:96|194:55,1,85,10|0,0:0|0:0,0:0:0:0:
299,178,68338,5,2,1:2:0:0:
363,110,68491,2,0,P|407:102|445:130,1,85,2|8,1:2|0:0,0:0:0:0:
490,281,68799,5,2,0:0:0:0:
511,189,68953,2,0,P|476:199|424:212,1,85,2|0,1:2|1:2,0:0:0:0:
292,333,69261,5,10,0:0:0:0:
369,282,69415,2,0,P|397:312|398:355,1,85,2|0,0:0|1:2,0:0:0:0:
286,241,69722,5,2,1:2:0:0:
345,169,69876,2,0,P|335:122|324:78,1,85,10|2,0:0|0:0,0:0:0:0:
132,176,70184,6,0,P|171:202|210:203,1,85,2|0,1:2|1:2,0:0:0:0:
110,85,70491,2,0,P|74:93|25:103,1,85,10|2,0:0|0:0,0:0:0:0:
199,111,70799,1,2,1:2:0:0:
146,0,70953,1,2,1:2:0:0:
132,176,71107,2,0,P|146:221|154:261,1,85,10|0,0:0|0:0,0:0:0:0:
354,338,71415,5,14,0:0:0:0:
375,187,71568,2,0,P|331:199|276:210,1,93.5000028533936,2|10,1:2|0:0,0:0:0:0:
479,250,71876,5,2,1:2:0:0:
432,104,72030,2,0,P|390:85|345:91,1,93.5000028533936,10|0,0:0|1:2,0:0:0:0:
158,177,72338,5,10,0:0:0:0:
226,24,72491,2,0,P|237:69|248:115,1,93.5000028533936,2|12,1:2|0:0,0:0:0:0:
89,241,72799,5,2,1:2:0:0:
49,74,72953,2,0,P|91:59|132:80,1,93.5000028533936,10|0,0:0|1:2,0:0:0:0:
198,263,73261,5,10,0:0:0:0:
248,115,73415,2,0,P|292:105|349:91,1,93.5000028533936,2|8,1:2|0:0,0:0:0:0:
284,299,73722,5,2,1:2:0:0:
174,172,73876,2,0,P|130:162|73:148,1,93.5000028533936,14|0,0:0|1:2,0:0:0:0:
165,342,74184,5,10,0:0:0:0:
264,200,74338,2,0,P|270:155|248:115,1,93.5000028533936,2|8,1:2|0:0,0:0:0:0:
130,255,74645,5,2,1:2:0:0:
284,299,74799,2,0,P|328:288|377:278,1,93.5000028533936,10|2,0:0|1:2,0:0:0:0:
451,84,75107,6,0,P|402:104|395:189,1,140.25000428009,14|0,0:0|1:2,0:0:0:0:
446,242,75415,2,0,P|459:287|471:333,1,93.5000028533936,10|0,0:0|1:2,0:0:0:0:
284,299,75722,6,0,P|292:240|302:157,1,140.25000428009,14|0,0:0|1:2,0:0:0:0:
256,94,76030,2,0,P|221:73|166:80,1,93.5000028533936,10|0,0:0|1:2,0:0:0:0:
72,226,76338,6,0,P|88:274|101:326,1,93.5000028533936,12|0,0:0|1:2,0:0:0:0:
178,169,76645,5,10,0:0:0:0:
67,132,76799,1,2,1:2:0:0:
171,264,76953,2,0,P|216:262|250:232,1,93.5000028533936,10|0,0:0|1:2,0:0:0:0:
347,93,77261,5,10,0:0:0:0:
178,169,77415,1,2,1:2:0:0:
247,47,77568,2,0,P|256:93|265:139,1,93.5000028533936,14|0,0:0|1:2,0:0:0:0:
414,227,77876,5,10,0:0:0:0:
347,93,78030,1,2,1:2:0:0:
250,232,78184,2,0,P|209:221|154:206,1,93.5000028533936,10|0,0:0|1:2,0:0:0:0:
276,321,78491,5,10,0:0:0:0:
346,180,78645,1,2,1:2:0:0:
458,308,78799,2,0,P|412:320|367:332,1,93.5000028533936,14|0,0:0|1:2,0:0:0:0:
260,146,79107,5,10,0:0:0:0:
416,229,79261,1,2,1:2:0:0:
276,321,79415,2,0,P|250:266|265:233,1,93.5000028533936,10|0,0:0|1:2,0:0:0:0:
333,87,79722,5,10,0:0:0:0:
184,185,79876,1,2,1:2:0:0:
354,272,80030,6,0,P|344:227|336:176,1,93.5000028533936,10|8,0:0|0:0,0:0:0:0:
101,125,80338,2,0,P|93:171|83:216,1,93.5000028533936,10|8,0:0|0:0,0:0:0:0:
224,101,80645,5,10,0:0:0:0:
80,33,80799,1,10,0:0:0:0:
184,185,80953,1,10,0:0:0:0:
264,19,81107,1,0,1:2:0:0:
101,125,81261,6,0,P|85:199|70:274,1,152.999995330811,4|0,1:2|0:0,0:0:0:0:
