osu file format v14

[General]
AudioFilename: audio.mp3
AudioLeadIn: 0
PreviewTime: 41504
Countdown: 0
SampleSet: Soft
StackLeniency: 0.7
Mode: 0
LetterboxInBreaks: 0
WidescreenStoryboard: 1

[Editor]
DistanceSpacing: 1.4
BeatDivisor: 4
GridSize: 4
TimelineZoom: 1

[Metadata]
Title:ne uchi (Cut Ver.)
TitleUnicode:не учи (Cut Ver.)
Artist:kis-kis
ArtistUnicode:кис-кис
Creator:A r M i N
Version:Hard
Source:
Tags:russian female vocal punk punk-rock rock Armin A_r_M_i_N Kujinn Reform schoolboy Komore SpokenAway Xenon- Xen Xehn русский панк рок пир во время чумы
BeatmapID:2760263
BeatmapSetID:1331950

[Difficulty]
HPDrainRate:4
CircleSize:3.4
OverallDifficulty:7
ApproachRate:8
SliderMultiplier:1.5
SliderTickRate:1

[Events]
//Background and Video events
0,0,"63890894_p0.jpg",0,0
//Break Periods
//Storyboard Layer 0 (Background)
//Storyboard Layer 1 (Fail)
//Storyboard Layer 2 (Pass)
//Storyboard Layer 3 (Foreground)
//Storyboard Layer 4 (Overlay)
//Storyboard Sound Samples

[TimingPoints]
38,307.692307692308,4,2,1,60,1,0
6191,-166.666666666667,4,2,1,60,0,0
6653,-166.666666666667,4,2,1,60,0,0
7415,307.692307692308,4,2,1,65,1,0
7415,-125,4,2,1,65,0,0
12338,-100,4,2,1,70,0,0
22184,-125,4,2,1,70,0,0
29568,-111.111111111111,4,2,1,70,0,0
32030,-125,4,2,1,70,0,0
39415,-100,4,2,1,70,0,0
41876,-90.9090909090909,4,2,1,80,0,1
49261,-90.9090909090909,4,2,1,80,0,0
51722,-90.9090909090909,4,2,1,80,0,1
61568,-100,4,2,1,70,0,0
71415,-90.9090909090909,4,2,1,85,0,1
76338,-83.3333333333333,4,2,1,85,0,1
81261,-166.666666666667,4,2,1,85,0,0
81722,-166.666666666667,4,2,1,50,0,0

[Colours]
Combo1 : 184,118,20
Combo2 : 188,24,24
Combo3 : 184,130,97
Combo4 : 78,23,22

[HitObjects]
79,120,6653,6,0,L|74:147,2,22.4999993133545,0|0|8,1:2|1:2|0:0,0:0:0:0:
143,61,6961,2,0,P|186:54|220:82,1,89.999997253418,8|0,3:0|0:0,0:0:0:0:
253,170,7415,6,0,L|371:149,1,120,2|2,1:2|0:0,0:0:0:0:
428,76,7876,1,2,1:2:0:0:
428,76,8030,2,0,B|382:131|382:131|428:230,1,180,10|0,0:0|0:0,0:0:0:0:
465,315,8645,6,0,P|416:285|346:294,1,120,2|2,1:2|0:0,0:0:0:0:
297,363,9107,1,2,1:2:0:0:
297,363,9261,2,0,L|119:331,1,180,10|0,0:0|0:0,0:0:0:0:
49,270,9876,6,0,P|99:239|158:244,1,120,2|2,1:2|1:2,0:0:0:0:
297,363,10491,2,0,B|279:276|279:276|282:269|282:269|266:187,1,180,10|0,0:0|0:0,0:0:0:0:
224,106,11107,6,0,B|272:142|272:142|328:118,1,120,2|2,1:2|1:2,0:0:0:0:
483,28,11722,2,0,L|472:87,1,60,10|10,0:0|0:0,0:0:0:0:
412,154,12030,2,0,L|422:213,1,60,8|8,0:0|0:0,0:0:0:0:
367,288,12338,6,0,P|428:248|499:264,2,150,6|10|2,1:2|0:0|1:2,0:0:0:0:
310,362,13107,1,0,1:2:0:0:
310,362,13261,2,0,P|273:363|229:342,1,75,8|0,0:0|0:0,0:0:0:0:
191,268,13568,6,0,L|217:120,2,150,2|10|2,1:2|0:0|1:2,0:0:0:0:
114,320,14338,1,0,1:2:0:0:
114,320,14491,2,0,L|100:246,1,75,8|0,0:0|0:0,0:0:0:0:
47,169,14799,6,0,P|7:230|23:301,2,150,2|10|2,1:2|0:0|1:2,0:0:0:0:
139,161,15568,1,0,1:2:0:0:
139,161,15722,2,0,L|213:175,1,75,8|0,0:0|0:0,0:0:0:0:
296,123,16030,6,0,B|322:34|322:34|296:21|277:-1,2,150,2|10|2,1:2|0:0|1:2,0:0:0:0:
364,190,16799,1,2,1:2:0:0:
364,190,16953,1,8,0:0:0:0:
307,361,17261,6,0,P|369:320|440:337,2,150,6|10|2,1:2|0:0|1:2,0:0:0:0:
236,303,18030,1,0,1:2:0:0:
236,303,18184,2,0,P|222:268|223:231,1,75,8|0,0:0|0:0,0:0:0:0:
287,164,18491,6,0,B|301:91|301:91|299:85|299:85|312:17,2,150,2|10|2,1:2|0:0|1:2,0:0:0:0:
197,141,19261,1,0,1:2:0:0:
197,141,19415,2,0,L|123:155,1,75,8|0,0:0|0:0,0:0:0:0:
35,126,19722,6,0,P|73:65|145:64,2,150,2|10|2,1:2|0:0|1:2,0:0:0:0:
59,222,20491,1,0,1:2:0:0:
59,222,20645,2,0,L|73:296,1,75,8|0,0:0|0:0,0:0:0:0:
158,333,20953,6,0,B|234:313|223:377|299:358,2,150,2|10|2,1:2|0:0|1:2,0:0:0:0:
173,241,21722,1,10,0:0:0:0:
188,149,21876,2,0,L|262:135,1,75,10|10,0:0|0:0,0:0:0:0:
309,65,22184,6,0,L|426:87,1,120,6|10,1:2|0:0,0:0:0:0:
508,108,22645,1,2,1:2:0:0:
460,269,22953,2,0,L|473:343,1,60,2|8,0:0|0:0,0:0:0:0:
404,381,23261,6,0,P|374:383|346:372,1,60,2|0,0:0|1:2,0:0:0:0:
293,306,23568,2,0,L|303:246,1,60,2|8,1:2|0:0,0:0:0:0:
255,176,23876,2,0,P|210:153|137:175,1,120,0|2,1:2|0:0,0:0:0:0:
105,243,24338,2,0,L|115:303,1,60,10|2,0:0|0:0,0:0:0:0:
12,274,24645,6,0,L|34:157,1,120,2|10,1:2|0:0,0:0:0:0:
55,74,25107,1,2,1:2:0:0:
221,40,25415,2,0,P|247:54|280:56,1,60,2|8,0:0|0:0,0:0:0:0:
354,24,25722,6,0,L|367:98,1,60,2|0,0:0|1:2,0:0:0:0:
425,142,26030,2,0,L|412:216,1,60,2|8,1:2|0:0,0:0:0:0:
459,272,26338,2,0,P|407:243|349:254,1,120,0|2,1:2|0:0,0:0:0:0:
277,297,26799,2,0,L|266:237,1,60,10|2,0:0|0:0,0:0:0:0:
192,196,27107,6,0,B|131:187|138:225|76:216,1,120,2|10,1:2|0:0,0:0:0:0:
3,174,27568,1,2,1:2:0:0:
81,322,27876,2,0,P|110:324|139:333,1,60,2|8,0:0|0:0,0:0:0:0:
214,372,28184,6,0,L|273:361,1,60,2|0,0:0|1:2,0:0:0:0:
316,289,28491,2,0,L|256:278,1,60,2|8,1:2|0:0,0:0:0:0:
213,205,28799,2,0,L|330:183,1,120,2|2,1:2|0:0,0:0:0:0:
292,107,29261,2,0,L|232:96,1,60,10|0,0:0|0:0,0:0:0:0:
122,80,29568,5,2,1:2:0:0:
122,80,29722,2,0,P|143:106|152:139,1,67.4999979400635,2|8,1:2|0:0,0:0:0:0:
128,228,30030,2,0,L|61:239,1,67.4999979400635,2|0,1:2|1:2,0:0:0:0:
13,320,30338,1,2,0:0:0:0:
13,320,30491,2,0,L|79:331,1,67.4999979400635,8|0,0:0|0:0,0:0:0:0:
158,383,30799,6,0,L|224:371,1,67.4999979400635,2|0,1:2|1:2,0:0:0:0:
282,298,31107,1,8,0:0:0:0:
282,298,31261,1,8,0:0:0:0:
363,346,31415,2,0,L|374:279,1,67.4999979400635,4|10,1:2|0:0,0:0:0:0:
457,232,31722,1,10,0:0:0:0:
457,232,31876,1,10,0:0:0:0:
378,172,32030,6,0,L|318:182,1,60,6|0,1:2|1:2,0:0:0:0:
249,133,32338,1,10,0:0:0:0:
249,133,32491,1,2,1:2:0:0:
165,278,32799,2,0,P|136:276|109:263,1,60,2|8,0:0|0:0,0:0:0:0:
57,196,33107,6,0,L|46:136,1,60,2|0,0:0|1:2,0:0:0:0:
88,63,33415,2,0,P|114:49|144:48,1,60,2|8,0:0|0:0,0:0:0:0:
222,79,33722,2,0,L|339:56,1,120,0|2,1:2|0:0,0:0:0:0:
417,90,34184,2,0,P|432:116|433:149,1,60,10|2,0:0|0:0,0:0:0:0:
402,222,34491,6,0,L|284:199,1,120,2|10,1:2|0:0,0:0:0:0:
216,249,34953,1,2,1:2:0:0:
123,108,35261,2,0,P|90:109|62:128,1,60,2|8,0:0|0:0,0:0:0:0:
20,191,35568,6,0,L|30:250,1,60,2|0,0:0|1:2,0:0:0:0:
84,315,35876,2,0,L|143:325,1,60,2|8,1:2|0:0,0:0:0:0:
212,276,36184,2,0,B|272:267|265:305|327:296,1,120,0|2,1:2|0:0,0:0:0:0:
393,244,36645,2,0,L|382:184,1,60,10|2,0:0|0:0,0:0:0:0:
388,100,36953,6,0,P|341:69|275:80,1,120,2|10,1:2|0:0,0:0:0:0:
218,18,37415,1,2,1:2:0:0:
84,119,37722,2,0,P|74:155|80:184,1,60,2|8,0:0|0:0,0:0:0:0:
131,242,38030,6,0,L|190:252,1,60,2|0,0:0|1:2,0:0:0:0:
251,311,38338,2,0,L|310:300,1,60,2|8,1:2|0:0,0:0:0:0:
359,232,38645,2,0,L|418:242,1,60,2|0,1:2|1:2,0:0:0:0:
484,189,38953,1,2,0:0:0:0:
484,189,39107,2,0,P|487:160|472:125,1,60,8|0,0:0|0:0,0:0:0:0:
414,55,39415,5,14,0:0:0:0:
346,124,39568,2,0,L|272:110,1,75,2|8,1:2|0:0,0:0:0:0:
202,180,39876,2,0,P|194:226|219:263,1,75,2|12,1:2|0:0,0:0:0:0:
155,334,40184,2,0,P|118:355|72:351,1,75,2|8,1:2|0:0,0:0:0:0:
7,300,40491,1,0,1:2:0:0:
58,218,40645,6,0,L|44:144,1,75,14|0,0:0|1:2,0:0:0:0:
88,55,40953,2,0,P|119:37|157:37,1,75,12|0,0:0|1:2,0:0:0:0:
238,92,41261,1,12,0:0:0:0:
238,92,41415,1,8,0:0:0:0:
320,40,41568,2,0,L|333:113,1,75,10|10,0:0|0:0,0:0:0:0:
423,172,41876,6,0,L|394:334,1,165.000005035401,6|10,1:2|0:0,0:0:0:0:
301,375,42338,1,2,0:0:0:0:
255,284,42491,2,0,P|211:235|116:234,1,165.000005035401,2|10,1:2|0:0,0:0:0:0:
44,305,42953,1,2,0:0:0:0:
18,207,43107,6,0,P|28:165|36:125,1,82.5000025177003,2|2,1:2|0:0,0:0:0:0:
114,59,43415,2,0,P|156:51|191:71,1,82.5000025177003,10|0,0:0|0:0,0:0:0:0:
241,157,43722,1,0,1:2:0:0:
241,157,43876,1,0,1:2:0:0:
317,89,44030,2,0,P|308:48|300:9,1,82.5000025177003,10|2,0:0|0:0,0:0:0:0:
428,68,44338,6,0,P|409:148|400:230,1,165.000005035401,2|10,1:2|0:0,0:0:0:0:
477,298,44799,1,2,0:0:0:0:
382,331,44953,2,0,B|296:309|309:380|224:358,1,165.000005035401,2|10,1:2|0:0,0:0:0:0:
154,287,45415,1,2,0:0:0:0:
228,218,45568,6,0,P|221:180|212:134,1,82.5000025177003,2|2,1:2|0:0,0:0:0:0:
131,76,45876,2,0,P|90:73|56:95,1,82.5000025177003,10|0,0:0|0:0,0:0:0:0:
13,189,46184,1,0,1:2:0:0:
13,189,46338,1,0,1:2:0:0:
102,238,46491,2,0,P|109:278|117:319,1,82.5000025177003,10|2,0:0|0:0,0:0:0:0:
203,374,46799,6,0,P|283:378|341:323,1,165.000005035401,6|10,1:2|0:0,0:0:0:0:
284,238,47261,1,2,0:0:0:0:
349,159,47415,2,0,P|403:144|436:135,1,82.5000025177003,2|0,1:2|1:2,0:0:0:0:
365,57,47722,2,0,P|325:45|285:35,1,82.5000025177003,10|0,0:0|0:0,0:0:0:0:
209,103,48030,6,0,P|193:140|200:180,1,82.5000025177003,2|2,1:2|0:0,0:0:0:0:
284,238,48338,2,0,P|298:288|305:330,1,82.5000025177003,10|0,0:0|0:0,0:0:0:0:
222,378,48645,1,0,1:2:0:0:
222,378,48799,1,0,1:2:0:0:
159,290,48953,2,0,P|120:275|76:283,1,82.5000025177003,10|2,0:0|0:0,0:0:0:0:
30,192,49261,6,0,P|37:145|44:106,1,82.5000025177003,10|0,0:0|1:2,0:0:0:0:
117,40,49568,1,10,0:0:0:0:
195,106,49722,2,0,P|240:106|273:89,1,82.5000025177003,2|8,1:2|0:0,0:0:0:0:
330,6,50030,1,2,1:2:0:0:
419,56,50184,2,0,P|407:95|399:135,1,82.5000025177003,10|0,0:0|1:2,0:0:0:0:
469,217,50491,5,10,0:0:0:0:
469,217,50645,1,2,1:2:0:0:
396,287,50799,2,0,P|356:290|322:269,1,82.5000025177003,8|0,0:0|1:2,0:0:0:0:
276,175,51107,1,8,0:0:0:0:
101,272,51415,2,0,P|107:296|114:320,3,41.2500012588501,10|8|8|8,0:0|0:0|0:0|0:0,0:0:0:0:
124,347,51722,6,0,B|210:325|197:396|282:374,1,165.000005035401,6|10,1:2|0:0,0:0:0:0:
346,298,52184,1,2,0:0:0:0:
441,334,52338,2,0,P|432:286|411:167,1,165.000005035401,2|10,1:2|0:0,0:0:0:0:
473,91,52799,1,2,0:0:0:0:
394,28,52953,6,0,P|355:23|316:46,1,82.5000025177003,2|2,1:2|0:0,0:0:0:0:
256,123,53261,2,0,P|217:128|178:105,1,82.5000025177003,10|0,0:0|0:0,0:0:0:0:
125,23,53568,1,0,1:2:0:0:
125,23,53722,1,0,1:2:0:0:
53,94,53876,2,0,P|63:131|70:175,1,82.5000025177003,10|2,0:0|0:0,0:0:0:0:
25,265,54184,6,0,P|82:209|163:213,1,165.000005035401,2|10,1:2|0:0,0:0:0:0:
234,286,54645,1,2,0:0:0:0:
315,225,54799,2,0,B|298:145|298:145|301:138|301:138|286:63,1,165.000005035401,2|10,1:2|0:0,0:0:0:0:
365,0,55261,1,2,0:0:0:0:
437,71,55415,6,0,P|428:109|421:152,1,82.5000025177003,2|2,1:2|0:0,0:0:0:0:
491,224,55722,2,0,P|500:261|507:304,1,82.5000025177003,10|0,0:0|0:0,0:0:0:0:
434,374,56030,1,0,1:2:0:0:
434,374,56184,1,0,1:2:0:0:
367,291,56338,2,0,P|330:272|289:274,1,82.5000025177003,10|2,0:0|0:0,0:0:0:0:
222,349,56645,6,0,B|259:254|259:254|221:201,1,165.000005035401,6|10,1:2|0:0,0:0:0:0:
154,129,57107,1,2,0:0:0:0:
215,49,57261,2,0,P|255:42|295:29,1,82.5000025177003,2|0,1:2|1:2,0:0:0:0:
363,105,57568,2,0,P|402:116|443:124,1,82.5000025177003,10|0,0:0|0:0,0:0:0:0:
507,201,57876,6,0,P|513:242|494:278,1,82.5000025177003,2|2,1:2|0:0,0:0:0:0:
401,315,58184,2,0,B|315:293|328:364|243:342,1,165.000005035401,10|0,0:0|1:2,0:0:0:0:
174,270,58645,1,0,1:2:0:0:
86,320,58799,2,0,P|80:280|67:241,1,82.5000025177003,10|2,0:0|0:0,0:0:0:0:
1,165,59107,6,0,P|37:120|142:118,1,165.000005035401,2|10,1:2|0:0,0:0:0:0:
217,53,59568,2,0,P|253:98|358:100,1,165.000005035401,2|2,0:0|1:2,0:0:0:0:
435,42,60030,2,0,P|446:81|453:122,1,82.5000025177003,10|0,0:0|0:0,0:0:0:0:
512,204,60338,6,0,P|491:284|484:366,1,165.000005035401,2|8,1:2|0:0,0:0:0:0:
368,207,60953,2,0,P|347:210|328:216,3,41.2500012588501,0|8|8|8,1:2|0:0|0:0|0:0,0:0:0:0:
299,234,61261,2,0,P|278:230|259:224,3,41.2500012588501,8|8|8|8,0:0|0:0|0:0|0:0,0:0:0:0:
236,200,61568,5,6,1:2:0:0:
236,200,61722,2,0,P|239:161|248:122,1,75,2|8,1:2|0:0,0:0:0:0:
185,53,62030,1,2,0:0:0:0:
185,53,62184,2,0,P|116:52|66:110,1,150,2|10,1:2|0:0,0:0:0:0:
105,198,62645,6,0,P|96:234|94:271,1,75,2|0,0:0|1:2,0:0:0:0:
158,352,62953,1,2,1:2:0:0:
158,352,63107,2,0,B|235:332|223:396|300:376,1,150,10|2,0:0|1:2,0:0:0:0:
364,304,63568,2,0,P|354:267|346:231,1,75,2|8,1:2|0:0,0:0:0:0:
422,171,63876,1,2,0:0:0:0:
422,171,64030,6,0,P|352:192|294:149,1,150,2|10,1:2|0:0,0:0:0:0:
238,72,64491,2,0,P|200:69|166:84,1,75,2|0,0:0|1:2,0:0:0:0:
115,167,64799,1,2,1:2:0:0:
115,167,64953,2,0,P|126:202|132:239,1,75,10|2,0:0|0:0,0:0:0:0:
214,295,65261,6,0,P|220:258|231:222,1,75,2|0,1:2|1:2,0:0:0:0:
294,149,65568,2,0,P|332:144|367:135,1,75,10|2,0:0|0:0,0:0:0:0:
416,51,65876,1,2,1:2:0:0:
416,51,66030,1,2,1:2:0:0:
502,96,66184,1,10,0:0:0:0:
512,296,66491,5,6,1:2:0:0:
512,296,66645,2,0,P|463:309|428:318,1,75,2|8,1:2|0:0,0:0:0:0:
361,374,66953,1,2,0:0:0:0:
361,374,67107,2,0,P|302:360|211:343,1,150,2|10,1:2|0:0,0:0:0:0:
139,279,67568,6,0,P|135:240|155:203,1,75,2|0,0:0|1:2,0:0:0:0:
233,157,67876,1,2,1:2:0:0:
233,157,68030,2,0,B|310:137|298:201|375:181,1,150,10|2,0:0|1:2,0:0:0:0:
454,126,68491,2,0,P|449:88|441:52,1,75,2|8,1:2|0:0,0:0:0:0:
361,0,68799,1,2,0:0:0:0:
361,0,68953,6,0,P|294:17|213:39,1,150,2|10,1:2|0:0,0:0:0:0:
126,7,69415,2,0,P|111:49|115:92,1,75,2|0,0:0|1:2,0:0:0:0:
46,151,69722,1,2,1:2:0:0:
46,151,69876,2,0,P|61:193|57:236,1,75,10|2,0:0|0:0,0:0:0:0:
23,312,70184,6,0,P|62:319|102:326,1,75,2|0,1:2|1:2,0:0:0:0:
174,384,70491,2,0,P|210:377|247:370,1,75,10|2,0:0|0:0,0:0:0:0:
315,299,70799,1,2,1:2:0:0:
315,299,70953,1,2,1:2:0:0:
230,250,71107,1,10,0:0:0:0:
298,78,71415,5,14,0:0:0:0:
298,78,71568,2,0,P|337:87|379:95,1,82.5000025177003,2|10,1:2|0:0,0:0:0:0:
453,169,71876,1,2,1:2:0:0:
453,169,72030,2,0,P|456:216|432:250,1,82.5000025177003,10|0,0:0|1:2,0:0:0:0:
351,294,72338,1,10,0:0:0:0:
351,294,72491,6,0,P|311:283|270:274,1,82.5000025177003,2|12,1:2|0:0,0:0:0:0:
208,196,72799,1,2,1:2:0:0:
208,196,72953,2,0,P|168:206|127:215,1,82.5000025177003,10|0,0:0|1:2,0:0:0:0:
31,189,73261,1,10,0:0:0:0:
31,189,73415,2,0,P|16:145|29:103,1,82.5000025177003,2|8,1:2|0:0,0:0:0:0:
90,37,73722,1,2,1:2:0:0:
90,37,73876,6,0,P|129:47|170:56,1,82.5000025177003,14|0,0:0|1:2,0:0:0:0:
265,21,74184,1,10,0:0:0:0:
265,21,74338,2,0,P|287:57|288:102,1,82.5000025177003,2|8,1:2|0:0,0:0:0:0:
370,162,74645,1,2,1:2:0:0:
370,162,74799,2,0,P|348:198|347:243,1,82.5000025177003,10|2,0:0|1:2,0:0:0:0:
381,330,75107,6,0,P|319:319|258:310,1,123.75000377655,14|0,0:0|1:2,0:0:0:0:
226,271,75415,2,0,P|183:285|141:298,1,82.5000025177003,10|0,0:0|1:2,0:0:0:0:
53,255,75722,1,14,0:0:0:0:
53,255,75876,1,2,1:2:0:0:
87,162,76030,1,10,0:0:0:0:
290,214,76338,6,0,P|298:258|309:308,1,89.9999972534181,12|0,0:0|1:2,0:0:0:0:
398,357,76645,1,10,0:0:0:0:
398,357,76799,1,2,1:2:0:0:
461,278,76953,2,0,P|451:234|443:189,1,89.9999972534181,10|0,0:0|1:2,0:0:0:0:
503,109,77261,1,10,0:0:0:0:
503,109,77415,1,2,1:2:0:0:
416,49,77568,6,0,P|372:48|332:75,1,89.9999972534181,14|0,0:0|1:2,0:0:0:0:
300,171,77876,1,10,0:0:0:0:
300,171,78030,1,2,1:2:0:0:
234,85,78184,2,0,P|197:62|152:62,1,89.9999972534181,10|0,0:0|1:2,0:0:0:0:
73,122,78491,1,10,0:0:0:0:
73,122,78645,1,2,1:2:0:0:
134,201,78799,6,0,P|123:245|116:290,1,89.9999972534181,14|0,0:0|1:2,0:0:0:0:
189,369,79107,1,10,0:0:0:0:
189,369,79261,1,2,1:2:0:0:
250,290,79415,2,0,P|288:266|333:267,1,89.9999972534181,10|0,0:0|1:2,0:0:0:0:
426,318,79722,1,10,0:0:0:0:
426,318,79876,1,2,1:2:0:0:
469,226,80030,6,0,P|458:182|446:134,1,89.9999972534181,10|8,0:0|0:0,0:0:0:0:
369,74,80338,2,0,P|359:118|349:161,1,89.9999972534181,10|8,0:0|0:0,0:0:0:0:
277,233,80645,1,10,0:0:0:0:
277,233,80799,1,10,0:0:0:0:
208,150,80953,2,0,P|165:144|124:170,1,89.9999972534181,10|0,0:0|1:2,0:0:0:0:
66,247,81261,6,0,P|86:311|99:377,1,134.999995880127,4|0,1:2|0:0,0:0:0:0:
