osu file format v14

[General]
AudioFilename: molchi.ogg
AudioLeadIn: 0
PreviewTime: 60580
Countdown: 0
SampleSet: Normal
StackLeniency: 0.7
Mode: 1
LetterboxInBreaks: 0
WidescreenStoryboard: 1

[Editor]
Bookmarks: 15678,23237,30796,45914,49123,59142,59615,60087,60560,60796,61032,68591,76150,83729,91288,105461,106406,113965,121524,129083,136642
DistanceSpacing: 0.1
BeatDivisor: 4
GridSize: 32
TimelineZoom: 2.2

[Metadata]
Title:molchi (Cut Ver.)
TitleUnicode:молчи (Cut Ver.)
Artist:kis-kis
ArtistUnicode:кис-кис
Creator:keksikosu
Version:clockbite's Futsuu
Source:
Tags:russian русский Tachibana_ clockbite Ryxliee rock pop поп punk панк рок pop-punk punk-rock alternative female vocals kiskisnotdead kiskis кискис Магазин игрушек для взрослых Софья Сомусева Алина Олешева
BeatmapID:3741793
BeatmapSetID:1823541

[Difficulty]
HPDrainRate:7.5
CircleSize:7
OverallDifficulty:3
ApproachRate:10
SliderMultiplier:1.4
SliderTickRate:1

[Events]
//Background and Video events
0,0,"Grusti.jpg",0,0
//Break Periods
2,59362,60602
//Storyboard Layer 0 (Background)
//Storyboard Layer 1 (Fail)
//Storyboard Layer 2 (Pass)
//Storyboard Layer 3 (Foreground)
//Storyboard Layer 4 (Overlay)
//Storyboard Sound Samples

[TimingPoints]
580,472.44094488189,4,1,0,25,1,0
15225,-100,4,1,0,70,0,0
15698,-100,4,1,0,80,0,1
22784,-100,4,1,0,80,0,0
23257,-100,4,1,0,80,0,1
30816,-100,4,1,0,80,0,0
61052,-100,4,1,0,90,0,1
68139,-100,4,1,0,90,0,0
68611,-100,4,1,0,90,0,1
83257,-100,4,1,0,90,0,0
83729,-100,4,1,0,90,0,1
91288,-100,4,1,0,70,0,0
92233,-100,4,1,0,40,0,0
105461,-100,4,1,0,90,0,0
106406,-100,4,1,0,90,0,1
113493,-100,4,1,0,90,0,0
113965,-100,4,1,0,90,0,1
120698,-100,4,1,0,90,0,0
121524,-100,4,1,0,90,0,1
128611,-100,4,1,0,90,0,0
129083,-100,4,1,0,90,0,1
136642,-100,4,1,0,40,0,0

[HitObjects]
265,130,15225,5,8,1:0:0:0:
270,142,15698,1,4,1:0:0:0:
197,135,16170,1,8,1:0:0:0:
197,135,16524,1,0,1:0:0:0:
214,122,16761,1,0,1:0:0:0:
214,122,17115,1,8,1:0:0:0:
214,122,17587,1,0,1:0:0:0:
214,122,17824,1,0,1:0:0:0:
214,122,18060,1,8,1:0:0:0:
214,122,18414,1,8,1:0:0:0:
214,122,18650,1,0,1:0:0:0:
214,122,19005,1,8,1:0:0:0:
214,122,19477,1,0,1:0:0:0:
214,122,19950,1,8,1:0:0:0:
214,122,20304,1,0,1:0:0:0:
214,122,20540,1,0,1:0:0:0:
214,122,20894,1,8,1:0:0:0:
214,122,21367,1,0,1:0:0:0:
214,122,21603,1,0,1:0:0:0:
214,122,21839,1,8,1:0:0:0:
214,122,22194,1,8,1:0:0:0:
214,122,22430,1,0,1:0:0:0:
214,122,23257,1,4,1:0:0:0:
214,122,23729,1,8,1:0:0:0:
214,122,24083,1,0,1:0:0:0:
214,122,24320,1,0,1:0:0:0:
214,122,24674,1,8,1:0:0:0:
214,122,25146,1,0,1:0:0:0:
214,122,25383,1,0,1:0:0:0:
214,122,25619,1,8,1:0:0:0:
214,122,25973,1,8,1:0:0:0:
214,122,26209,1,0,1:0:0:0:
214,122,26564,1,8,1:0:0:0:
214,122,27036,1,0,1:0:0:0:
214,122,27509,1,8,1:0:0:0:
214,122,27863,1,0,1:0:0:0:
214,122,28099,1,0,1:0:0:0:
214,122,28454,1,8,1:0:0:0:
214,122,28926,1,0,1:0:0:0:
214,122,29162,1,0,1:0:0:0:
214,122,29398,1,8,1:0:0:0:
214,122,29753,1,8,1:0:0:0:
214,122,29989,1,0,1:0:0:0:
214,122,30343,1,8,1:0:0:0:
214,122,30580,1,8,1:0:0:0:
214,122,30816,1,4,1:0:0:0:
205,120,31761,1,0,1:0:0:0:
205,120,32233,1,8,1:0:0:0:
205,120,32705,1,8,1:0:0:0:
165,70,33060,1,0,1:0:0:0:
205,120,33650,1,8,1:0:0:0:
205,120,34123,1,0,1:0:0:0:
192,27,34359,1,0,1:0:0:0:
205,120,34595,1,8,1:0:0:0:
199,64,34950,1,0,1:0:0:0:
205,120,35540,1,8,1:0:0:0:
205,120,36013,1,0,1:0:0:0:
205,120,36485,1,8,1:0:0:0:
186,25,36839,1,0,1:0:0:0:
205,120,37430,1,8,1:0:0:0:
205,120,37902,1,8,1:0:0:0:
203,9,38139,1,0,1:0:0:0:
205,120,38375,1,8,1:0:0:0:
203,9,38729,1,0,1:0:0:0:
205,120,39320,1,8,1:0:0:0:
205,120,39792,1,0,1:0:0:0:
205,120,40265,1,8,1:0:0:0:
201,10,40737,1,8,1:0:0:0:
205,120,41209,1,0,1:0:0:0:
205,120,41682,1,8,1:0:0:0:
201,10,41918,1,0,1:0:0:0:
205,120,42154,1,8,1:0:0:0:
201,10,42509,1,0,1:0:0:0:
205,120,43099,1,8,1:0:0:0:
205,120,43572,1,0,1:0:0:0:
205,120,44044,1,8,1:0:0:0:
201,17,44398,1,0,1:0:0:0:
210,122,44989,1,8,1:0:0:0:
210,122,45461,1,8,1:0:0:0:
210,122,45698,1,8,1:0:0:0:
210,122,45934,1,4,1:0:0:0:
210,122,46879,1,8,1:0:0:0:
210,122,47351,1,0,1:0:0:0:
228,93,47587,1,0,1:0:0:0:
210,122,47824,1,8,1:0:0:0:
226,90,48178,1,0,1:0:0:0:
203,130,48768,1,8,1:0:0:0:
203,130,49241,1,8,1:0:0:0:
228,93,49477,1,0,1:0:0:0:
203,130,49713,1,0,1:0:0:0:
228,93,50068,1,8,1:0:0:0:
203,130,50658,1,0,1:0:0:0:
203,130,51131,1,8,1:0:0:0:
228,93,51367,1,0,1:0:0:0:
203,130,51603,1,8,1:0:0:0:
228,93,51957,1,0,1:0:0:0:
203,130,52548,1,8,1:0:0:0:
203,130,53020,1,0,1:0:0:0:
228,93,53257,1,0,1:0:0:0:
203,130,53493,1,8,1:0:0:0:
228,93,53847,1,0,1:0:0:0:
203,130,54438,1,8,1:0:0:0:
203,130,54910,1,8,1:0:0:0:
228,93,55146,1,0,1:0:0:0:
203,130,55383,1,8,1:0:0:0:
157,120,55619,1,0,1:0:0:0:
203,130,56328,1,0,1:0:0:0:
203,130,56800,1,8,1:0:0:0:
181,48,57036,1,0,1:0:0:0:
203,130,57272,1,8,1:0:0:0:
424,259,57509,1,8,1:0:0:0:
203,130,58217,1,8,1:0:0:0:
203,130,58690,1,0,1:0:0:0:
187,119,58926,1,0,1:0:0:0:
203,130,59162,1,8,1:0:0:0:
182,93,61052,5,12,1:0:0:0:
196,76,61761,1,8,1:0:0:0:
196,76,61997,1,8,1:0:0:0:
196,76,62233,1,0,1:0:0:0:
196,76,62469,1,8,1:0:0:0:
197,81,62705,1,0,1:0:0:0:
198,87,62942,1,8,1:0:0:0:
212,90,63414,1,0,1:0:0:0:
219,91,63650,1,0,1:0:0:0:
219,91,63887,1,8,1:0:0:0:
219,91,64123,1,0,1:0:0:0:
219,91,64359,1,8,1:0:0:0:
219,91,64831,1,4,1:0:0:0:
219,91,65540,1,0,1:0:0:0:
219,91,65776,1,8,1:0:0:0:
219,91,66013,1,8,1:0:0:0:
219,91,66249,1,0,1:0:0:0:
219,91,66485,1,0,1:0:0:0:
219,91,66721,1,8,1:0:0:0:
219,91,67194,1,8,1:0:0:0:
219,91,67430,1,8,1:0:0:0:
219,91,67666,1,0,1:0:0:0:
219,91,67902,1,0,1:0:0:0:
219,91,68139,1,8,1:0:0:0:
219,91,68611,1,4,1:0:0:0:
219,91,69320,1,0,1:0:0:0:
219,91,69556,1,8,1:0:0:0:
219,91,69792,1,0,1:0:0:0:
219,91,70028,1,0,1:0:0:0:
219,91,70265,1,8,1:0:0:0:
219,91,70501,1,8,1:0:0:0:
219,91,70973,1,0,1:0:0:0:
219,91,71209,1,8,1:0:0:0:
219,91,71446,1,0,1:0:0:0:
219,91,71682,1,0,1:0:0:0:
219,91,71918,1,8,1:0:0:0:
219,91,72391,1,4,1:0:0:0:
219,91,72863,1,8,1:0:0:0:
219,91,73099,1,8,1:0:0:0:
219,91,73335,1,0,1:0:0:0:
219,91,73572,1,0,1:0:0:0:
219,91,73808,1,8,1:0:0:0:
219,91,74280,1,4,1:0:0:0:
219,91,74753,1,8,1:0:0:0:
219,91,74989,1,0,1:0:0:0:
219,91,75225,1,8,1:0:0:0:
219,91,75461,1,8,1:0:0:0:
219,91,75698,1,0,1:0:0:0:
219,91,76170,1,12,1:0:0:0:
205,100,76879,1,8,1:0:0:0:
205,100,77115,1,8,1:0:0:0:
205,100,77351,1,0,1:0:0:0:
205,100,77587,1,0,1:0:0:0:
205,100,77824,1,8,1:0:0:0:
205,100,78060,1,0,1:0:0:0:
205,100,78532,1,8,1:0:0:0:
205,100,78768,1,8,1:0:0:0:
205,100,79005,1,0,1:0:0:0:
205,100,79241,1,0,1:0:0:0:
205,100,79477,1,8,1:0:0:0:
205,100,79950,1,4,1:0:0:0:
205,100,80658,1,8,1:0:0:0:
205,100,80894,1,8,1:0:0:0:
205,100,81131,1,0,1:0:0:0:
205,100,81367,1,8,1:0:0:0:
205,100,81603,1,0,1:0:0:0:
205,100,81839,1,8,1:0:0:0:
205,100,82312,1,0,1:0:0:0:
205,100,82548,1,8,1:0:0:0:
205,100,82784,1,8,1:0:0:0:
205,100,83020,1,0,1:0:0:0:
205,100,83257,1,8,1:0:0:0:
205,100,83729,1,4,1:0:0:0:
205,100,84438,1,8,1:0:0:0:
205,100,84674,1,8,1:0:0:0:
205,100,84910,1,0,1:0:0:0:
205,100,85146,1,0,1:0:0:0:
205,100,85383,1,8,1:0:0:0:
205,100,85619,1,8,1:0:0:0:
205,100,86091,1,0,1:0:0:0:
205,100,86328,1,0,1:0:0:0:
205,100,86564,1,8,1:0:0:0:
205,100,86800,1,0,1:0:0:0:
205,100,87036,1,8,1:0:0:0:
205,100,87509,1,4,1:0:0:0:
205,100,87981,1,8,1:0:0:0:
205,100,88217,1,8,1:0:0:0:
205,100,88454,1,0,1:0:0:0:
205,100,88690,1,8,1:0:0:0:
205,100,88926,1,8,1:0:0:0:
205,100,89398,1,4,1:0:0:0:
205,100,89871,1,0,1:0:0:0:
205,100,90107,1,8,1:0:0:0:
205,100,90343,1,0,1:0:0:0:
205,100,90580,1,0,1:0:0:0:
205,100,90816,1,8,1:0:0:0:
205,100,91288,1,0,1:0:0:0:
217,82,92233,1,8,1:0:0:0:
217,82,92705,1,8,1:0:0:0:
217,82,93178,1,0,1:0:0:0:
283,89,94595,1,8,1:0:0:0:
315,92,95068,1,0,1:0:0:0:
229,89,96013,1,0,1:0:0:0:
229,89,96485,1,8,1:0:0:0:
229,89,96957,1,0,1:0:0:0:
206,96,98375,1,8,1:0:0:0:
171,145,98847,1,0,1:0:0:0:
224,104,99792,1,8,1:0:0:0:
224,104,100265,1,0,1:0:0:0:
224,104,100737,1,8,1:0:0:0:
221,105,102154,1,8,1:0:0:0:
246,102,102627,1,0,1:0:0:0:
135,126,104280,1,0,1:0:0:0:
402,213,104517,1,8,1:0:0:0:
243,82,105461,5,8,1:0:0:0:
243,82,105698,1,8,1:0:0:0:
242,86,105934,1,8,1:0:0:0:
242,86,106170,1,8,1:0:0:0:
207,49,106406,5,4,1:0:0:0:
205,118,106879,1,8,1:0:0:0:
226,131,107233,1,0,1:0:0:0:
231,134,107469,1,0,1:0:0:0:
231,134,107824,1,8,1:0:0:0:
230,114,108296,1,0,1:0:0:0:
230,114,108532,1,0,1:0:0:0:
230,114,108768,1,8,1:0:0:0:
241,168,109123,1,8,1:0:0:0:
244,166,109359,1,0,1:0:0:0:
25,155,109713,1,8,1:0:0:0:
190,143,110186,1,0,1:0:0:0:
190,143,110658,1,8,1:0:0:0:
195,144,111013,1,0,1:0:0:0:
197,146,111249,1,0,1:0:0:0:
197,146,111603,1,8,1:0:0:0:
197,146,112076,1,0,1:0:0:0:
197,146,112312,1,0,1:0:0:0:
197,146,112548,1,8,1:0:0:0:
197,146,112902,1,8,1:0:0:0:
203,150,113139,1,0,1:0:0:0:
203,150,113965,1,4,1:0:0:0:
225,127,114438,1,8,1:0:0:0:
240,131,114792,1,0,1:0:0:0:
240,131,115028,1,0,1:0:0:0:
239,133,115383,1,8,1:0:0:0:
240,131,115855,1,0,1:0:0:0:
239,133,116091,1,0,1:0:0:0:
239,133,116328,1,8,1:0:0:0:
240,131,116682,1,8,1:0:0:0:
239,133,116918,1,0,1:0:0:0:
239,133,117272,1,8,1:0:0:0:
239,133,117745,1,0,1:0:0:0:
239,133,118217,1,8,1:0:0:0:
239,133,118572,1,0,1:0:0:0:
239,133,118808,1,0,1:0:0:0:
239,133,119162,1,8,1:0:0:0:
239,133,119635,1,8,1:0:0:0:
175,95,120343,1,4,1:0:0:0:
227,57,120698,1,8,1:0:0:0:
373,195,120934,1,8,0:0:0:0:
255,148,121170,1,0,0:0:0:0:
325,158,121524,1,12,1:0:0:0:
221,141,121997,1,8,1:0:0:0:
221,141,122351,1,0,1:0:0:0:
221,141,122587,1,0,1:0:0:0:
221,141,122942,1,8,1:0:0:0:
221,141,123414,1,0,1:0:0:0:
221,141,123650,1,0,1:0:0:0:
221,141,123887,1,8,1:0:0:0:
221,141,124241,1,8,1:0:0:0:
221,141,124477,1,0,1:0:0:0:
226,140,124831,1,8,1:0:0:0:
225,140,125304,1,0,1:0:0:0:
226,140,125776,1,8,1:0:0:0:
225,140,126131,1,0,1:0:0:0:
226,140,126367,1,0,1:0:0:0:
226,140,126721,1,8,1:0:0:0:
226,140,127194,1,0,1:0:0:0:
226,140,127430,1,0,1:0:0:0:
226,140,127666,1,8,1:0:0:0:
226,140,128020,1,8,1:0:0:0:
226,140,128257,1,0,1:0:0:0:
226,140,129083,1,12,1:0:0:0:
219,138,129556,1,8,1:0:0:0:
221,138,129910,1,0,1:0:0:0:
219,138,130146,1,0,1:0:0:0:
219,138,130501,1,8,1:0:0:0:
219,138,130973,1,0,1:0:0:0:
219,138,131209,1,0,1:0:0:0:
219,138,131446,1,8,1:0:0:0:
219,138,131800,1,8,1:0:0:0:
219,138,132036,1,0,1:0:0:0:
219,138,132391,1,8,1:0:0:0:
219,138,132863,1,0,1:0:0:0:
219,138,133335,1,8,1:0:0:0:
230,142,133690,1,0,1:0:0:0:
227,142,133926,1,0,1:0:0:0:
227,142,134280,1,8,1:0:0:0:
231,140,134753,1,0,1:0:0:0:
231,140,134989,1,0,1:0:0:0:
231,140,135225,1,8,1:0:0:0:
231,140,135580,1,8,1:0:0:0:
231,140,135816,1,0,1:0:0:0:
231,140,136170,1,8,1:0:0:0:
231,140,136406,1,8,1:0:0:0:
231,140,136642,1,0,1:0:0:0:
