osu file format v14

[General]
AudioFilename: molchi.ogg
AudioLeadIn: 0
PreviewTime: 60580
Countdown: 0
SampleSet: Normal
StackLeniency: 0.7
Mode: 1
LetterboxInBreaks: 0
WidescreenStoryboard: 1

[Editor]
Bookmarks: 15678,23237,30796,45914,59142,59615,60087,60560,60796,61032,68591,76150,83729,105461,106406,113965,121524,129083,136642
DistanceSpacing: 0.2
BeatDivisor: 4
GridSize: 32
TimelineZoom: 1

[Metadata]
Title:molchi (Cut Ver.)
TitleUnicode:молчи (Cut Ver.)
Artist:kis-kis
ArtistUnicode:кис-кис
Creator:keksikosu
Version:Ryxliee's Kantan
Source:
Tags:russian русский Tachibana_ clockbite Ryxliee rock pop поп punk панк рок pop-punk punk-rock alternative female vocals kiskisnotdead kiskis кискис Магазин игрушек для взрослых Софья Сомусева Алина Олешева
BeatmapID:3745839
BeatmapSetID:1823541

[Difficulty]
HPDrainRate:8.5
CircleSize:2
OverallDifficulty:2
ApproachRate:9
SliderMultiplier:1.4
SliderTickRate:1

[Events]
//Background and Video events
0,0,"Grusti.jpg",0,0
//Break Periods
2,91524,104517
//Storyboard Layer 0 (Background)
//Storyboard Layer 1 (Fail)
//Storyboard Layer 2 (Pass)
//Storyboard Layer 3 (Foreground)
//Storyboard Layer 4 (Overlay)
//Storyboard Sound Samples

[TimingPoints]
580,472.44094488189,4,1,0,25,1,0
15225,-100,4,1,0,70,0,0
15698,-100,4,1,0,80,0,0
61052,-100,4,1,0,90,0,1
68139,-100,4,1,0,90,0,0
68611,-100,4,1,0,90,0,1
83257,-100,4,1,0,90,0,0
83729,-100,4,1,0,90,0,1
91288,-100,4,1,0,70,0,0
105461,-100,4,1,0,90,0,0
136642,-100,4,1,0,40,0,0

[HitObjects]
256,192,15225,5,8,1:0:0:0:
256,192,15698,1,4,1:0:0:0:
256,192,16170,1,8,1:0:0:0:
256,192,16524,1,0,1:0:0:0:
256,192,17115,1,8,1:0:0:0:
256,192,17587,1,0,1:0:0:0:
256,192,18060,1,8,1:0:0:0:
256,192,18414,1,8,1:0:0:0:
256,192,19005,1,0,1:0:0:0:
256,192,19477,1,8,1:0:0:0:
256,192,19950,1,0,1:0:0:0:
256,192,20304,1,8,1:0:0:0:
256,192,20894,1,8,1:0:0:0:
256,192,21367,1,0,1:0:0:0:
256,192,21839,1,8,1:0:0:0:
256,192,22194,1,0,1:0:0:0:
256,192,23257,1,4,1:0:0:0:
256,192,23729,1,8,1:0:0:0:
256,192,24083,1,0,1:0:0:0:
256,192,24674,1,8,1:0:0:0:
256,192,25146,1,0,1:0:0:0:
256,192,25619,1,8,1:0:0:0:
256,192,25973,1,8,1:0:0:0:
256,192,26564,1,0,1:0:0:0:
256,192,27036,1,8,1:0:0:0:
256,192,27509,1,0,1:0:0:0:
256,192,27863,1,8,1:0:0:0:
256,192,28454,1,8,1:0:0:0:
256,192,28926,1,0,1:0:0:0:
256,192,29398,1,8,1:0:0:0:
256,192,29753,1,0,1:0:0:0:
256,192,30343,1,8,1:0:0:0:
256,192,30816,1,0,1:0:0:0:
256,192,31288,1,8,1:0:0:0:
256,192,32705,1,0,1:0:0:0:
256,192,33178,1,8,1:0:0:0:
256,192,34123,1,8,1:0:0:0:
256,192,34595,1,0,1:0:0:0:
256,192,35068,1,8,1:0:0:0:
256,192,36485,1,0,1:0:0:0:
256,192,36957,1,8,1:0:0:0:
256,192,37902,1,8,1:0:0:0:
256,192,38375,1,0,1:0:0:0:
256,192,38847,1,8,1:0:0:0:
256,192,40265,1,0,1:0:0:0:
256,192,40737,1,8,1:0:0:0:
256,192,41682,1,8,1:0:0:0:
256,192,42154,1,0,1:0:0:0:
256,192,42627,1,8,1:0:0:0:
256,192,44044,1,0,1:0:0:0:
256,192,44517,1,8,1:0:0:0:
256,192,45461,1,8,1:0:0:0:
256,192,45934,1,4,1:0:0:0:
256,192,46406,1,8,1:0:0:0:
256,192,47351,1,8,1:0:0:0:
256,192,47824,1,8,1:0:0:0:
256,192,48296,1,0,1:0:0:0:
256,192,49241,1,0,1:0:0:0:
256,192,49713,1,8,1:0:0:0:
256,192,50186,1,8,1:0:0:0:
256,192,51131,1,0,1:0:0:0:
256,192,51603,1,8,1:0:0:0:
256,192,52076,1,0,1:0:0:0:
256,192,53493,1,0,1:0:0:0:
256,192,53965,1,8,1:0:0:0:
256,192,54910,1,8,1:0:0:0:
256,192,55383,1,0,1:0:0:0:
256,192,56328,1,0,1:0:0:0:
256,192,56800,1,0,1:0:0:0:
256,192,57272,1,8,1:0:0:0:
256,192,58217,1,0,1:0:0:0:
256,192,58690,1,8,1:0:0:0:
256,192,61052,1,4,1:0:0:0:
256,192,61524,1,8,1:0:0:0:
256,192,61997,1,0,1:0:0:0:
256,192,62469,1,0,1:0:0:0:
256,192,62942,1,8,1:0:0:0:
256,192,63414,1,0,1:0:0:0:
256,192,64359,1,0,1:0:0:0:
256,192,64831,1,8,1:0:0:0:
256,192,65304,1,0,1:0:0:0:
256,192,65776,1,8,1:0:0:0:
256,192,66249,1,8,1:0:0:0:
256,192,66721,1,0,1:0:0:0:
256,192,67194,1,0,1:0:0:0:
256,192,67666,1,8,1:0:0:0:
256,192,68611,1,4,1:0:0:0:
256,192,69083,1,8,1:0:0:0:
256,192,69556,1,0,1:0:0:0:
256,192,70028,1,8,1:0:0:0:
256,192,70501,1,8,1:0:0:0:
256,192,70973,1,0,1:0:0:0:
256,192,71918,1,8,1:0:0:0:
256,192,72391,1,0,1:0:0:0:
256,192,72863,1,8,1:0:0:0:
256,192,73335,1,8,0:0:0:0:
256,192,73808,1,0,1:0:0:0:
256,192,74280,1,8,1:0:0:0:
256,192,74753,1,0,1:0:0:0:
256,192,75698,1,0,0:0:0:0:
256,192,76170,1,12,1:0:0:0:
256,192,76642,1,0,1:0:0:0:
256,192,77115,1,8,1:0:0:0:
256,192,77587,1,8,1:0:0:0:
256,192,78060,1,0,1:0:0:0:
256,192,78532,1,8,1:0:0:0:
256,192,79477,1,8,1:0:0:0:
256,192,79950,1,0,1:0:0:0:
256,192,80422,1,8,1:0:0:0:
256,192,80894,1,0,1:0:0:0:
256,192,81367,1,0,1:0:0:0:
256,192,81839,1,8,1:0:0:0:
256,192,82312,1,8,1:0:0:0:
256,192,82784,1,0,1:0:0:0:
256,192,83729,1,4,1:0:0:0:
256,192,84202,1,8,1:0:0:0:
256,192,84674,1,0,1:0:0:0:
256,192,85146,1,8,1:0:0:0:
256,192,85619,1,8,1:0:0:0:
256,192,86091,1,0,1:0:0:0:
256,192,87036,1,0,1:0:0:0:
256,192,87509,1,8,1:0:0:0:
256,192,87981,1,0,1:0:0:0:
256,192,88454,1,0,0:0:0:0:
256,192,88926,1,8,1:0:0:0:
256,192,89398,1,0,1:0:0:0:
256,192,89871,1,8,1:0:0:0:
256,192,90816,1,8,1:0:0:0:
256,192,91288,1,0,1:0:0:0:
256,192,105461,5,8,1:0:0:0:
256,192,105934,1,8,1:0:0:0:
256,192,106406,1,4,1:0:0:0:
256,192,106879,1,8,1:0:0:0:
256,192,107233,1,0,1:0:0:0:
256,192,107824,1,8,1:0:0:0:
256,192,108296,1,0,1:0:0:0:
256,192,108768,1,8,1:0:0:0:
256,192,109123,1,8,1:0:0:0:
256,192,109713,1,0,1:0:0:0:
256,192,110186,1,8,1:0:0:0:
256,192,110658,1,0,1:0:0:0:
256,192,111013,1,8,1:0:0:0:
256,192,111603,1,8,1:0:0:0:
256,192,112076,1,0,1:0:0:0:
256,192,112548,1,8,1:0:0:0:
256,192,112902,1,0,1:0:0:0:
256,192,113965,1,4,1:0:0:0:
256,192,114438,1,8,1:0:0:0:
256,192,114792,1,0,1:0:0:0:
256,192,115383,1,8,1:0:0:0:
256,192,115855,1,0,1:0:0:0:
256,192,116328,1,8,1:0:0:0:
256,192,116682,1,8,1:0:0:0:
256,192,117272,1,0,1:0:0:0:
256,192,117745,1,8,1:0:0:0:
256,192,118217,1,0,1:0:0:0:
256,192,118572,1,8,1:0:0:0:
256,192,119162,1,8,1:0:0:0:
256,192,119635,1,0,1:0:0:0:
256,192,119989,1,0,1:0:0:0:
256,192,120343,1,12,1:0:0:0:
256,192,121524,1,4,1:0:0:0:
256,192,121997,1,8,1:0:0:0:
256,192,122351,1,0,1:0:0:0:
256,192,122942,1,8,1:0:0:0:
256,192,123414,1,0,1:0:0:0:
256,192,123887,1,8,1:0:0:0:
256,192,124241,1,8,1:0:0:0:
256,192,124831,1,0,1:0:0:0:
256,192,125304,1,8,1:0:0:0:
256,192,125776,1,0,1:0:0:0:
256,192,126131,1,8,1:0:0:0:
256,192,126721,1,8,1:0:0:0:
256,192,127194,1,0,1:0:0:0:
256,192,127666,1,8,1:0:0:0:
256,192,128020,1,0,1:0:0:0:
256,192,129083,1,4,1:0:0:0:
256,192,129556,1,8,1:0:0:0:
256,192,129910,1,0,1:0:0:0:
256,192,130501,1,8,1:0:0:0:
256,192,130973,1,0,1:0:0:0:
256,192,131446,1,8,1:0:0:0:
256,192,131800,1,8,1:0:0:0:
256,192,132391,1,0,1:0:0:0:
256,192,132863,1,8,1:0:0:0:
256,192,133335,1,0,1:0:0:0:
256,192,133690,1,8,1:0:0:0:
256,192,134280,1,8,1:0:0:0:
256,192,134753,1,0,1:0:0:0:
256,192,135225,1,8,1:0:0:0:
256,192,135580,1,0,1:0:0:0:
256,192,136170,1,8,1:0:0:0:
256,192,136642,1,0,1:0:0:0:
256,192,138532,1,0,1:0:0:0:
256,192,139950,1,8,1:0:0:0:
256,192,140422,1,0,1:0:0:0:
256,192,142312,1,8,1:0:0:0:
256,192,143729,1,8,1:0:0:0:
256,192,144202,1,0,1:0:0:0:
256,192,146091,1,0,1:0:0:0:
256,192,147509,1,8,1:0:0:0:
256,192,147981,1,0,1:0:0:0:
256,192,149398,1,8,1:0:0:0:
256,192,149871,1,0,1:0:0:0:
256,192,151288,1,0,1:0:0:0:
256,192,151761,1,0,1:0:0:0:
