osu file format v14

[General]
AudioFilename: molchi.ogg
AudioLeadIn: 0
PreviewTime: 60580
Countdown: 0
SampleSet: Normal
StackLeniency: 0.7
Mode: 1
LetterboxInBreaks: 0
WidescreenStoryboard: 0

[Editor]
Bookmarks: 15678,23237,30796,45914,59142,59615,60087,60560,60796,61032,68591,76150,83729,105461,106406,113965,121524,129083,136642
DistanceSpacing: 0.2
BeatDivisor: 4
GridSize: 32
TimelineZoom: 1.2

[Metadata]
Title:molchi (Cut Ver.)
TitleUnicode:молчи (Cut Ver.)
Artist:kis-kis
ArtistUnicode:кис-кис
Creator:keksikosu
Version:Despondency
Source:
Tags:russian русский Tachibana_ clockbite Ryxliee rock pop поп punk панк рок pop-punk punk-rock alternative female vocals kiskisnotdead kiskis кискис Магазин игрушек для взрослых Софья Сомусева Алина Олешева
BeatmapID:3741794
BeatmapSetID:1823541

[Difficulty]
HPDrainRate:5.5
CircleSize:7
OverallDifficulty:5
ApproachRate:10
SliderMultiplier:1.4
SliderTickRate:1

[Events]
//Background and Video events
0,0,"Grusti.jpg",0,0
//Break Periods
//Storyboard Layer 0 (Background)
//Storyboard Layer 1 (Fail)
//Storyboard Layer 2 (Pass)
//Storyboard Layer 3 (Foreground)
//Storyboard Layer 4 (Overlay)
//Storyboard Sound Samples

[TimingPoints]
580,472.44094488189,4,1,0,25,1,0
580,-125,4,1,0,25,0,0
14989,-100,4,1,0,25,0,0
15225,-100,4,1,0,70,0,0
15698,-90.9090909090909,4,1,0,80,0,0
30343,-90.90909,4,1,0,80,0,0
30461,-93.018684,4,1,0,80,0,0
30580,-95.24768,4,1,0,80,0,0
30698,-97.566,4,1,0,80,0,0
30816,-100,4,1,0,80,0,0
31288,-111.111111111111,4,1,0,80,0,0
45461,-111.111115,4,1,0,80,0,0
45580,-108.089584,4,1,0,80,0,0
45698,-105.25145,4,1,0,80,0,0
45816,-102.55855,4,1,0,80,0,0
45934,-100,4,1,0,80,0,0
61052,-83.3333333333333,4,1,0,90,0,1
68139,-83.3333333333333,4,1,0,90,0,0
68611,-83.3333333333333,4,1,0,90,0,1
83257,-83.3333333333333,4,1,0,90,0,0
83729,-83.3333333333333,4,1,0,90,0,1
90816,-84.033615,4,1,0,90,0,1
90934,-87.46357,4,1,0,90,0,1
91052,-91.18542,4,1,0,90,0,1
91170,-95.2381,4,1,0,90,0,1
91288,-100,4,1,0,40,0,0
91642,-103.89182,4,1,0,40,0,0
91997,-108.1112,4,1,0,40,0,0
92351,-112.67438,4,1,0,40,0,0
92705,-117.63974,4,1,0,40,0,0
92942,-121.21601,4,1,0,40,0,0
93178,-125,4,1,0,40,0,0
105461,-111.111111111111,4,1,0,90,0,0
105580,-108.08647,4,1,0,90,0,0
105698,-105.24558,4,1,0,90,0,0
105816,-102.550186,4,1,0,90,0,0
105934,-99.989426,4,1,0,90,0,0
106052,-97.55342,4,1,0,90,0,0
106170,-95.2333,4,1,0,90,0,0
106288,-93.02097,4,1,0,90,0,0
106406,-90.9090909090909,4,1,0,90,0,0
113965,-86.9565217391304,4,1,0,90,0,0
120698,-86.95652,4,1,0,90,0,0
120816,-86.419754,4,1,0,90,0,0
120934,-85.889565,4,1,0,90,0,0
121052,-85.36585,4,1,0,90,0,0
121170,-84.84848,4,1,0,90,0,0
121288,-84.33735,4,1,0,90,0,0
121406,-83.83234,4,1,0,90,0,0
121524,-83.333336,4,1,0,90,0,0
129083,-80,4,1,0,90,0,0
136288,-82.47423,4,1,0,90,0,0
136406,-85.10638,4,1,0,90,0,0
136524,-87.912094,4,1,0,90,0,0
136642,-90.90909,4,1,0,40,0,0
137351,-111.111111111111,4,1,0,40,0,0

[HitObjects]
256,192,15225,5,8,1:0:0:0:
256,192,15343,1,0,1:0:0:0:
256,192,15698,1,4,1:0:0:0:
256,192,16170,1,8,1:0:0:0:
261,192,16288,1,0,0:0:0:0:
261,192,16406,1,0,0:0:0:0:
256,192,16524,1,8,1:0:0:0:
256,192,16761,1,8,1:0:0:0:
256,192,16879,1,0,1:0:0:0:
256,192,17115,1,8,1:0:0:0:
256,192,17351,1,8,1:0:0:0:
256,192,17469,1,8,1:0:0:0:
256,192,17587,1,0,1:0:0:0:
256,192,17824,1,0,1:0:0:0:
256,192,18060,1,8,1:0:0:0:
256,192,18414,1,8,1:0:0:0:
256,192,18650,1,8,1:0:0:0:
256,192,18768,1,0,1:0:0:0:
256,192,19005,1,8,1:0:0:0:
256,192,19241,1,0,1:0:0:0:
256,192,19359,1,0,1:0:0:0:
256,192,19477,1,0,1:0:0:0:
214,209,19713,1,0,0:0:0:0:
256,192,19950,1,8,1:0:0:0:
256,192,20186,1,0,1:0:0:0:
256,192,20304,1,8,1:0:0:0:
256,192,20540,1,8,1:0:0:0:
256,192,20658,1,0,1:0:0:0:
256,192,20894,1,8,1:0:0:0:
256,192,21367,1,0,1:0:0:0:
256,192,21603,1,0,1:0:0:0:
256,192,21839,1,8,1:0:0:0:
256,192,22194,1,8,1:0:0:0:
256,192,22430,1,8,1:0:0:0:
256,192,22548,1,0,1:0:0:0:
256,192,22784,1,8,1:0:0:0:
256,195,22902,1,0,1:0:0:0:
256,192,23257,1,12,1:0:0:0:
256,192,23729,1,8,1:0:0:0:
264,204,23847,1,0,0:0:0:0:
264,204,23965,1,0,0:0:0:0:
256,192,24083,1,8,1:0:0:0:
256,192,24320,1,8,1:0:0:0:
256,192,24438,1,0,1:0:0:0:
256,192,24674,1,8,1:0:0:0:
256,192,24910,1,8,1:0:0:0:
256,192,25028,1,8,1:0:0:0:
256,192,25146,1,0,1:0:0:0:
256,192,25383,1,0,1:0:0:0:
256,192,25619,1,8,1:0:0:0:
256,192,25973,1,8,1:0:0:0:
256,192,26209,1,8,1:0:0:0:
256,192,26328,1,0,1:0:0:0:
256,192,26564,1,8,1:0:0:0:
256,192,26800,1,0,1:0:0:0:
256,192,26918,1,0,1:0:0:0:
256,192,27036,1,0,1:0:0:0:
239,200,27272,1,0,0:0:0:0:
256,192,27509,1,8,1:0:0:0:
256,192,27745,1,0,1:0:0:0:
256,192,27863,1,8,1:0:0:0:
256,192,28099,1,8,1:0:0:0:
256,192,28217,1,0,1:0:0:0:
256,192,28454,1,8,1:0:0:0:
256,192,28926,1,0,1:0:0:0:
256,192,29162,1,0,1:0:0:0:
256,192,29398,1,8,1:0:0:0:
256,192,29753,1,8,1:0:0:0:
256,192,29989,1,8,1:0:0:0:
256,192,30107,1,0,1:0:0:0:
256,192,30343,1,8,1:0:0:0:
256,192,30461,1,8,1:0:0:0:
256,192,30580,1,8,1:0:0:0:
256,192,30698,1,8,1:0:0:0:
256,192,30816,1,4,1:0:0:0:
256,192,31288,1,8,1:0:0:0:
256,192,31642,1,8,1:0:0:0:
256,192,31879,1,8,1:0:0:0:
256,192,31997,1,0,1:0:0:0:
256,192,32233,1,8,1:0:0:0:
256,192,32705,1,0,1:0:0:0:
256,192,32942,1,0,1:0:0:0:
256,192,33178,1,8,1:0:0:0:
279,206,33414,1,0,0:0:0:0:
256,192,33532,1,8,1:0:0:0:
256,192,33768,1,8,1:0:0:0:
256,192,33887,1,0,1:0:0:0:
256,192,34123,1,8,1:0:0:0:
256,192,34595,1,0,1:0:0:0:
256,192,35068,1,8,1:0:0:0:
257,198,35304,1,0,0:0:0:0:
256,192,35422,1,8,1:0:0:0:
256,192,35658,1,8,1:0:0:0:
256,192,35776,1,0,1:0:0:0:
256,192,36013,1,8,1:0:0:0:
256,192,36485,1,0,1:0:0:0:
256,192,36721,1,0,1:0:0:0:
256,192,36957,1,8,1:0:0:0:
236,246,37194,1,0,0:0:0:0:
256,192,37312,1,8,1:0:0:0:
256,192,37548,1,8,1:0:0:0:
256,192,37666,1,0,1:0:0:0:
256,192,37902,1,8,1:0:0:0:
256,192,38020,1,0,1:0:0:0:
256,192,38375,1,0,1:0:0:0:
256,192,38847,1,8,1:0:0:0:
256,196,39083,1,0,0:0:0:0:
256,192,39202,1,8,1:0:0:0:
256,192,39438,1,8,1:0:0:0:
256,192,39556,1,0,1:0:0:0:
256,192,39792,1,8,1:0:0:0:
256,192,40265,1,0,1:0:0:0:
256,192,40501,1,0,1:0:0:0:
256,192,40737,1,8,1:0:0:0:
219,230,40973,1,0,0:0:0:0:
256,192,41091,1,8,1:0:0:0:
256,192,41328,1,8,1:0:0:0:
256,192,41446,1,0,1:0:0:0:
256,192,41682,1,8,1:0:0:0:
256,192,42154,1,0,1:0:0:0:
256,192,42627,1,8,1:0:0:0:
256,197,42863,1,0,0:0:0:0:
256,192,42981,1,8,1:0:0:0:
256,192,43217,1,8,1:0:0:0:
256,192,43335,1,0,1:0:0:0:
256,192,43572,1,8,1:0:0:0:
256,192,44044,1,0,1:0:0:0:
256,192,44280,1,0,1:0:0:0:
256,192,44517,1,8,1:0:0:0:
256,192,44871,1,8,1:0:0:0:
256,192,45107,1,8,1:0:0:0:
256,192,45225,1,0,1:0:0:0:
256,192,45461,1,8,1:0:0:0:
256,192,45580,1,8,1:0:0:0:
256,192,45698,1,8,1:0:0:0:
256,192,45816,1,8,1:0:0:0:
256,192,45934,1,4,1:0:0:0:
256,192,46406,1,8,1:0:0:0:
256,192,46761,1,8,1:0:0:0:
256,192,46997,1,8,1:0:0:0:
256,192,47115,1,0,1:0:0:0:
256,192,47351,1,8,1:0:0:0:
256,192,47509,1,8,1:0:0:0:
256,192,47666,1,8,1:0:0:0:
256,192,47824,1,0,1:0:0:0:
256,192,48060,1,0,1:0:0:0:
256,192,48296,1,8,1:0:0:0:
256,192,48650,1,8,1:0:0:0:
256,192,48887,1,8,1:0:0:0:
256,192,49005,1,0,1:0:0:0:
256,192,49241,1,8,1:0:0:0:
256,192,49477,1,8,1:0:0:0:
256,192,49713,1,0,1:0:0:0:
256,192,50186,1,8,1:0:0:0:
256,192,50540,1,8,1:0:0:0:
256,192,50776,1,8,1:0:0:0:
256,192,50894,1,0,1:0:0:0:
256,192,51131,1,8,1:0:0:0:
256,192,51288,1,8,1:0:0:0:
256,192,51446,1,8,1:0:0:0:
256,192,51603,1,0,1:0:0:0:
256,192,51839,1,0,1:0:0:0:
256,192,52076,1,8,1:0:0:0:
256,192,52430,1,8,1:0:0:0:
256,192,52666,1,8,1:0:0:0:
256,192,52784,1,0,1:0:0:0:
256,192,53020,1,8,1:0:0:0:
256,192,53139,1,0,1:0:0:0:
256,192,53493,1,0,1:0:0:0:
256,192,53965,1,8,1:0:0:0:
256,192,54320,1,8,1:0:0:0:
256,192,54556,1,8,1:0:0:0:
256,192,54674,1,0,1:0:0:0:
256,192,54910,1,8,1:0:0:0:
256,192,55068,1,0,1:0:0:0:
256,192,55225,1,8,1:0:0:0:
256,192,55383,1,0,1:0:0:0:
256,192,55619,1,0,1:0:0:0:
256,192,55855,1,8,1:0:0:0:
256,192,56209,1,8,1:0:0:0:
256,192,56446,1,8,1:0:0:0:
256,192,56564,1,0,1:0:0:0:
256,192,56800,1,8,1:0:0:0:
256,192,57036,1,8,1:0:0:0:
256,192,57272,1,0,1:0:0:0:
256,192,57745,1,8,1:0:0:0:
256,192,58099,1,8,1:0:0:0:
256,192,58335,1,8,1:0:0:0:
256,192,58454,1,0,1:0:0:0:
256,192,58690,1,8,1:0:0:0:
256,192,58926,1,8,1:0:0:0:
256,192,59162,1,0,1:0:0:0:
256,192,59635,1,0,1:0:0:0:
256,192,60107,1,0,1:0:0:0:
256,192,60580,1,0,1:0:0:0:
256,192,61052,1,12,1:0:0:0:
256,192,61524,1,8,1:0:0:0:
256,192,61761,1,0,1:0:0:0:
256,192,61879,1,8,1:0:0:0:
256,192,61997,1,0,1:0:0:0:
256,192,62115,1,8,1:0:0:0:
256,192,62233,1,0,1:0:0:0:
256,192,62469,1,8,1:0:0:0:
256,192,62705,1,0,1:0:0:0:
256,192,62824,1,0,1:0:0:0:
256,192,62942,1,8,1:0:0:0:
256,192,63178,1,0,1:0:0:0:
256,192,63414,1,8,1:0:0:0:
256,192,63650,1,0,1:0:0:0:
256,192,63768,1,0,1:0:0:0:
256,192,63887,1,8,1:0:0:0:
256,192,64005,1,0,1:0:0:0:
256,192,64123,1,8,1:0:0:0:
256,192,64359,1,8,1:0:0:0:
256,192,64595,1,0,1:0:0:0:
256,192,64713,1,0,1:0:0:0:
256,192,64831,1,8,1:0:0:0:
256,192,65304,1,8,1:0:0:0:
256,192,65540,1,8,1:0:0:0:
256,192,65658,1,8,1:0:0:0:
256,192,65776,1,0,1:0:0:0:
256,192,65894,1,8,1:0:0:0:
256,192,66013,1,0,1:0:0:0:
256,192,66249,1,8,1:0:0:0:
256,192,66485,1,0,1:0:0:0:
256,192,66603,1,8,1:0:0:0:
256,192,66721,1,0,1:0:0:0:
256,192,66957,1,0,1:0:0:0:
256,192,67194,1,8,1:0:0:0:
256,192,67430,1,0,1:0:0:0:
256,192,67548,1,8,1:0:0:0:
256,192,67666,1,0,1:0:0:0:
256,192,67784,1,8,1:0:0:0:
256,192,67902,1,0,1:0:0:0:
256,192,68139,1,8,1:0:0:0:
256,192,68257,1,0,1:0:0:0:
256,192,68611,1,4,1:0:0:0:
256,192,69083,1,8,1:0:0:0:
256,192,69320,1,8,1:0:0:0:
256,192,69438,1,0,1:0:0:0:
256,192,69556,1,8,1:0:0:0:
256,192,69674,1,8,1:0:0:0:
256,192,69792,1,0,1:0:0:0:
256,192,70028,1,8,1:0:0:0:
252,191,70146,1,0,1:0:0:0:
256,192,70265,1,8,1:0:0:0:
256,192,70501,1,0,1:0:0:0:
256,192,70737,1,0,1:0:0:0:
256,192,70973,1,8,1:0:0:0:
256,192,71209,1,0,1:0:0:0:
256,192,71328,1,0,1:0:0:0:
256,192,71446,1,8,1:0:0:0:
256,192,71564,1,8,1:0:0:0:
256,192,71682,1,0,1:0:0:0:
256,192,71918,1,8,1:0:0:0:
256,192,72154,1,8,1:0:0:0:
256,192,72272,1,8,1:0:0:0:
256,192,72391,1,0,1:0:0:0:
256,192,72863,1,8,1:0:0:0:
256,192,73099,1,8,1:0:0:0:
256,192,73217,1,8,1:0:0:0:
256,192,73335,1,0,1:0:0:0:
256,192,73454,1,8,1:0:0:0:
256,192,73572,1,0,1:0:0:0:
256,192,73808,1,8,1:0:0:0:
256,192,74044,1,8,1:0:0:0:
256,192,74162,1,8,1:0:0:0:
256,192,74280,1,0,1:0:0:0:
256,192,74517,1,0,1:0:0:0:
256,192,74753,1,8,1:0:0:0:
256,192,74989,1,0,1:0:0:0:
256,192,75107,1,8,1:0:0:0:
256,192,75225,1,0,1:0:0:0:
256,192,75343,1,8,1:0:0:0:
256,192,75461,1,0,1:0:0:0:
256,192,75698,1,8,1:0:0:0:
256,192,75816,1,8,1:0:0:0:
256,192,75934,1,8,1:0:0:0:
256,192,76052,1,8,1:0:0:0:
256,192,76170,1,4,1:0:0:0:
256,192,76642,1,8,1:0:0:0:
256,192,76879,1,8,1:0:0:0:
256,192,76997,1,0,1:0:0:0:
256,192,77115,1,8,1:0:0:0:
256,192,77233,1,8,1:0:0:0:
256,192,77351,1,0,1:0:0:0:
256,192,77587,1,8,1:0:0:0:
256,192,77824,1,8,1:0:0:0:
256,192,77942,1,8,1:0:0:0:
256,192,78060,1,0,1:0:0:0:
256,192,78296,1,0,1:0:0:0:
256,192,78532,1,8,1:0:0:0:
256,192,78768,1,0,1:0:0:0:
256,192,78887,1,0,1:0:0:0:
256,192,79005,1,8,1:0:0:0:
256,192,79123,1,8,1:0:0:0:
256,192,79241,1,0,1:0:0:0:
256,192,79477,1,8,1:0:0:0:
256,192,79713,1,8,1:0:0:0:
256,192,79831,1,8,1:0:0:0:
256,192,79950,1,0,1:0:0:0:
256,192,80422,1,8,1:0:0:0:
256,192,80658,1,0,1:0:0:0:
256,192,80776,1,0,1:0:0:0:
256,192,80894,1,8,1:0:0:0:
256,192,81013,1,0,1:0:0:0:
256,192,81131,1,8,1:0:0:0:
256,192,81367,1,8,1:0:0:0:
256,192,81603,1,8,1:0:0:0:
256,192,81721,1,8,1:0:0:0:
256,192,81839,1,0,1:0:0:0:
256,192,82076,1,0,1:0:0:0:
256,192,82312,1,8,1:0:0:0:
256,192,82548,1,8,1:0:0:0:
256,192,82666,1,8,1:0:0:0:
256,192,82784,1,0,1:0:0:0:
256,192,82902,1,8,1:0:0:0:
256,192,83020,1,0,1:0:0:0:
256,192,83257,1,8,1:0:0:0:
256,192,83375,1,0,1:0:0:0:
256,192,83729,1,12,1:0:0:0:
256,192,84202,1,8,1:0:0:0:
256,192,84438,1,8,1:0:0:0:
256,192,84556,1,8,1:0:0:0:
256,192,84674,1,0,1:0:0:0:
256,192,84792,1,8,1:0:0:0:
256,192,84910,1,0,1:0:0:0:
256,192,85146,1,8,1:0:0:0:
203,132,85265,1,0,0:0:0:0:
256,192,85383,1,8,1:0:0:0:
256,192,85619,1,0,1:0:0:0:
256,192,85855,1,0,1:0:0:0:
256,192,86091,1,8,1:0:0:0:
256,192,86328,1,0,1:0:0:0:
256,192,86446,1,0,1:0:0:0:
256,192,86564,1,8,1:0:0:0:
256,192,86682,1,8,1:0:0:0:
256,192,86800,1,0,1:0:0:0:
256,192,87036,1,8,1:0:0:0:
256,192,87272,1,8,1:0:0:0:
256,192,87391,1,8,1:0:0:0:
256,192,87509,1,0,1:0:0:0:
256,192,87981,1,8,1:0:0:0:
256,192,88217,1,8,1:0:0:0:
256,192,88335,1,8,1:0:0:0:
256,192,88454,1,0,1:0:0:0:
256,192,88572,1,8,1:0:0:0:
256,192,88690,1,0,1:0:0:0:
256,192,88926,1,8,1:0:0:0:
256,192,89162,1,8,1:0:0:0:
256,192,89280,1,8,1:0:0:0:
256,192,89398,1,0,1:0:0:0:
256,192,89635,1,0,1:0:0:0:
256,192,89871,1,8,1:0:0:0:
256,192,90107,1,0,1:0:0:0:
256,192,90225,1,8,1:0:0:0:
256,192,90343,1,0,1:0:0:0:
256,192,90461,1,8,1:0:0:0:
256,192,90580,1,0,1:0:0:0:
256,192,90816,1,8,1:0:0:0:
256,192,90934,1,8,1:0:0:0:
256,192,91052,1,8,1:0:0:0:
256,192,91170,1,8,1:0:0:0:
256,192,91288,1,0,1:0:0:0:
256,192,91642,1,8,1:0:0:0:
256,192,91997,1,0,1:0:0:0:
256,192,92351,1,8,1:0:0:0:
256,192,92705,1,0,1:0:0:0:
256,192,92942,1,8,1:0:0:0:
256,192,93178,1,0,1:0:0:0:
256,192,93532,1,8,1:0:0:0:
256,192,93887,1,0,1:0:0:0:
256,192,94241,1,8,1:0:0:0:
256,192,94595,1,0,1:0:0:0:
256,192,94831,1,8,1:0:0:0:
256,192,95068,1,0,1:0:0:0:
256,192,95422,1,8,1:0:0:0:
256,192,95776,1,0,1:0:0:0:
256,192,96131,1,8,1:0:0:0:
256,192,96485,1,8,1:0:0:0:
256,192,96721,1,8,1:0:0:0:
256,192,96957,1,0,1:0:0:0:
256,192,97312,1,8,1:0:0:0:
256,192,97666,1,0,1:0:0:0:
256,192,97902,1,8,1:0:0:0:
256,192,98139,1,0,1:0:0:0:
256,192,98375,1,8,1:0:0:0:
256,192,98611,1,8,1:0:0:0:
256,192,98847,1,0,1:0:0:0:
260,191,99202,1,8,1:0:0:0:
256,192,99556,1,0,1:0:0:0:
256,192,99910,1,8,1:0:0:0:
256,192,100265,1,0,1:0:0:0:
256,192,100501,1,8,1:0:0:0:
256,192,100737,1,0,1:0:0:0:
256,192,101091,1,8,1:0:0:0:
256,192,101446,1,0,1:0:0:0:
256,192,101800,1,8,1:0:0:0:
256,192,102154,1,0,1:0:0:0:
256,192,102391,1,8,1:0:0:0:
256,192,102627,1,0,1:0:0:0:
256,192,102981,1,8,1:0:0:0:
256,192,103335,1,0,1:0:0:0:
256,192,103690,1,8,1:0:0:0:
256,192,104044,1,0,1:0:0:0:
256,192,104280,1,8,1:0:0:0:
256,192,104517,1,8,1:0:0:0:
256,192,104871,1,0,1:0:0:0:
256,192,105461,1,8,1:0:0:0:
256,192,105580,1,8,1:0:0:0:
256,192,105698,1,8,1:0:0:0:
256,192,105816,1,8,1:0:0:0:
256,192,105934,1,0,1:0:0:0:
256,192,106170,1,8,1:0:0:0:
256,192,106288,1,8,1:0:0:0:
256,192,106406,1,4,1:0:0:0:
256,192,106879,1,8,1:0:0:0:
249,202,106997,1,0,0:0:0:0:
249,202,107115,1,0,0:0:0:0:
256,192,107233,1,8,1:0:0:0:
256,192,107469,1,8,1:0:0:0:
256,192,107587,1,0,1:0:0:0:
256,192,107824,1,8,1:0:0:0:
262,219,108060,1,8,0:0:0:0:
256,192,108178,1,8,1:0:0:0:
256,192,108296,1,0,1:0:0:0:
256,192,108532,1,0,1:0:0:0:
256,192,108768,1,8,1:0:0:0:
206,243,109005,1,0,0:0:0:0:
256,192,109123,1,8,1:0:0:0:
256,192,109359,1,8,1:0:0:0:
256,192,109477,1,0,1:0:0:0:
256,192,109713,1,8,1:0:0:0:
256,192,109950,1,0,1:0:0:0:
256,192,110068,1,0,1:0:0:0:
256,192,110186,1,0,1:0:0:0:
276,204,110422,1,0,0:0:0:0:
256,192,110658,1,8,1:0:0:0:
256,192,110894,1,0,1:0:0:0:
256,192,111013,1,8,1:0:0:0:
256,192,111249,1,8,1:0:0:0:
256,192,111367,1,0,1:0:0:0:
256,192,111603,1,8,1:0:0:0:
256,192,112076,1,0,1:0:0:0:
256,192,112312,1,0,1:0:0:0:
256,192,112548,1,8,1:0:0:0:
260,277,112784,1,0,0:0:0:0:
256,192,112902,1,8,1:0:0:0:
256,192,113139,1,8,1:0:0:0:
256,192,113257,1,0,1:0:0:0:
256,192,113493,1,8,1:0:0:0:
256,192,113611,1,0,1:0:0:0:
256,192,113965,1,4,1:0:0:0:
256,192,114438,1,8,1:0:0:0:
275,206,114556,1,0,0:0:0:0:
275,206,114674,1,0,0:0:0:0:
256,192,114792,1,8,1:0:0:0:
256,192,115028,1,8,1:0:0:0:
256,192,115146,1,0,1:0:0:0:
256,192,115383,1,8,1:0:0:0:
251,203,115619,1,8,0:0:0:0:
256,192,115737,1,8,1:0:0:0:
256,192,115855,1,0,1:0:0:0:
256,192,116091,1,0,1:0:0:0:
256,192,116328,1,8,1:0:0:0:
246,215,116564,1,0,0:0:0:0:
256,192,116682,1,8,1:0:0:0:
256,192,116918,1,8,1:0:0:0:
256,192,117036,1,0,1:0:0:0:
256,192,117272,1,8,1:0:0:0:
256,192,117509,1,0,1:0:0:0:
256,192,117627,1,0,1:0:0:0:
256,192,117745,1,0,1:0:0:0:
268,229,117981,1,0,0:0:0:0:
256,192,118217,1,8,1:0:0:0:
256,192,118454,1,0,1:0:0:0:
256,192,118572,1,8,1:0:0:0:
256,192,118808,1,8,1:0:0:0:
256,192,118926,1,0,1:0:0:0:
256,192,119162,1,8,1:0:0:0:
256,192,119635,1,8,1:0:0:0:
256,192,119753,1,0,1:0:0:0:
256,192,119989,1,8,1:0:0:0:
256,192,120107,1,0,1:0:0:0:
256,192,120343,1,8,1:0:0:0:
256,192,120461,1,0,1:0:0:0:
256,192,120698,1,8,1:0:0:0:
256,192,120816,1,8,1:0:0:0:
256,192,120934,1,8,1:0:0:0:
256,192,121052,1,8,1:0:0:0:
256,192,121288,1,0,1:0:0:0:
256,192,121406,1,0,1:0:0:0:
256,192,121524,1,12,1:0:0:0:
256,192,121997,1,8,1:0:0:0:
261,195,122115,1,0,0:0:0:0:
261,195,122233,1,0,0:0:0:0:
256,192,122351,1,8,1:0:0:0:
256,192,122587,1,8,1:0:0:0:
256,192,122705,1,0,1:0:0:0:
256,192,122942,1,8,1:0:0:0:
199,244,123060,1,8,0:0:0:0:
256,192,123178,1,0,1:0:0:0:
256,192,123296,1,8,1:0:0:0:
256,192,123414,1,0,1:0:0:0:
256,192,123650,1,0,1:0:0:0:
256,192,123887,1,8,1:0:0:0:
306,304,124123,1,0,0:0:0:0:
256,192,124241,1,8,1:0:0:0:
256,192,124477,1,8,1:0:0:0:
256,192,124595,1,0,1:0:0:0:
256,192,124831,1,8,1:0:0:0:
256,192,125068,1,0,1:0:0:0:
256,192,125186,1,0,1:0:0:0:
256,192,125304,1,8,1:0:0:0:
260,234,125540,1,0,0:0:0:0:
256,192,125776,1,8,1:0:0:0:
256,192,126013,1,0,1:0:0:0:
256,192,126131,1,8,1:0:0:0:
256,192,126367,1,8,1:0:0:0:
256,192,126485,1,0,1:0:0:0:
256,192,126721,1,8,1:0:0:0:
256,192,127194,1,0,1:0:0:0:
256,192,127430,1,0,1:0:0:0:
256,192,127666,1,8,1:0:0:0:
264,196,127902,1,0,0:0:0:0:
256,192,128020,1,8,1:0:0:0:
256,192,128257,1,8,1:0:0:0:
256,192,128375,1,0,1:0:0:0:
256,192,128611,1,8,1:0:0:0:
256,192,128729,1,0,1:0:0:0:
256,192,129083,1,4,1:0:0:0:
256,192,129556,1,8,1:0:0:0:
290,222,129674,1,0,0:0:0:0:
290,222,129792,1,0,0:0:0:0:
256,192,129910,1,8,1:0:0:0:
256,192,130146,1,8,1:0:0:0:
256,192,130265,1,0,1:0:0:0:
256,192,130501,1,8,1:0:0:0:
273,177,130619,1,8,0:0:0:0:
256,192,130737,1,0,1:0:0:0:
256,192,130855,1,8,1:0:0:0:
256,192,130973,1,0,1:0:0:0:
256,192,131209,1,0,1:0:0:0:
256,192,131446,1,8,1:0:0:0:
257,199,131682,1,0,0:0:0:0:
256,192,131800,1,8,1:0:0:0:
256,192,132036,1,8,1:0:0:0:
256,192,132154,1,0,1:0:0:0:
256,192,132391,1,8,1:0:0:0:
256,192,132627,1,0,1:0:0:0:
256,192,132745,1,0,1:0:0:0:
256,192,132863,1,0,1:0:0:0:
253,228,133099,1,0,0:0:0:0:
256,192,133335,1,8,1:0:0:0:
256,192,133572,1,0,1:0:0:0:
256,192,133690,1,8,1:0:0:0:
256,192,133926,1,8,1:0:0:0:
256,192,134044,1,0,1:0:0:0:
256,192,134280,1,8,1:0:0:0:
256,192,134753,1,0,1:0:0:0:
256,192,134989,1,0,1:0:0:0:
256,192,135225,1,8,1:0:0:0:
256,192,135461,1,8,1:0:0:0:
256,192,135580,1,8,1:0:0:0:
256,192,135816,1,8,1:0:0:0:
256,192,135934,1,0,1:0:0:0:
256,192,136170,1,8,1:0:0:0:
256,192,136288,1,8,1:0:0:0:
256,192,136406,1,8,1:0:0:0:
256,192,136524,1,8,1:0:0:0:
256,192,136642,1,0,1:0:0:0:
256,192,137351,1,8,1:0:0:0:
256,192,137587,1,8,1:0:0:0:
256,192,137824,1,0,1:0:0:0:
256,192,138060,1,0,1:0:0:0:
256,192,138296,1,8,1:0:0:0:
256,192,138532,1,8,1:0:0:0:
256,192,138768,1,0,1:0:0:0:
256,192,139005,1,0,1:0:0:0:
256,192,139477,1,8,1:0:0:0:
256,192,139950,1,8,1:0:0:0:
256,192,140422,1,0,1:0:0:0:
256,192,141131,1,8,1:0:0:0:
256,192,141367,1,8,1:0:0:0:
256,192,141603,1,0,1:0:0:0:
256,192,141839,1,0,1:0:0:0:
256,192,142076,1,0,1:0:0:0:
256,192,142312,1,8,1:0:0:0:
256,192,142548,1,8,1:0:0:0:
256,192,142784,1,0,1:0:0:0:
256,192,143020,1,0,1:0:0:0:
256,192,143257,1,8,1:0:0:0:
256,192,143493,1,0,1:0:0:0:
256,192,143729,1,8,1:0:0:0:
256,192,144202,1,0,1:0:0:0:
256,192,144910,1,8,1:0:0:0:
256,192,145146,1,8,1:0:0:0:
256,192,145383,1,8,1:0:0:0:
256,192,145619,1,0,1:0:0:0:
256,192,145737,1,0,1:0:0:0:
256,192,145855,1,8,1:0:0:0:
256,192,146091,1,8,1:0:0:0:
256,192,146328,1,0,1:0:0:0:
256,192,146564,1,0,1:0:0:0:
256,192,147036,1,0,1:0:0:0:
256,192,147509,1,8,1:0:0:0:
256,192,147981,1,8,1:0:0:0:
256,192,148454,1,0,1:0:0:0:
256,192,148690,1,0,1:0:0:0:
256,192,148926,1,8,1:0:0:0:
256,192,149162,1,0,1:0:0:0:
256,192,149398,1,8,1:0:0:0:
256,192,149871,1,0,1:0:0:0:
256,192,150343,1,8,1:0:0:0:
256,192,150580,1,0,1:0:0:0:
256,192,150816,1,8,1:0:0:0:
256,192,151052,1,0,1:0:0:0:
256,192,151288,1,8,1:0:0:0:
256,192,151761,1,0,1:0:0:0:
