osu file format v14

[General]
AudioFilename: audio.mp3
AudioLeadIn: 0
PreviewTime: 30986
Countdown: 0
SampleSet: Soft
StackLeniency: 0.2
Mode: 0
LetterboxInBreaks: 0
WidescreenStoryboard: 0

[Editor]
DistanceSpacing: 0.7
BeatDivisor: 4
GridSize: 32
TimelineZoom: 1.4

[Metadata]
Title:devochka-mal'chik
TitleUnicode:девочка-мальчик
Artist:kis-kis
ArtistUnicode:кис-кис
Creator:nemidnight
Version:unrequited love
Source:
Tags:как перестать беспокоиться и начать жить кискис kiskis русский панк рок russian punk rock malchik -_Aqua AqUa_M1X E4pi4mak mizujin seni
BeatmapID:3822375
BeatmapSetID:1859450

[Difficulty]
HPDrainRate:5
CircleSize:4
OverallDifficulty:9
ApproachRate:9.6
SliderMultiplier:2.8
SliderTickRate:1

[Events]
//Background and Video events
0,0,"66918872_p0.jpg",0,0
//Break Periods
2,56927,61638
2,106476,107895
//Storyboard Layer 0 (Background)
//Storyboard Layer 1 (Fail)
//Storyboard Layer 2 (Pass)
//Storyboard Layer 3 (Foreground)
//Storyboard Layer 4 (Overlay)
//Storyboard Sound Samples

[TimingPoints]
986,387.096774193548,4,2,1,60,1,0
7179,-181.818181818181,4,2,1,60,0,0
19566,-156.25,4,2,1,70,0,0
30985,-333.333333333333,4,2,1,77,0,0
31953,-90.9090909090909,4,2,1,90,0,0
56727,-117.647058823529,4,2,1,50,0,0
62921,-181.818181818182,4,2,1,60,0,0
69115,-149.253731343284,4,2,1,70,0,0
81502,-90.9090909090909,4,2,1,90,0,0
106276,-181.818181818181,4,2,1,50,0,0
109373,-113.636363636364,4,2,1,83,0,0
117889,-172.413793103449,4,2,1,83,0,0
118663,-72.4637681159422,4,2,1,90,0,1
120985,-172.413793103449,4,2,1,70,0,0
121760,-72.4637681159422,4,2,1,90,0,1
127179,-172.413793103449,4,2,1,70,0,0
127953,-72.4637681159422,4,2,1,90,0,1
130276,-172.413793103449,4,2,1,90,0,1
131050,-100,4,2,1,50,0,0
141889,-125,4,2,1,77,0,0
143437,-88.4955752212389,4,2,1,90,0,1
162018,-196.078431372549,4,2,1,80,0,0
168211,-250,4,2,1,50,0,0

[Colours]
Combo1 : 128,128,128
Combo2 : 255,128,0

[HitObjects]
453,160,6405,5,8,0:0:0:0:
414,171,6501,1,8,0:0:0:0:
383,145,6598,1,0,3:2:0:0:
387,105,6695,1,0,3:2:0:0:
422,86,6792,1,8,0:0:0:0:
422,86,7179,6,0,P|385:99|334:107,1,77.0000023498536,0|2,3:2|3:2,0:0:0:0:
188,39,7566,2,0,P|240:57|236:157,1,154.000004699707,10|2,0:0|0:0,0:0:0:0:
122,226,8147,1,2,3:2:0:0:
83,101,8340,2,0,P|62:133|63:171,1,77.0000023498536,10|2,0:0|3:2,0:0:0:0:
186,277,8727,6,0,P|177:316|162:361,1,77.0000023498536,0|2,3:2|3:2,0:0:0:0:
306,202,9115,2,0,P|316:260|338:354,1,154.000004699707,10|2,0:0|0:0,0:0:0:0:
429,369,9695,1,2,3:2:0:0:
508,219,9889,2,0,P|468:227|424:243,1,77.0000023498536,10|2,0:0|3:2,0:0:0:0:
377,92,10276,5,0,3:2:0:0:
449,130,10469,1,2,3:2:0:0:
309,195,10663,2,0,B|218:206|270:249|157:270,1,154.000004699707,10|2,0:0|0:0,0:0:0:0:
43,151,11244,1,2,3:2:0:0:
112,87,11437,2,0,P|134:119|133:165,1,77.0000023498536,10|2,0:0|3:2,0:0:0:0:
26,314,11824,6,0,P|4:282|2:244,1,77.0000023498536,0|2,3:2|3:2,0:0:0:0:
140,167,12211,2,0,P|192:176|301:196,1,154.000004699707,8|0,0:0|0:0,0:0:0:0:
367,147,12792,1,2,3:2:0:0:
249,62,12985,1,10,0:0:0:0:
402,16,13179,5,6,3:3:0:0:
402,16,13276,1,4,3:3:0:0:
402,16,13373,2,0,P|441:10|488:-5,1,77.0000023498536,0|2,3:2|3:2,0:0:0:0:
385,156,13760,2,0,P|321:172|256:119,1,154.000004699707,10|2,0:0|0:0,0:0:0:0:
163,0,14340,1,2,3:2:0:0:
18,80,14534,2,0,P|55:68|93:62,1,77.0000023498536,10|2,0:0|3:2,0:0:0:0:
168,131,14921,5,0,3:2:0:0:
23,211,15115,1,0,3:2:0:0:
101,71,15308,2,0,B|77:149|149:124|109:242,1,154.000004699707,10|2,0:0|0:0,0:0:0:0:
188,275,15889,1,2,3:2:0:0:
75,375,16082,2,0,P|36:369|0:359,1,77.0000023498536,10|2,0:0|3:2,0:0:0:0:
188,275,16469,6,0,P|225:265|263:259,1,77.0000023498536,0|0,3:2|3:2,0:0:0:0:
137,117,16856,2,0,P|82:136|75:233,1,154.000004699707,10|2,0:0|0:0,0:0:0:0:
179,272,17437,1,2,3:2:0:0:
256,131,17631,2,0,P|245:88|236:44,1,77.0000023498536,10|2,0:0|3:2,0:0:0:0:
358,91,18018,1,0,3:2:0:0:
279,218,18211,1,2,3:2:0:0:
250,144,18405,6,0,B|341:154|293:190|390:215,1,154.000004699707,8|0,0:0|0:0,0:0:0:0:
512,329,18985,1,2,3:2:0:0:
411,374,19179,2,0,P|421:334|429:284,1,77.0000023498536,10|6,0:0|3:3,0:0:0:0:
437,276,19469,1,4,3:3:0:0:
437,276,19566,6,0,P|386:286|303:296,1,134.4,4|0,3:2|0:0,0:0:0:0:
233,340,19953,1,10,0:0:0:0:
62,280,20147,1,2,0:0:0:0:
54,326,20244,1,0,3:0:0:0:
92,339,20340,2,0,P|81:292|67:247,1,89.6,2|2,0:0|3:2,0:0:0:0:
239,133,20727,1,10,0:0:0:0:
154,58,20921,2,0,P|132:94|130:144,1,89.6,2|0,3:2|3:2,0:0:0:0:
252,219,21308,6,0,P|220:230|193:238,1,44.8,2|0,3:2|0:0,0:0:0:0:
288,76,21502,2,0,P|348:81|388:184,1,179.2,8|0,0:0|0:0,0:0:0:0:
326,248,22082,1,0,3:2:0:0:
506,372,22276,2,0,P|499:329|485:279,1,89.6,8|0,0:0|3:2,0:0:0:0:
485,215,22566,1,0,3:0:0:0:
502,189,22663,5,0,3:2:0:0:
414,28,22856,1,2,3:2:0:0:
388,51,22953,1,0,3:0:0:0:
425,21,23050,2,0,P|469:13|517:-1,1,89.6,10|2,0:0|0:0,0:0:0:0:
307,134,23437,2,0,P|263:121|219:113,1,89.6,2|2,0:0|3:2,0:0:0:0:
57,0,23824,1,10,0:0:0:0:
147,66,24018,1,2,3:2:0:0:
14,217,24211,6,0,P|-5:184|4:130,1,89.6,0|0,3:2|3:2,0:0:0:0:
65,91,24502,1,0,0:0:0:0:
8,131,24598,2,0,B|104:148|48:193|170:224,1,179.2,8|0,0:0|0:0,0:0:0:0:
231,188,25179,1,0,3:2:0:0:
355,256,25373,6,0,P|346:221|344:191,1,44.8,8|0,0:0|0:0,0:0:0:0:
224,96,25566,2,0,P|233:61|235:31,1,44.8,8|0,0:0|0:0,0:0:0:0:
306,0,25760,6,0,P|330:40|419:49,1,134.4
474,6,26147,1,10,0:0:0:0:
487,164,26340,1,2,3:2:0:0:
445,134,26437,1,0,3:0:0:0:
403,146,26534,2,0,P|357:155|312:168,1,89.6,2|2,3:2|3:2,0:0:0:0:
227,238,26921,1,10,0:0:0:0:
371,338,27115,1,2,3:2:0:0:
380,347,27502,6,0,P|388:320|401:284,1,44.8,2|0,3:2|0:0,0:0:0:0:
196,362,27695,2,0,B|110:343|151:295|34:272,1,179.2,8|0,0:0|0:0,0:0:0:0:
188,137,28276,1,0,3:2:0:0:
226,148,28373,1,0,3:0:0:0:
230,186,28469,2,0,P|220:227|204:280,1,89.6,8|0,0:0|3:2,0:0:0:0:
348,377,28856,6,0,P|360:334|371:290,1,89.6,0|0,3:2|3:2,0:0:0:0:
453,210,29244,1,10,0:0:0:0:
329,90,29437,1,2,0:0:0:0:
356,130,29534,1,0,3:0:0:0:
339,83,29631,2,0,P|379:92|427:108,1,89.6,2|2,0:0|3:2,0:0:0:0:
283,10,30018,1,10,0:0:0:0:
216,131,30211,2,0,P|174:142|118:149,1,89.6,2|0,3:2|3:2,0:0:0:0:
469,62,30985,5,2,0:0:0:0:
512,120,31373,1,2,0:0:0:0:
458,170,31566,1,2,0:0:0:0:
507,228,31760,1,2,0:0:0:0:
450,276,31953,6,0,B|366:263|396:319|289:303,1,154.000004699707,6|0,3:2|3:2,0:0:0:0:
129,230,32244,1,0,3:0:0:0:
196,276,32340,2,0,P|205:311|214:362,1,77.0000023498536,10|0,0:0|0:0,0:0:0:0:
321,216,32534,2,0,P|314:178|304:140,1,77.0000023498536
450,276,32727,6,0,B|366:263|396:319|289:303,1,154.000004699707,2|0,0:0|3:2,0:0:0:0:
129,230,33018,1,0,3:0:0:0:
196,276,33114,2,0,P|205:311|214:362,1,77.0000023498536,10|0,0:0|0:0,0:0:0:0:
321,216,33308,2,0,P|325:172|300:136,1,77.0000023498536,0|0,3:2|0:0,0:0:0:0:
187,15,33502,6,0,P|118:44|140:155,1,154.000004699707,2|0,3:2|3:2,0:0:0:0:
244,193,33792,1,0,3:0:0:0:
309,144,33889,2,0,P|346:137|385:125,1,77.0000023498536,8|0,0:0|0:0,0:0:0:0:
274,291,34082,6,0,P|358:307|479:348,1,154.000004699707,2|0,0:0|0:0,0:0:0:0:
88,241,34469,5,2,3:2:0:0:
160,286,34566,1,0,3:0:0:0:
107,351,34663,2,0,P|73:361|22:381,1,77.0000023498536,10|0,0:0|0:0,0:0:0:0:
228,235,34856,2,0,P|263:248|300:259,1,77.0000023498536,2|0,3:2|0:0,0:0:0:0:
119,162,35050,6,0,P|96:103|53:-16,1,154.000004699707,2|0,3:2|3:2,0:0:0:0:
251,46,35340,1,0,3:0:0:0:
181,76,35437,2,0,B|261:83|229:128|327:147,1,154.000004699707,10|0,0:0|0:0,0:0:0:0:
457,77,35727,1,0,3:0:0:0:
475,0,35824,2,0,P|413:10|382:97,1,154.000004699707,2|0,0:0|3:2,0:0:0:0:
443,227,36115,5,0,3:0:0:0:
512,278,36211,2,0,P|515:320|487:364,1,77.0000023498536,10|0,0:0|0:0,0:0:0:0:
367,184,36405,2,0,P|364:142|392:98,1,77.0000023498536,0|0,3:2|0:0,0:0:0:0:
390,303,36598,2,0,B|310:310|342:355|244:374,1,154.000004699707,2|0,3:2|3:2,0:0:0:0:
178,334,36889,5,0,3:0:0:0:
174,324,36985,1,8,0:0:0:0:
223,263,37082,1,0,3:0:0:0:
117,185,37179,2,0,P|58:200|33:311,1,154.000004699707,2|0,0:0|0:0,0:0:0:0:
214,41,37566,5,2,3:2:0:0:
237,108,37663,1,0,3:0:0:0:
269,170,37760,2,0,P|278:125|291:73,1,77.0000023498536,10|0,0:0|0:0,0:0:0:0:
136,0,37953,2,0,P|127:37|119:75,1,77.0000023498536,2|0,3:2|0:0,0:0:0:0:
362,40,38147,6,0,P|326:24|290:11,2,77.0000023498536,2|0|0,3:2|0:0|3:2,0:0:0:0:
512,143,38437,1,0,3:0:0:0:
487,67,38534,2,0,P|464:136|423:246,1,154.000004699707,10|0,0:0|0:0,0:0:0:0:
350,334,38824,1,0,3:0:0:0:
440,359,38921,2,0,P|413:286|389:213,1,154.000004699707,2|0,0:0|3:2,0:0:0:0:
257,117,39211,5,0,3:0:0:0:
333,59,39308,2,0,P|349:91|346:140,1,77.0000023498536,10|0,0:0|0:0,0:0:0:0:
203,199,39502,2,0,P|187:231|190:280,1,77.0000023498536,0|0,3:2|0:0,0:0:0:0:
315,353,39695,2,0,B|403:336|368:299|468:285,1,154.000004699707,2|0,3:2|3:2,0:0:0:0:
499,226,39985,1,0,3:0:0:0:
465,155,40082,1,8,0:0:0:0:
240,325,40276,5,0,3:0:0:0:
265,256,40373,1,0,3:0:0:0:
296,189,40469,2,0,B|203:198|254:235|138:248,1,154.000004699707,2|0,0:0|3:2,0:0:0:0:
89,187,40760,1,0,3:0:0:0:
38,311,40856,2,0,B|20:274|20:274|28:223,1,77.0000023498536,8|0,0:0|0:0,0:0:0:0:
132,61,41050,2,0,B|150:98|150:98|144:133,1,77.0000023498536,0|0,3:2|0:0,0:0:0:0:
249,329,41244,6,0,P|231:262|143:251,2,154.000004699707,2|0|10,3:2|3:2|0:0,0:0:0:0:
319,370,41727,1,0,3:0:0:0:
324,362,41824,1,0,3:0:0:0:
375,303,41921,1,0,3:0:0:0:
436,353,42018,2,0,P|473:361|520:373,1,77.0000023498536
324,233,42211,6,0,P|298:262|292:307,1,77.0000023498536,0|0,3:2|0:0,0:0:0:0:
453,185,42405,2,0,P|440:147|404:120,1,77.0000023498536,8|0,0:0|0:0,0:0:0:0:
273,42,42598,2,0,P|284:87|296:126,1,77.0000023498536,0|0,3:2|0:0,0:0:0:0:
139,193,42792,5,0,3:2:0:0:
136,183,42889,1,0,3:0:0:0:
186,128,42985,1,0,3:2:0:0:
189,118,43082,1,0,3:0:0:0:
128,75,43179,2,0,P|94:86|51:95,1,77.0000023498536,8|0,0:0|0:0,0:0:0:0:
240,213,43373,6,0,B|329:226|282:270|392:294,1,154.000004699707,2|0,0:0|0:0,0:0:0:0:
385,285,43760,2,0,P|401:243|390:205,1,77.0000023498536,2|0,3:2|0:0,0:0:0:0:
489,126,43953,5,10,0:0:0:0:
404,83,44050,1,8,0:0:0:0:
344,39,44147,5,10,0:0:0:0:
257,90,44244,1,8,0:0:0:0:
201,35,44340,6,0,P|136:24|35:6,1,154.000004699707,6|0,3:2|3:2,0:0:0:0:
0,154,44631,1,0,3:0:0:0:
76,209,44727,2,0,P|84:171|91:133,1,77.0000023498536,10|0,0:0|0:0,0:0:0:0:
208,272,44921,2,0,P|199:234|192:196,1,77.0000023498536
201,35,45115,6,0,P|128:21|26:5,1,154.000004699707,2|0,0:0|3:2,0:0:0:0:
0,154,45405,1,0,3:0:0:0:
76,209,45502,2,0,P|82:171|90:134,1,77.0000023498536,10|0,0:0|0:0,0:0:0:0:
208,272,45695,2,0,P|197:236|190:187,1,77.0000023498536,0|0,3:2|0:0,0:0:0:0:
304,111,45889,6,0,B|213:128|261:162|159:184,1,154.000004699707,2|0,3:2|3:2,0:0:0:0:
0,57,46179,1,0,3:0:0:0:
88,20,46276,2,0,P|81:61|70:105,1,77.0000023498536,8|0,0:0|0:0,0:0:0:0:
120,265,46469,2,0,P|95:219|-3:211,1,154.000004699707,2|0,0:0|0:0,0:0:0:0:
213,360,46856,5,2,3:2:0:0:
267,303,46953,1,0,3:0:0:0:
327,349,47050,2,0,P|371:363|409:368,1,77.0000023498536,10|0,0:0|0:0,0:0:0:0:
206,248,47244,2,0,P|168:254|131:266,1,77.0000023498536,2|0,3:2|0:0,0:0:0:0:
330,162,47437,6,0,P|313:96|294:5,1,154.000004699707,2|0,3:2|3:2,0:0:0:0:
377,29,47727,1,0,3:0:0:0:
241,121,47824,2,0,B|155:135|205:170|97:191,1,154.000004699707,10|0,0:0|0:0,0:0:0:0:
107,107,48115,1,0,3:0:0:0:
12,202,48211,2,0,B|98:216|48:251|156:272,1,154.000004699707,2|0,0:0|3:2,0:0:0:0:
222,244,48502,5,0,3:0:0:0:
308,364,48598,2,0,P|321:325|330:273,1,77.0000023498536,10|0,0:0|0:0,0:0:0:0:
238,168,48792,2,0,P|225:129|216:77,1,77.0000023498536,0|0,3:2|0:0,0:0:0:0:
354,5,48985,2,0,P|416:27|414:121,1,154.000004699707,2|0,3:2|3:2,0:0:0:0:
398,260,49276,5,0,3:0:0:0:
371,189,49373,1,8,0:0:0:0:
300,218,49469,1,0,3:0:0:0:
328,289,49566,2,0,B|413:274|394:320|501:307,1,154.000004699707,2|0,0:0|0:0,0:0:0:0:
234,368,49953,5,2,3:2:0:0:
167,342,50050,1,0,3:0:0:0:
104,308,50147,2,0,P|154:299|190:289,1,77.0000023498536,10|0,0:0|0:0,0:0:0:0:
301,144,50340,1,2,3:2:0:0:
234,170,50437,1,0,3:0:0:0:
171,204,50534,6,0,B|263:204|218:256|346:262,1,154.000004699707,2|0,3:2|3:2,0:0:0:0:
455,220,50824,1,0,3:0:0:0:
494,147,50921,2,0,P|486:109|477:63,1,77.0000023498536,10|0,0:0|0:0,0:0:0:0:
319,1,51115,2,0,P|301:32|301:76,1,77.0000023498536
384,210,51308,2,0,P|422:218|466:232,2,77.0000023498536,2|0|0,0:0|0:0|3:2,0:0:0:0:
233,126,51598,5,0,3:0:0:0:
195,199,51695,2,0,P|158:210|120:218,1,77.0000023498536,10|0,0:0|0:0,0:0:0:0:
298,327,51889,2,0,P|286:290|278:252,1,77.0000023498536,0|0,3:2|0:0,0:0:0:0:
117,124,52082,6,0,P|53:145|34:236,2,154.000004699707,2|0|8,3:2|3:2|0:0,0:0:0:0:
340,29,52663,5,0,3:0:0:0:
380,92,52760,1,0,3:0:0:0:
319,136,52856,2,0,P|284:130|245:117,1,77.0000023498536,2|0,0:0|0:0,0:0:0:0:
472,38,53050,2,0,B|486:76|486:76|477:113,1,77.0000023498536,0|0,3:2|0:0,0:0:0:0:
390,254,53244,2,0,B|376:216|376:216|385:179,1,77.0000023498536,8|0,0:0|0:0,0:0:0:0:
512,295,53437,2,0,P|504:338|494:376,1,77.0000023498536,0|0,3:2|0:0,0:0:0:0:
380,172,53631,6,0,B|286:186|337:223|240:250,1,154.000004699707,2|0,3:2|3:2,0:0:0:0:
117,131,53921,1,0,3:0:0:0:
74,198,54018,2,0,P|38:205|-6:218,1,77.0000023498536,10|0,0:0|0:0,0:0:0:0:
99,324,54211,1,0,3:0:0:0:
162,286,54308,1,0,3:0:0:0:
224,336,54405,6,0,P|293:345|408:376,1,154.000004699707,0|0,0:0|3:2,0:0:0:0:
500,256,54695,1,0,3:0:0:0:
434,200,54792,2,0,P|416:240|426:297,1,77.0000023498536,8|0,0:0|0:0,0:0:0:0:
365,124,54985,2,0,P|327:138|285:145,1,77.0000023498536,0|0,3:2|0:0,0:0:0:0:
138,229,55179,5,0,3:2:0:0:
167,164,55276,1,0,3:0:0:0:
105,113,55373,1,0,3:2:0:0:
93,45,55469,1,0,3:0:0:0:
148,0,55566,6,0,P|198:1|235:97,1,154.000004699707,8|0,0:0|0:0,0:0:0:0:
230,249,55856,1,0,3:0:0:0:
154,204,55953,2,0,P|118:219|81:229,1,77.0000023498536
300,289,56147,2,0,P|333:298|373:315,1,77.0000023498536,0|0,3:2|0:0,0:0:0:0:
501,201,56340,2,0,B|513:237|513:237|504:279,1,77.0000023498536,8|0,0:0|0:0,0:0:0:0:
383,143,56534,2,0,B|374:104|374:104|386:68,1,77.0000023498536,0|0,3:2|0:0,0:0:0:0:
455,29,56727,5,0,3:2:0:0:
161,5,62147,5,8,0:0:0:0:
205,144,62340,1,2,3:2:0:0:
114,178,62534,5,10,0:0:0:0:
70,317,62727,1,2,3:2:0:0:
150,364,62921,6,0,P|192:359|241:344,1,77.0000023498536,0|2,3:2|3:2,0:0:0:0:
341,186,63308,2,0,P|290:221|307:314,1,154.000004699707,10|2,0:0|0:0,0:0:0:0:
462,363,63889,1,2,3:2:0:0:
499,213,64082,2,0,P|504:251|512:289,1,77.0000023498536,10|2,0:0|3:2,0:0:0:0:
378,103,64469,5,0,3:2:0:0:
476,62,64663,1,0,3:2:0:0:
341,186,64856,2,0,B|254:192|295:235|194:250,1,154.000004699707,10|2,0:0|0:0,0:0:0:0:
110,200,65437,1,2,3:2:0:0:
168,54,65631,2,0,P|185:81|181:124,1,77.0000023498536,10|2,0:0|3:2,0:0:0:0:
22,230,66018,6,0,P|16:192|34:159,1,77.0000023498536,0|0,3:2|3:2,0:0:0:0:
147,326,66405,2,0,P|210:342|279:277,1,154.000004699707,10|2,0:0|0:0,0:0:0:0:
471,225,66985,1,2,3:2:0:0:
370,198,67179,2,0,P|376:236|387:281,1,77.0000023498536,10|2,0:0|3:2,0:0:0:0:
425,114,67566,5,0,3:2:0:0:
274,201,67760,1,2,3:2:0:0:
389,283,67953,2,0,P|400:221|421:128,1,154.000004699707,8|0,0:0|0:0,0:0:0:0:
512,34,68534,1,2,3:2:0:0:
11,37,69115,6,0,P|47:82|158:65,1,140.699993344574,0|0,3:2|0:0,0:0:0:0:
179,30,69502,1,10,0:0:0:0:
327,70,69695,1,2,0:0:0:0:
332,34,69792,1,0,0:0:0:0:
351,19,69889,2,0,P|359:66|374:112,1,93.7999955630495,2|2,0:0|3:2,0:0:0:0:
501,233,70276,1,10,0:0:0:0:
450,167,70469,2,0,P|442:214|427:260,1,93.7999955630495,2|0,3:2|3:2,0:0:0:0:
286,245,70856,6,0,P|279:222|272:200,1,46.8999977815248,2|0,3:2|0:0,0:0:0:0:
430,266,71050,2,0,B|329:277|387:328|250:340,1,187.599991126099,8|0,0:0|0:0,0:0:0:0:
119,278,71631,1,0,3:2:0:0:
119,278,71727,1,0,0:0:0:0:
119,278,71824,2,0,P|109:310|100:329,1,46.8999977815248,8|0,0:0|0:0,0:0:0:0:
236,225,72018,2,0,P|226:203|220:180,1,46.8999977815248,0|0,3:2|0:0,0:0:0:0:
109,57,72211,6,0,P|96:113|63:221,1,140.699993344574,0|0,3:2|0:0,0:0:0:0:
231,167,72598,2,0,P|250:124|243:79,1,93.7999955630495,10|2,0:0|0:0,0:0:0:0:
187,11,72889,1,0,0:0:0:0:
235,72,72985,2,0,P|291:82|364:101,1,93.7999955630495,2|2,0:0|3:2,0:0:0:0:
467,43,73373,2,0,P|495:35|525:28,1,46.8999977815248,10|0,0:0|0:0,0:0:0:0:
399,157,73566,1,2,3:2:0:0:
399,157,73663,1,0,0:0:0:0:
399,157,73760,1,0,3:2:0:0:
473,226,73953,6,0,P|477:188|492:129,1,93.7999955630495,0|8,3:2|0:0,0:0:0:0:
305,259,74340,2,0,P|299:305|287:350,1,93.7999955630495
464,363,74727,1,0,3:2:0:0:
439,346,74824,1,0,0:0:0:0:
412,369,74921,2,0,P|373:366|320:352,1,93.7999955630495,8|0,0:0|3:2,0:0:0:0:
128,369,75308,6,0,P|170:317|123:247,1,140.699993344574,0|0,3:2|0:0,0:0:0:0:
64,257,75695,1,10,0:0:0:0:
141,86,75889,1,2,0:0:0:0:
150,104,75985,1,0,0:0:0:0:
131,78,76082,2,0,P|102:85|39:108,1,93.7999955630495,2|2,0:0|3:2,0:0:0:0:
261,130,76469,1,10,0:0:0:0:
328,0,76663,2,0,B|349:42|349:42|339:92,1,93.7999955630495,2|0,3:2|3:2,0:0:0:0:
438,193,77050,6,0,P|470:185|501:175,1,46.8999977815248,2|0,3:2|0:0,0:0:0:0:
295,257,77244,2,0,P|238:247|105:214,1,187.599991126099,8|0,0:0|0:0,0:0:0:0:
369,314,77824,1,0,3:2:0:0:
369,314,77921,1,0,3:0:0:0:
369,314,78018,2,0,P|359:350|349:369,1,46.8999977815248,8|0,0:0|0:0,0:0:0:0:
512,302,78211,2,0,P|506:279|497:257,1,46.8999977815248,0|0,3:2|0:0,0:0:0:0:
437,195,78405,5,0,3:2:0:0:
295,257,78598,1,0,3:2:0:0:
419,192,78792,1,10,0:0:0:0:
232,143,78985,1,2,3:0:0:0:
204,144,79082,1,0,3:0:0:0:
184,124,79179,2,0,P|148:116|90:93,1,93.7999955630495,2|2,0:0|3:2,0:0:0:0:
341,22,79566,2,0,P|384:39|430:50,1,93.7999955630495,10|2,0:0|0:0,0:0:0:0:
508,209,79953,5,8,0:0:0:0:
315,293,80147,1,0,3:2:0:0:
380,241,80340,5,0,3:2:0:0:
253,178,80534,1,10,3:3:0:0:
181,283,80727,5,0,3:2:0:0:
213,360,80921,1,2,3:2:0:0:
55,228,81115,5,2,3:2:0:0:
75,152,81308,1,6,3:3:0:0:
226,4,81502,6,0,P|166:29|169:116,1,154.000004699707,6|0,3:2|3:2,0:0:0:0:
299,194,81792,1,0,3:0:0:0:
358,144,81889,2,0,P|398:139|442:127,1,77.0000023498536,10|0,0:0|0:0,0:0:0:0:
227,221,82082,2,0,P|189:211|151:206,1,77.0000023498536
226,4,82276,6,0,P|166:29|169:116,1,154.000004699707,2|0,0:0|3:2,0:0:0:0:
299,194,82566,1,0,3:0:0:0:
358,144,82663,2,0,P|398:139|442:127,1,77.0000023498536,10|0,0:0|0:0,0:0:0:0:
227,221,82856,2,0,P|190:227|151:206,1,77.0000023498536,0|0,3:2|0:0,0:0:0:0:
366,303,83050,6,0,B|454:316|416:351|509:374,1,154.000004699707,2|0,3:2|3:2,0:0:0:0:
285,255,83340,1,0,3:0:0:0:
356,307,83437,2,0,P|365:347|381:387,1,77.0000023498536,8|0,0:0|0:0,0:0:0:0:
242,172,83631,6,0,P|229:248|205:335,1,154.000004699707,2|0,0:0|0:0,0:0:0:0:
450,36,84018,1,2,3:2:0:0:
499,100,84115,1,0,3:0:0:0:
442,157,84211,2,0,P|404:148|354:127,1,77.0000023498536,10|0,0:0|0:0,0:0:0:0:
271,0,84405,2,0,B|282:39|282:39|271:74,1,77.0000023498536,2|0,3:2|0:0,0:0:0:0:
81,129,84598,6,0,P|147:127|192:216,1,154.000004699707,2|0,3:2|3:2,0:0:0:0:
89,322,84889,1,0,3:0:0:0:
34,263,84985,2,0,B|122:277|72:315|198:342,1,154.000004699707,10|0,0:0|0:0,0:0:0:0:
312,219,85276,1,0,3:0:0:0:
257,278,85372,2,0,B|345:264|295:226|421:199,1,154.000004699707,2|0,0:0|3:2,0:0:0:0:
174,165,85663,5,0,3:0:0:0:
244,108,85760,2,0,P|260:142|259:180,1,77.0000023498536,10|0,0:0|0:0,0:0:0:0:
101,72,85953,2,0,P|100:33|116:0,1,77.0000023498536,0|0,3:2|0:0,0:0:0:0:
290,0,86147,2,0,P|357:14|476:39,1,154.000004699707,2|0,3:2|3:2,0:0:0:0:
490,97,86437,5,0,3:0:0:0:
482,108,86534,1,8,0:0:0:0:
415,153,86631,1,0,3:0:0:0:
481,269,86727,2,0,B|455:192|524:186|478:87,1,154.000004699707,2|0,0:0|0:0,0:0:0:0:
280,273,87115,5,2,3:2:0:0:
345,313,87211,1,0,3:0:0:0:
410,353,87308,2,0,P|369:345|323:330,1,77.0000023498536,10|0,0:0|0:0,0:0:0:0:
203,222,87502,2,0,P|162:230|116:245,1,77.0000023498536,2|0,3:2|0:0,0:0:0:0:
307,77,87695,6,0,P|324:111|319:154,2,77.0000023498536,2|0|0,3:2|0:0|3:2,0:0:0:0:
142,55,87985,1,0,3:0:0:0:
55,29,88082,2,0,P|131:17|206:1,1,154.000004699707,10|0,0:0|0:0,0:0:0:0:
242,184,88373,1,0,3:0:0:0:
328,158,88470,2,0,P|252:146|177:130,1,154.000004699707,2|0,0:0|3:2,0:0:0:0:
404,112,88760,5,0,3:0:0:0:
466,242,88856,2,0,B|477:203|477:203|466:160,1,77.0000023498536,10|0,0:0|0:0,0:0:0:0:
319,245,89050,2,0,B|309:280|309:280|320:319,1,77.0000023498536,0|0,3:2|0:0,0:0:0:0:
506,371,89244,6,0,P|489:310|383:317,1,154.000004699707,2|0,3:2|3:2,0:0:0:0:
331,327,89534,1,0,3:0:0:0:
269,372,89631,1,8,0:0:0:0:
28,326,89824,5,0,3:0:0:0:
83,276,89921,1,0,3:0:0:0:
142,231,90018,2,0,B|51:245|94:281|0:301,1,154.000004699707,2|0,0:0|3:2,0:0:0:0:
9,211,90308,1,0,3:0:0:0:
131,137,90405,6,0,P|95:129|39:108,1,77.0000023498536,8|0,0:0|0:0,0:0:0:0:
96,286,90598,2,0,P|60:294|4:315,1,77.0000023498536,0|0,3:2|0:0,0:0:0:0:
230,242,90792,6,0,P|159:226|125:149,2,154.000004699707,2|0|10,3:2|3:2|0:0,0:0:0:0:
331,293,91276,1,0,3:0:0:0:
340,286,91373,1,0,3:0:0:0:
405,236,91469,1,0,3:0:0:0:
453,301,91566,2,0,P|443:338|430:379,1,77.0000023498536
334,190,91760,6,0,P|326:149|341:106,1,77.0000023498536,0|0,3:2|0:0,0:0:0:0:
477,39,91953,2,0,P|486:76|478:113,1,77.0000023498536,8|0,0:0|0:0,0:0:0:0:
328,7,92147,2,0,P|293:17|247:25,1,77.0000023498536,0|0,3:2|0:0,0:0:0:0:
118,158,92340,5,0,3:2:0:0:
123,147,92437,1,0,3:0:0:0:
184,99,92534,1,0,3:2:0:0:
179,88,92631,1,0,3:0:0:0:
118,40,92727,2,0,P|122:73|133:125,1,77.0000023498536,8|0,0:0|0:0,0:0:0:0:
133,308,92921,6,0,P|97:245|11:250,1,154.000004699707,2|0,0:0|0:0,0:0:0:0:
14,253,93308,2,0,P|58:244|106:225,1,77.0000023498536,2|0,3:2|0:0,0:0:0:0:
268,118,93502,5,10,0:0:0:0:
305,208,93598,1,8,0:0:0:0:
239,249,93695,5,10,0:0:0:0:
202,339,93791,1,8,0:0:0:0:
271,375,93889,6,0,B|360:359|316:324|420:309,1,154.000004699707,6|0,3:2|3:2,0:0:0:0:
497,199,94179,1,0,3:0:0:0:
435,142,94276,2,0,P|402:135|357:117,1,77.0000023498536,10|0,0:0|0:0,0:0:0:0:
238,226,94469,2,0,P|205:233|151:251,1,77.0000023498536
271,375,94663,6,0,B|347:364|336:314|424:314,1,154.000004699707,2|0,0:0|3:2,0:0:0:0:
497,199,94953,1,0,3:0:0:0:
435,142,95050,2,0,P|394:132|350:113,1,77.0000023498536,10|0,0:0|0:0,0:0:0:0:
238,226,95244,2,0,P|205:219|160:201,1,77.0000023498536,0|0,3:2|0:0,0:0:0:0:
312,308,95437,2,0,P|408:291|499:263,1,154.000004699707,2|0,3:2|3:2,0:0:0:0:
263,147,95727,5,0,3:0:0:0:
322,94,95824,2,0,P|340:130|338:177,1,77.0000023498536,8|0,0:0|0:0,0:0:0:0:
182,47,96018,2,0,B|92:59|135:97|48:120,1,154.000004699707,2|0,0:0|0:0,0:0:0:0:
324,0,96405,5,2,3:2:0:0:
368,62,96502,1,0,3:0:0:0:
439,36,96598,2,0,P|472:29|519:11,1,77.0000023498536,10|0,0:0|0:0,0:0:0:0:
413,157,96792,2,0,P|426:192|434:230,1,77.0000023498536,2|0,3:2|0:0,0:0:0:0:
511,367,96985,6,0,P|472:315|379:316,1,154.000004699707,2|0,3:2|3:2,0:0:0:0:
322,360,97276,1,0,3:0:0:0:
179,306,97373,2,0,P|227:249|301:249,1,154.000004699707,10|0,0:0|0:0,0:0:0:0:
388,310,97663,1,0,3:0:0:0:
500,242,97760,6,0,P|461:190|368:191,1,154.000004699707,2|0,0:0|3:2,0:0:0:0:
301,249,98050,1,0,3:0:0:0:
202,144,98147,2,0,P|196:106|209:68,1,77.0000023498536,10|0,0:0|0:0,0:0:0:0:
358,0,98340,2,0,P|369:36|363:74,1,77.0000023498536,0|0,3:2|0:0,0:0:0:0:
209,157,98534,6,0,B|115:174|165:204|67:227,1,154.000004699707,2|0,3:2|3:2,0:0:0:0:
248,332,98824,5,0,3:0:0:0:
216,260,98921,1,8,0:0:0:0:
147,300,99018,1,0,3:0:0:0:
178,370,99115,2,0,P|258:347|357:328,1,154.000004699707,2|0,0:0|0:0,0:0:0:0:
482,139,99502,5,2,3:2:0:0:
459,210,99598,1,0,3:0:0:0:
426,275,99695,2,0,P|411:225|404:182,1,77.0000023498536,10|0,0:0|0:0,0:0:0:0:
260,55,99889,1,2,3:2:0:0:
283,126,99985,1,0,3:0:0:0:
316,191,100082,6,0,P|385:199|434:127,1,154.000004699707,2|0,3:2|3:2,0:0:0:0:
323,17,100373,1,0,3:0:0:0:
252,62,100469,2,0,P|213:54|167:34,1,77.0000023498536,10|0,0:0|0:0,0:0:0:0:
427,125,100663,2,0,P|462:110|500:103,1,77.0000023498536
318,266,100856,2,0,P|299:226|309:175,2,77.0000023498536,2|0|0,0:0|0:0|3:2,0:0:0:0:
464,368,101147,5,0,3:0:0:0:
512,308,101244,2,0,P|503:266|496:227,1,77.0000023498536,10|0,0:0|0:0,0:0:0:0:
325,362,101437,2,0,P|334:320|341:281,1,77.0000023498536,0|0,3:2|0:0,0:0:0:0:
195,171,101631,2,0,B|105:186|149:220|58:241,2,154.000004699707,2|0|8,3:2|3:2|0:0,0:0:0:0:
58,0,102211,5,0,3:0:0:0:
0,57,102308,1,0,3:0:0:0:
63,109,102405,2,0,P|106:100|145:84,1,77.0000023498536,2|0,0:0|0:0,0:0:0:0:
283,0,102598,2,0,B|270:34|270:34|283:80,1,77.0000023498536,0|0,3:2|0:0,0:0:0:0:
394,205,102792,2,0,P|407:169|400:128,1,77.0000023498536,8|0,0:0|0:0,0:0:0:0:
263,241,102985,2,0,P|220:250|181:266,1,77.0000023498536,0|0,3:2|0:0,0:0:0:0:
365,330,103179,6,0,P|437:345|519:377,1,154.000004699707,2|0,3:2|3:2,0:0:0:0:
318,179,103469,1,0,3:0:0:0:
263,241,103566,2,0,P|268:280|282:326,1,77.0000023498536,10|0,0:0|0:0,0:0:0:0:
463,167,103760,1,0,3:0:0:0:
512,222,103856,1,0,3:0:0:0:
488,289,103953,6,0,B|395:298|439:340|338:357,1,154.000004699707,0|0,0:0|3:2,0:0:0:0:
186,270,104244,1,0,3:0:0:0:
126,327,104340,2,0,P|95:334|50:353,1,77.0000023498536,8|0,0:0|0:0,0:0:0:0:
72,187,104534,2,0,P|41:180|-4:161,1,77.0000023498536,0|0,3:2|0:0,0:0:0:0:
213,111,104727,5,0,3:2:0:0:
280,145,104824,1,0,3:0:0:0:
349,108,104921,1,0,3:2:0:0:
416,142,105018,1,0,3:0:0:0:
478,108,105115,6,0,P|398:124|311:141,1,154.000004699707,8|0,0:0|0:0,0:0:0:0:
225,54,105405,1,0,3:0:0:0:
153,1,105502,2,0,P|147:34|133:78,1,77.0000023498536
250,186,105695,2,0,P|261:222|268:260,1,77.0000023498536,0|0,3:2|0:0,0:0:0:0:
94,241,105889,2,0,P|82:199|103:148,1,77.0000023498536,8|0,0:0|0:0,0:0:0:0:
186,347,106082,2,0,P|223:354|260:365,1,77.0000023498536,0|0,3:2|0:0,0:0:0:0:
106,374,106276,5,2,0:0:0:0:
15,17,108404,5,0,3:2:0:0:
15,17,108501,1,0,3:2:0:0:
15,17,108598,1,8,0:0:0:0:
99,161,108792,1,8,3:3:0:0:
26,179,108985,1,4,3:3:0:0:
147,97,109179,1,0,3:2:0:0:
88,251,109373,6,0,B|157:240|137:285|247:282,1,123.200003759766,6|2,3:2|0:0,0:0:0:0:
274,240,109663,1,0,3:0:0:0:
213,290,109760,2,0,P|202:226|185:161,1,123.200003759766,2|2,3:2|0:0,0:0:0:0:
355,4,110147,6,0,P|335:34|310:59,1,61.6000018798829,10|0,0:0|0:0,0:0:0:0:
408,145,110340,2,0,P|372:142|337:133,1,61.6000018798829,2|0,0:0|0:0,0:0:0:0:
312,261,110534,2,0,P|296:228|286:194,1,61.6000018798829,2|0,0:0|0:0,0:0:0:0:
163,235,110727,2,0,P|183:205|208:180,1,61.6000018798829,2|0,3:2|0:0,0:0:0:0:
96,57,110921,6,0,P|161:70|225:99,1,123.200003759766,2|10,0:0|0:0,0:0:0:0:
382,52,111211,1,0,3:0:0:0:
328,0,111308,2,0,P|309:66|278:139,1,123.200003759766,2|2,3:2|0:0,0:0:0:0:
453,253,111695,6,0,P|490:245|528:228,1,61.6000018798829,10|0,0:0|0:0,0:0:0:0:
339,376,111889,1,2,3:2:0:0:
272,333,111985,1,0,3:0:0:0:
317,270,112082,2,0,P|354:278|392:295,1,61.6000018798829,2|0,3:2|0:0,0:0:0:0:
202,363,112276,2,0,P|165:371|127:388,1,61.6000018798829,2|0,0:0|0:0,0:0:0:0:
0,285,112469,6,0,P|24:233|110:236,1,123.200003759766,2|2,3:2|0:0,0:0:0:0:
151,287,112760,1,0,3:0:0:0:
91,228,112856,2,0,P|103:199|111:170,1,61.6000018798829,2|0,3:2|0:0,0:0:0:0:
200,99,113050,2,0,P|208:128|220:156,1,61.6000018798829,2|0,0:0|0:0,0:0:0:0:
292,291,113244,6,0,P|270:313|242:325,1,61.6000018798829,10|0,0:0|0:0,0:0:0:0:
273,194,113437,2,0,P|243:186|218:168,1,61.6000018798829,2|0,0:0|0:0,0:0:0:0:
346,130,113631,2,0,P|337:100|340:70,1,61.6000018798829,2|0,0:0|0:0,0:0:0:0:
437,161,113824,2,0,P|458:138|486:126,1,61.6000018798829,2|0,3:2|0:0,0:0:0:0:
432,256,114018,5,2,3:0:0:0:
243,370,114211,1,10,0:0:0:0:
310,343,114308,1,0,3:0:0:0:
379,319,114405,2,0,P|314:307|217:285,1,123.200003759766,2|2,3:2|0:0,0:0:0:0:
117,212,114695,5,0,3:0:0:0:
70,280,114792,2,0,P|74:307|85:347,1,61.6000018798829,10|0,0:0|0:0,0:0:0:0:
208,192,114985,2,0,P|204:219|193:259,1,61.6000018798829,2|0,3:2|0:0,0:0:0:0:
49,91,115179,2,0,P|53:118|64:158,1,61.6000018798829,2|0,0:0|0:0,0:0:0:0:
204,14,115373,1,2,3:2:0:0:
151,63,115469,1,0,3:0:0:0:
208,112,115566,6,0,B|281:125|248:153|337:173,2,123.200003759766,2|2|2,3:2|0:0|3:2,0:0:0:0:
497,9,116147,5,2,0:0:0:0:
438,55,116244,1,0,3:0:0:0:
381,0,116340,2,0,P|330:26|332:99,1,123.200003759766,10|2,0:0|0:0,0:0:0:0:
390,135,116631,1,0,3:0:0:0:
464,251,116727,2,0,P|458:207|454:164,1,61.6000018798829,2|0,0:0|0:0,0:0:0:0:
314,248,116921,2,0,P|308:292|304:335,1,61.6000018798829,2|0,3:2|0:0,0:0:0:0:
492,376,117115,6,0,B|429:354|460:333|380:308,1,123.200003759766,2|10,0:0|0:0,0:0:0:0:
324,235,117405,1,0,3:0:0:0:
380,307,117502,2,0,P|336:342|253:323,1,123.200003759766,2|2,3:2|3:2,0:0:0:0:
18,370,117889,6,0,P|30:339|37:306,1,40.6000012390137,10|0,3:3|0:0,0:0:0:0:
144,257,118082,2,0,P|150:277|158:296,1,40.6000012390137,10|0,3:3|0:0,0:0:0:0:
53,205,118276,2,0,P|65:174|72:141,1,40.6000012390137,6|0,3:3|0:0,0:0:0:0:
102,68,118469,2,0,P|108:88|116:107,1,40.6000012390137,6|0,3:3|0:0,0:0:0:0:
38,23,118663,6,0,P|74:114|333:124,2,386.4000005896,6|2|2,3:2|3:2|3:2,0:0:0:0:
483,24,119824,6,0,P|362:48|195:77,1,289.8000004422,2|0,3:2|0:0,0:0:0:0:
125,85,120211,2,0,P|246:109|413:138,1,289.8000004422,2|0,3:2|0:0,0:0:0:0:
485,140,120598,2,0,P|364:164|197:193,1,289.8000004422,2|0,3:2|0:0,0:0:0:0:
124,191,120985,6,0,P|115:215|116:237,1,40.6000012390137,8|0,3:3|0:0,0:0:0:0:
210,296,121179,2,0,P|193:285|181:270,1,40.6000012390137,4|0,3:3|0:0,0:0:0:0:
288,327,121373,2,0,P|290:347|298:366,1,40.6000012390137,0|0,3:2|0:0,0:0:0:0:
383,259,121567,2,0,P|366:270|355:287,1,40.6000012390137,0|0,3:2|0:0,0:0:0:0:
473,262,121760,6,0,B|239:229|339:184|75:156,2,386.4000005896,6|2|2,3:2|3:2|3:2,0:0:0:0:
360,15,122921,6,0,P|492:51|430:189,1,289.8000004422,2|0,3:2|0:0,0:0:0:0:
388,179,123308,2,0,P|411:49|283:20,1,289.8000004422,2|0,3:2|0:0,0:0:0:0:
209,22,123695,2,0,P|341:58|279:196,1,289.8000004422,2|0,3:2|0:0,0:0:0:0:
249,230,124082,6,0,P|140:176|-1:112,1,193.2000002948,2|0,3:2|0:0,0:0:0:0:
0,139,124373,2,0,P|95:133|192:126,1,193.2000002948,2|0,3:2|0:0,0:0:0:0:
143,178,124663,2,0,P|63:233|21:264,1,96.6000001473999,2|0,3:2|0:0,0:0:0:0:
173,348,124856,6,0,B|144:333|144:333|99:17|99:17|52:-2,2,386.4000005896,6|2|2,3:2|3:2|3:2,0:0:0:0:
0,211,126018,6,0,B|70:195|79:158|224:212|155:271|278:284,1,289.8000004422,2|0,3:2|0:0,0:0:0:0:
340,238,126405,2,0,B|219:215|261:185|116:239|185:298|62:311,1,289.8000004422,2|0,3:2|0:0,0:0:0:0:
6,245,126792,2,0,B|60:215|85:192|230:246|161:305|284:318,1,289.8000004422,2|0,3:2|0:0,0:0:0:0:
345,378,127179,5,8,3:3:0:0:
365,361,127276,1,8,3:3:0:0:
372,335,127373,1,4,3:3:0:0:
367,309,127469,1,4,3:3:0:0:
438,276,127566,5,0,3:2:0:0:
434,256,127663,1,0,3:2:0:0:
420,242,127760,1,0,3:2:0:0:
401,236,127856,1,0,3:2:0:0:
360,173,127953,6,0,B|171:239|171:239|170:245|170:245|-18:316,2,386.4000005896,6|2|2,3:2|3:2|3:2,0:0:0:0:
30,139,129115,6,0,B|51:133|56:111|56:111|36:64|36:64|41:37|74:41|74:41|168:65|168:65|135:70|123:120,1,289.8000004422,2|0,3:2|0:0,0:0:0:0:
116,204,129502,2,0,B|100:188|78:195|78:195|48:236|48:236|22:245|9:214|9:214|-17:121|-17:121|3:147|53:132,1,289.8000004422,2|0,3:2|0:0,0:0:0:0:
130,96,129889,2,0,B|124:117|141:132|141:132|191:138|191:138|212:156|192:183|192:183|125:252|125:252|137:221|99:186,1,289.8000004422,2|0,3:2|0:0,0:0:0:0:
236,0,130276,6,0,P|239:24|250:52,1,40.6000012390137,2|0,3:2|0:0,0:0:0:0:
287,382,130469,2,0,P|292:362|295:342,1,40.6000012390137,0|0,3:2|0:0,0:0:0:0:
308,94,130663,2,0,P|305:118|294:146,1,40.6000012390137,2|0,3:2|0:0,0:0:0:0:
228,296,130856,2,0,P|222:276|219:256,1,40.6000012390137,0|0,3:2|0:0,0:0:0:0:
256,193,131050,5,2,3:2:0:0:
256,193,131437,1,2,0:0:0:0:
256,193,131824,1,2,0:0:0:0:
256,193,132211,1,2,0:0:0:0:
256,193,132598,1,2,0:0:0:0:
256,193,133179,1,2,0:0:0:0:
256,193,133566,1,2,0:0:0:0:
256,193,133760,1,2,0:0:0:0:
256,193,133953,1,2,0:0:0:0:
256,193,134147,1,2,0:0:0:0:
256,193,134534,1,2,0:0:0:0:
256,193,134921,1,2,0:0:0:0:
256,193,135308,1,2,0:0:0:0:
256,193,135695,1,2,0:0:0:0:
256,193,136276,1,2,0:0:0:0:
256,193,136663,1,2,0:0:0:0:
256,193,136856,1,2,0:0:0:0:
256,193,137050,1,2,0:0:0:0:
256,193,137244,1,2,0:0:0:0:
256,193,137631,1,2,0:0:0:0:
256,193,138018,1,2,0:0:0:0:
256,193,138405,1,2,0:0:0:0:
256,193,138792,1,2,0:0:0:0:
256,193,139566,1,2,0:0:0:0:
256,193,140340,1,2,0:0:0:0:
256,193,140727,1,2,0:0:0:0:
26,303,141889,5,8,0:0:0:0:
38,322,141985,1,8,3:3:0:0:
50,340,142082,2,0,P|45:301|40:268,1,56,8|8,3:3|3:3,0:0:0:0:
187,229,142276,5,8,0:0:0:0:
175,248,142372,1,8,3:3:0:0:
163,266,142469,2,0,P|168:227|173:194,1,56,10|8,3:3|3:3,0:0:0:0:
0,60,142663,5,8,0:0:0:0:
69,91,142760,1,8,0:0:0:0:
123,139,142856,5,10,0:0:0:0:
203,96,142953,1,8,0:0:0:0:
256,49,143050,5,10,0:0:0:0:
346,92,143147,1,8,0:0:0:0:
395,152,143244,5,10,0:0:0:0:
493,108,143340,1,8,0:0:0:0:
510,33,143437,6,0,B|421:44|463:90|372:101,1,158.200000482788,6|0,3:2|3:2,0:0:0:0:
200,50,143727,1,0,3:0:0:0:
292,27,143824,2,0,P|279:65|271:104,1,79.100000241394,10|0,0:0|0:0,0:0:0:0:
173,195,144018,2,0,P|181:233|194:271,1,79.100000241394
372,101,144211,6,0,B|463:90|421:44|512:33,1,158.200000482788,2|0,0:0|3:2,0:0:0:0:
200,50,144502,1,0,3:0:0:0:
292,27,144599,2,0,P|279:65|271:104,1,79.100000241394,10|0,0:0|0:0,0:0:0:0:
350,275,144792,2,0,P|370:241|362:183,1,79.100000241394,0|0,3:2|0:0,0:0:0:0:
220,345,144985,6,0,P|157:354|95:271,1,158.200000482788,2|0,3:2|3:2,0:0:0:0:
47,132,145276,1,0,3:0:0:0:
122,104,145373,2,0,P|165:118|218:127,1,79.100000241394,8|0,0:0|0:0,0:0:0:0:
16,238,145566,2,0,P|79:217|212:199,1,158.200000482788,2|0,0:0|0:0,0:0:0:0:
404,34,145953,5,2,3:2:0:0:
386,104,146050,1,0,3:0:0:0:
370,175,146147,2,0,P|363:139|348:86,1,79.100000241394,10|0,0:0|0:0,0:0:0:0:
435,270,146340,2,0,P|471:263|524:248,1,79.100000241394,2|0,3:2|0:0,0:0:0:0:
299,368,146534,6,0,B|208:356|250:310|159:299,1,158.200000482788,2|0,3:2|3:2,0:0:0:0:
0,220,146824,1,0,3:0:0:0:
33,138,146921,2,0,P|82:166|79:265,1,158.200000482788,10|0,0:0|0:0,0:0:0:0:
263,142,147211,1,0,3:0:0:0:
230,60,147308,2,0,P|181:88|184:187,1,158.200000482788,2|0,0:0|3:2,0:0:0:0:
308,287,147598,1,0,3:0:0:0:
377,243,147695,6,0,B|390:202|390:202|378:156,1,79.100000241394,10|0,0:0|0:0,0:0:0:0:
512,70,147889,2,0,P|474:81|426:86,1,79.100000241394,0|0,3:2|0:0,0:0:0:0:
206,49,148082,2,0,P|258:62|373:98,1,158.200000482788,2|0,3:2|3:2,0:0:0:0:
400,170,148373,5,0,3:0:0:0:
392,179,148469,1,8,0:0:0:0:
336,237,148566,1,0,3:0:0:0:
404,350,148663,2,0,P|462:308|453:213,1,158.200000482788,2|0,0:0|0:0,0:0:0:0:
225,239,149050,5,2,3:2:0:0:
283,294,149147,1,0,3:0:0:0:
224,348,149244,2,0,P|189:342|140:319,1,79.100000241394,10|0,0:0|0:0,0:0:0:0:
342,245,149437,2,0,P|378:228|416:221,1,79.100000241394,2|0,3:2|0:0,0:0:0:0:
211,158,149631,6,0,P|206:112|225:75,2,79.100000241394,2|0|0,3:2|0:0|3:2,0:0:0:0:
412,71,149921,1,0,3:0:0:0:
453,141,150018,2,0,B|361:110|409:81|318:65,1,158.200000482788,10|0,0:0|0:0,0:0:0:0:
219,165,150308,1,0,3:0:0:0:
196,244,150405,2,0,B|281:215|242:186|331:167,1,158.200000482788,2|0,0:0|3:2,0:0:0:0:
412,296,150695,5,0,3:0:0:0:
317,366,150792,2,0,P|316:327|336:284,1,79.100000241394,10|0,0:0|0:0,0:0:0:0:
460,164,150985,2,0,P|476:198|474:239,1,79.100000241394,0|0,3:2|0:0,0:0:0:0:
300,185,151179,6,0,B|204:207|263:238|137:269,1,158.200000482788,2|0,3:2|3:2,0:0:0:0:
91,218,151469,1,0,3:0:0:0:
47,288,151566,1,8,0:0:0:0:
0,15,151760,5,0,0:0:0:0:
50,75,151856,1,0,3:0:0:0:
89,141,151953,2,0,P|164:124|255:106,1,158.200000482788,2|0,0:0|3:2,0:0:0:0:
316,49,152244,1,0,3:0:0:0:
392,178,152340,2,0,B|401:137|401:137|386:102,1,79.100000241394,8|0,0:0|0:0,0:0:0:0:
282,247,152534,2,0,P|242:241|203:227,1,79.100000241394,0|0,3:2|0:0,0:0:0:0:
295,366,152727,6,0,P|389:335|379:259,2,158.200000482788,2|0|10,3:2|3:2|0:0,0:0:0:0:
230,329,153211,1,0,3:0:0:0:
223,319,153308,1,0,3:0:0:0:
162,364,153405,1,0,3:0:0:0:
98,318,153502,2,0,P|64:323|13:341,1,79.100000241394
181,199,153695,2,0,P|147:194|96:176,1,79.100000241394,0|0,3:2|0:0,0:0:0:0:
313,289,153889,2,0,P|300:326|294:365,1,79.100000241394,8|0,0:0|0:0,0:0:0:0:
427,198,154082,2,0,P|433:237|445:274,1,79.100000241394,0|0,3:2|0:0,0:0:0:0:
307,118,154276,5,0,3:2:0:0:
317,113,154373,1,0,3:0:0:0:
371,60,154469,1,0,3:2:0:0:
381,65,154566,1,0,3:0:0:0:
443,118,154663,2,0,P|375:131|260:159,1,158.200000482788,8|0,0:0|0:0,0:0:0:0:
194,247,154953,5,0,3:0:0:0:
269,287,155050,2,0,P|276:325|259:366,1,79.100000241394
110,216,155244,2,0,B|94:180|94:180|107:127,1,79.100000241394,0|0,3:2|0:0,0:0:0:0:
203,35,155437,5,8,0:0:0:0:
298,77,155534,1,8,0:0:0:0:
360,29,155631,5,8,0:0:0:0:
455,71,155728,1,8,0:0:0:0:
512,21,155824,6,0,P|447:51|457:148,1,158.200000482788,2|0,3:2|3:2,0:0:0:0:
422,293,156115,1,0,3:0:0:0:
484,237,156211,2,0,B|401:256|442:284|328:316,1,158.200000482788,8|0,0:0|0:0,0:0:0:0:
215,362,156502,5,0,3:0:0:0:
165,292,156598,2,0,P|176:259|184:208,1,79.100000241394,2|0,0:0|0:0,0:0:0:0:
306,129,156792,2,0,P|295:96|287:45,1,79.100000241394,2|0,3:2|0:0,0:0:0:0:
133,0,156985,2,0,P|83:31|96:122,1,158.200000482788,10|0,0:0|3:2,0:0:0:0:
264,239,157276,1,0,3:0:0:0:
196,201,157373,2,0,P|290:186|368:163,2,158.200000482788,2|0|8,3:2|3:2|0:0,0:0:0:0:
168,52,157953,5,0,3:0:0:0:
229,6,158050,1,0,3:0:0:0:
287,52,158147,2,0,P|293:91|306:129,1,79.100000241394,2|0,0:0|0:0,0:0:0:0:
183,215,158341,2,0,P|177:254|164:292,1,79.100000241394,2|0,3:2|0:0,0:0:0:0:
320,372,158534,2,0,P|378:344|365:253,1,158.200000482788,10|0,0:0|3:2,0:0:0:0:
229,129,158824,1,0,3:0:0:0:
311,151,158921,2,0,P|217:166|139:189,2,158.200000482788,2|0|8,3:2|3:2|0:0,0:0:0:0:
308,355,159502,5,0,3:0:0:0:
234,326,159599,1,0,3:0:0:0:
164,292,159696,2,0,P|177:254|183:215,1,79.100000241394,2|0,0:0|0:0,0:0:0:0:
306,129,159890,2,0,P|293:91|287:52,1,79.100000241394,2|0,3:2|0:0,0:0:0:0:
133,0,160082,2,0,P|83:31|96:122,1,158.200000482788,10|0,0:0|3:2,0:0:0:0:
264,239,160373,1,0,3:0:0:0:
196,201,160470,2,0,P|290:186|368:163,1,158.200000482788,2|0,3:2|3:2,0:0:0:0:
509,278,160760,5,0,3:0:0:0:
446,237,160856,1,8,0:0:0:0:
411,304,160953,1,0,3:0:0:0:
472,352,161050,2,0,B|500:274|437:302|466:175,1,158.200000482788
503,114,161340,5,0,3:0:0:0:
396,24,161437,2,0,P|361:33|316:50,1,79.100000241394,0|0,3:2|0:0,0:0:0:0:
156,143,161631,2,0,P|218:137|253:252,1,158.200000482788,8|0,0:0|3:2,0:0:0:0:
372,318,161921,1,0,3:0:0:0:
303,363,162018,6,0,P|264:367|217:383,1,71.400000435791,6|0,3:2|0:0,0:0:0:0:
432,258,162405,2,0,P|466:267|501:270,1,71.400000435791,0|0,3:2|0:0,0:0:0:0:
287,212,162792,6,0,P|294:180|300:157,1,35.7000002178955,10|0,0:0|0:0,0:0:0:0:
315,106,162985,2,0,P|322:74|328:51,1,35.7000002178955,2|0,0:0|0:0,0:0:0:0:
350,2,163179,2,0,P|366:62|382:126,1,107.100000653687,2|0,0:0|0:0,0:0:0:0:
438,159,163566,5,2,0:0:0:0:
260,291,163760,1,8,3:3:0:0:
260,291,163856,1,8,3:3:0:0:
260,291,163953,1,0,3:2:0:0:
349,363,164147,1,0,0:0:0:0:
171,209,164340,6,0,P|153:212|136:216,1,35.7000002178955,10|0,0:0|0:0,0:0:0:0:
242,188,164533,2,0,P|259:183|276:180,1,35.7000002178955,2|0,3:2|0:0,0:0:0:0:
64,239,164727,2,0,P|137:258|193:280,1,107.100000653687,2|0,0:0|0:0,0:0:0:0:
246,306,165115,6,0,P|230:349|221:380,1,71.400000435791,2|0,3:2|0:0,0:0:0:0:
381,209,165502,2,0,P|368:175|357:141,1,71.400000435791,0|0,3:2|0:0,0:0:0:0:
148,11,165889,6,0,P|155:43|161:66,1,35.7000002178955,10|0,0:0|0:0,0:0:0:0:
176,117,166082,2,0,P|183:149|189:172,1,35.7000002178955,2|0,0:0|0:0,0:0:0:0:
211,221,166276,2,0,P|227:161|243:97,1,107.100000653687,2|0,0:0|0:0,0:0:0:0:
307,47,166663,5,2,0:0:0:0:
397,202,166856,2,0,P|438:193|476:173,1,71.400000435791,8|2,0:0|0:0,0:0:0:0:
335,136,167244,5,0,3:2:0:0:
335,136,167340,1,0,3:2:0:0:
335,136,167437,1,10,0:0:0:0:
397,45,167631,1,0,3:2:0:0:
207,148,167824,1,2,3:2:0:0:
441,260,168018,5,8,0:0:0:0:
512,201,168211,6,0,P|484:192|457:178,1,56,2|2,0:0|0:0,0:0:0:0:
415,112,168792,2,0,P|387:121|360:135,2,56,2|2|2,0:0|0:0|0:0,0:0:0:0:
317,198,169566,2,0,P|289:189|262:175,2,56,2|2|2,0:0|0:0|0:0,0:0:0:0:
210,112,170340,1,2,0:0:0:0:
196,120,170534,2,0,P|182:158|174:181,1,56,2|2,0:0|0:0,0:0:0:0:
109,215,170921,2,0,P|99:188|89:162,1,56,2|2,0:0|0:0,0:0:0:0:
24,104,171308,6,0,P|51:101|77:91,1,56,2|2,0:0|0:0,0:0:0:0:
149,123,171889,2,0,P|176:125|202:135,2,56,2|2|2,0:0|0:0|0:0,0:0:0:0:
276,96,172663,2,0,P|303:93|329:83,2,56,2|2|2,0:0|0:0|0:0,0:0:0:0:
392,134,173437,1,2,0:0:0:0:
400,145,173631,2,0,P|408:180|417:205,1,56,2|2,0:0|0:0,0:0:0:0:
486,245,174018,2,0,P|494:218|500:191,1,56,2|2,0:0|0:0,0:0:0:0:
