osu file format v14

[General]
AudioFilename: audio.mp3
AudioLeadIn: 0
PreviewTime: 85318
Countdown: 1
SampleSet: None
StackLeniency: 0.2
Mode: 0
LetterboxInBreaks: 0
WidescreenStoryboard: 0

[Editor]
Bookmarks: 23999
DistanceSpacing: 0.9
BeatDivisor: 4
GridSize: 16
TimelineZoom: 5.599996

[Metadata]
Title:YATA
TitleUnicode:YATA
Artist:kireji
ArtistUnicode:kireji
Creator:Yonaka-
Version:Insane
Source:BMS
Tags:
BeatmapID:1943242
BeatmapSetID:930539

[Difficulty]
HPDrainRate:5
CircleSize:4
OverallDifficulty:9.5
ApproachRate:10
SliderMultiplier:2.5
SliderTickRate:1

[Events]
//Background and Video events
0,0,"Konachan.com - 272088 autumn fate_grand_order fate_(series) horns japanese_clothes kimono kona_(konahana) leaves long_hair thighhighs waifu2x white_hair yellow_eyes.jpg",0,0
//Break Periods
2,22852,23535
2,83851,84534
//Storyboard Layer 0 (Background)
//Storyboard Layer 1 (Fail)
//Storyboard Layer 2 (Pass)
//Storyboard Layer 3 (Foreground)
//Storyboard Sound Samples

[TimingPoints]
-14,333.333,4,2,0,15,1,0
1333,-133.333333333333,4,2,0,15,0,0
14652,-133.333333333333,4,2,0,5,0,0
15985,-133.333333333333,4,2,0,10,0,0
17319,-133.333333333333,4,2,0,15,0,0
19319,-133.333333333333,4,2,0,20,0,0
20652,-133.333333333333,4,2,0,25,0,0
25333,-100,4,2,0,45,0,0
42652,-1000,4,2,0,45,0,0
42985,-100,4,2,0,45,0,0
50916.7,355.556,4,2,0,45,1,0
51005.6,484.848,4,2,0,45,1,0
51126.8,759.494,4,2,0,45,1,0
51316.6,1333.33,4,2,0,45,1,0
52316.6,1333.33,4,2,0,45,1,0
52650,759.494,4,2,0,45,1,0
52839.8,484.848,4,2,0,45,1,0
52961.1,355.556,4,2,0,45,1,0
53049.9,333.333,4,2,0,45,1,0
53299.9,340.426,4,2,0,45,1,0
53385.1,347.826,4,2,0,45,1,0
53472,355.556,4,2,0,45,1,0
53560.9,363.636,4,2,0,45,1,0
53651.8,380.952,4,2,0,45,1,0
53747,390.244,4,2,0,45,1,0
53844.6,400,4,2,0,45,1,0
53944.6,410.256,4,2,0,45,1,0
54047.2,432.432,4,2,0,45,1,0
54155.3,444.444,4,2,0,45,1,0
54266.4,457.143,4,2,0,45,1,0
54380.7,470.588,4,2,0,45,1,0
54498.3,500,4,2,0,45,1,0
54998,-25,4,2,0,45,0,0
55248,-100,4,2,0,45,0,0
56998,-50,4,2,0,45,0,0
58748,-33.3333333333333,4,2,0,45,0,0
58998,-50,4,2,0,45,0,0
67998,-100,4,2,0,45,0,0
71498.3,492.053,4,2,0,45,1,0
71990.4,484.391,4,2,0,45,1,0
72474.8,476.929,4,2,0,45,1,0
72951.7,469.697,4,2,0,45,1,0
73421.4,462.677,4,2,0,45,1,0
73884.1,455.896,4,2,0,45,1,0
74340,449.28,4,2,0,45,1,0
74789.2,442.857,4,2,0,45,1,0
75232.1,436.611,4,2,0,45,1,0
75668.7,430.564,4,2,0,45,1,0
76099.3,424.662,4,2,0,45,1,0
76523.9,418.915,4,2,0,45,1,0
76942.9,413.326,4,2,0,45,1,0
77356.2,407.902,4,2,0,45,1,0
77764.1,402.601,4,2,0,45,1,0
78166.7,397.433,4,2,0,45,1,0
78564.1,392.398,4,2,0,45,1,0
78956.5,387.507,4,2,0,45,1,0
79344,382.719,4,2,0,45,1,0
79726.7,378.046,4,2,0,45,1,0
80104.8,373.487,4,2,0,45,1,0
80478.3,369.054,4,2,0,45,1,0
80847.3,364.706,4,2,0,45,1,0
81212,360.462,4,2,0,45,1,0
81572.5,356.314,4,2,0,45,1,0
81928.8,352.278,4,2,0,45,1,0
82281.1,348.315,4,2,0,45,1,0
82629.4,344.442,4,2,0,45,1,0
82973.8,340.652,4,2,0,45,1,0
83314.5,336.961,4,2,0,45,1,0
83651.5,333.333,4,2,0,45,1,0
84984,-1000,4,2,0,45,0,0
85318,-50,4,2,0,45,0,1
95984,-50,4,2,0,65,0,1
101318,-66.6666666666667,4,2,0,65,0,1
106318,-66.6666666666667,4,2,0,65,0,0

[HitObjects]
63,228,1319,6,0,P|40:222|16:221,1,46.8750017881394,14|0,0:0|0:0,0:0:0:0:
7,211,1485,2,0,P|35:212|105:235,1,93.7500035762788
151,321,1819,2,0,P|133:257|119:127,1,187.500007152558,2|0,0:0|0:0,0:0:0:0:
256,46,2319,2,0,P|238:109|224:239,1,187.500007152558,2|0,0:0|0:0,0:0:0:0:
361,321,2819,2,0,P|343:257|329:127,1,187.500007152558,2|0,0:0|0:0,0:0:0:0:
459,240,3319,2,0,P|431:239|361:216,1,93.7500035762788,2|0,0:0|0:0,0:0:0:0:
329,136,3569,1,2,0:0:0:0:
463,102,3652,2,0,P|397:128|328:135,1,140.625005364418,8|0,0:0|0:0,0:0:0:0:
76,170,3985,6,0,P|170:179|261:202,1,187.500007152558,14|0,0:0|0:0,0:0:0:0:
0,64,4485,2,0,P|93:55|184:32,1,187.500007152558,2|0,0:0|0:0,0:0:0:0:
184,308,4985,6,0,P|93:285|0:277,1,187.500007152558,2|0,0:0|0:0,0:0:0:0:
260,138,5485,2,0,P|169:161|76:169,1,187.500007152558,2|0,0:0|0:0,0:0:0:0:
184,308,5985,6,0,P|230:312|274:329,1,93.7500035762788,2|0,0:0|0:0,0:0:0:0:
354,378,6235,1,2,0:0:0:0:
488,252,6319,2,0,P|423:279|354:286,1,140.625005364418,10|0,0:0|0:0,0:0:0:0:
260,138,6652,5,8,0:0:0:0:
357,158,6735,1,8,0:0:0:0:
261,161,6819,5,8,0:0:0:0:
358,139,6902,1,8,0:0:0:0:
265,183,6985,5,2,0:0:0:0:
272,136,7152,6,0,P|249:227|241:320,1,187.500007152558,2|0,0:0|0:0,0:0:0:0:
376,376,7652,2,0,P|353:285|348:244,1,93.7500035762788,2|0,0:0|0:0,0:0:0:0:
260,181,7985,2,0,P|265:158|272:136,1,46.8750017881394,2|0,0:0|0:0,0:0:0:0:
482,0,8152,2,0,P|459:91|451:184,1,187.500007152558,10|2,0:0|0:0,0:0:0:0:
388,323,8652,6,0,P|410:313|432:306,1,46.8750017881394,2|0,0:0|0:0,0:0:0:0:
274,329,8819,1,8,0:0:0:0:
264,184,8985,6,0,P|285:193|307:200,1,46.8750017881394,8|0,3:0|0:0,0:0:0:0:
142,276,9152,2,0,P|163:266|185:259,1,46.8750017881394,8|0,3:0|0:0,0:0:0:0:
85,357,9319,6,0,P|108:266|116:173,1,187.500007152558,2|0,0:0|0:0,0:0:0:0:
232,0,9819,2,2,P|255:91|263:184,1,187.500007152558,2|0,0:0|0:0,0:0:0:0:
1,228,10319,2,0,P|94:236|185:259,1,187.500007152558,2|0,0:0|0:0,0:0:0:0:
448,152,10819,5,8,0:0:0:0:
423,162,10902,1,8,0:0:0:0:
388,172,10985,1,8,0:0:0:0:
336,182,11068,1,8,0:0:0:0:
263,183,11152,1,8,0:0:0:0:
187,162,11235,1,8,0:0:0:0:
120,106,11319,6,8,P|122:87|127:60,1,46.8750017881394,8|8,3:0|3:0,3:0:0:0:
97,40,11485,2,8,P|102:63|104:87,1,46.8750017881394,8|8,3:0|3:0,3:0:0:0:
8,274,11652,6,8,P|5:250|0:227,1,46.8750017881394,8|8,3:0|3:0,3:0:0:0:
30,246,11818,2,8,P|25:269|23:293,1,46.8750017881394,8|8,3:0|3:0,3:0:0:0:
94,354,11985,5,0,3:0:0:0:
117,351,12068,1,0,3:0:0:0:
140,348,12151,1,0,3:0:0:0:
163,345,12234,1,0,3:0:0:0:
187,342,12318,5,8,0:0:0:0:
97,40,12652,5,8,0:0:0:0:
187,342,13152,5,8,0:0:0:0:
31,137,13319,1,8,0:0:0:0:
295,286,13652,5,8,0:0:0:0:
295,286,14652,5,0,3:0:0:0:
294,282,14735,1,0,3:0:0:0:
293,278,14818,1,0,3:0:0:0:
292,274,14901,1,0,3:0:0:0:
292,270,14985,1,0,3:0:0:0:
291,266,15068,1,0,3:0:0:0:
290,262,15151,1,0,3:0:0:0:
290,259,15235,1,0,3:0:0:0:
289,255,15318,5,0,3:0:0:0:
288,251,15401,1,0,3:0:0:0:
288,247,15485,1,0,3:0:0:0:
287,243,15568,1,0,3:0:0:0:
286,239,15651,1,0,3:0:0:0:
285,235,15736,1,0,3:0:0:0:
284,231,15819,1,0,3:0:0:0:
284,227,15902,1,0,3:0:0:0:
283,223,15986,5,0,3:0:0:0:
282,219,16069,1,0,3:0:0:0:
282,216,16152,1,0,3:0:0:0:
281,212,16236,1,0,3:0:0:0:
280,208,16319,1,0,3:0:0:0:
280,204,16402,1,0,3:0:0:0:
279,200,16486,1,0,3:0:0:0:
278,196,16569,1,0,3:0:0:0:
278,192,16652,5,0,3:0:0:0:
277,188,16735,1,0,3:0:0:0:
277,185,16818,1,0,3:0:0:0:
276,181,16902,1,0,3:0:0:0:
275,177,16985,1,0,3:0:0:0:
275,173,17068,1,0,3:0:0:0:
274,169,17152,1,0,3:0:0:0:
273,165,17235,1,0,3:0:0:0:
272,159,17319,5,8,3:0:0:0:
270,151,17402,1,8,3:0:0:0:
269,144,17485,1,8,3:0:0:0:
269,137,17568,1,8,3:0:0:0:
269,129,17652,1,8,3:0:0:0:
270,122,17735,1,8,3:0:0:0:
272,115,17818,1,8,3:0:0:0:
274,108,17902,1,8,3:0:0:0:
277,101,17985,5,8,3:0:0:0:
280,95,18068,1,8,3:0:0:0:
284,89,18152,1,8,3:0:0:0:
288,83,18235,1,8,3:0:0:0:
293,77,18318,1,8,3:0:0:0:
298,72,18402,1,8,3:0:0:0:
304,68,18485,1,8,3:0:0:0:
310,64,18568,1,8,3:0:0:0:
317,60,18652,5,8,3:0:0:0:
325,57,18735,1,8,3:0:0:0:
334,56,18818,1,8,3:0:0:0:
342,55,18901,1,8,3:0:0:0:
351,55,18985,1,8,3:0:0:0:
360,55,19068,1,8,3:0:0:0:
368,57,19151,1,8,3:0:0:0:
377,59,19235,1,8,3:0:0:0:
385,62,19319,5,8,3:0:0:0:
401,70,19402,1,8,3:0:0:0:
415,81,19485,1,8,3:0:0:0:
425,95,19568,1,8,3:0:0:0:
433,110,19652,1,8,3:0:0:0:
437,127,19735,1,8,3:0:0:0:
437,145,19818,1,8,3:0:0:0:
433,162,19902,1,8,3:0:0:0:
426,178,19985,5,8,3:0:0:0:
408,198,20068,1,8,3:0:0:0:
386,212,20151,1,8,3:0:0:0:
361,220,20234,1,8,3:0:0:0:
335,222,20318,1,8,3:0:0:0:
309,217,20401,1,8,3:0:0:0:
286,206,20484,1,8,3:0:0:0:
266,188,20568,1,8,3:0:0:0:
251,167,20651,5,8,3:0:0:0:
231,137,20735,1,8,3:0:0:0:
205,116,20819,1,8,3:0:0:0:
174,101,20902,1,8,3:0:0:0:
140,94,20985,1,8,3:0:0:0:
107,97,21069,1,8,3:0:0:0:
74,107,21152,1,8,3:0:0:0:
46,126,21235,1,8,3:0:0:0:
24,150,21319,5,8,3:0:0:0:
8,188,21402,1,8,3:0:0:0:
8,230,21485,1,8,3:0:0:0:
23,269,21568,1,8,3:0:0:0:
52,300,21652,1,8,3:0:0:0:
96,316,21735,1,8,3:0:0:0:
142,313,21818,1,8,3:0:0:0:
183,292,21901,1,8,3:0:0:0:
212,256,21985,5,8,3:0:0:0:
257,219,22068,1,8,3:0:0:0:
314,212,22151,1,8,3:0:0:0:
367,237,22234,1,8,3:0:0:0:
396,304,22319,5,8,3:0:0:0:
388,234,22402,1,8,3:0:0:0:
381,164,22485,1,8,3:0:0:0:
374,94,22568,1,8,3:0:0:0:
367,0,22652,5,12,0:1:0:0:
367,0,23985,5,2,0:0:0:0:
323,16,24068,1,0,0:0:0:0:
287,46,24151,1,0,0:0:0:0:
265,87,24234,1,0,0:0:0:0:
265,135,24319,5,2,0:0:0:0:
248,105,24402,1,0,0:0:0:0:
221,82,24485,1,0,0:0:0:0:
189,70,24568,1,0,0:0:0:0:
189,22,24652,5,2,0:0:0:0:
176,45,24735,1,0,0:0:0:0:
156,62,24818,1,0,0:0:0:0:
132,71,24901,1,0,0:0:0:0:
132,118,24985,6,0,P|88:102|25:94,1,93.7500035762788,4|0,0:0|0:0,0:0:0:0:
0,276,25319,5,12,0:0:0:0:
61,266,25402,1,8,3:0:0:0:
123,256,25485,1,8,3:0:0:0:
185,246,25568,1,8,3:0:0:0:
251,312,25652,5,8,0:0:0:0:
312,322,25735,1,8,3:0:0:0:
374,332,25818,1,8,3:0:0:0:
436,342,25901,1,8,3:0:0:0:
502,275,25985,5,8,0:0:0:0:
251,312,26152,2,0,P|273:270|277:236,1,62.5,2|0,0:0|0:0,0:0:0:0:
436,342,26319,5,8,0:0:0:0:
185,246,26485,1,2,0:0:0:0:
436,342,26652,5,12,0:0:0:0:
414,301,26735,1,8,3:0:0:0:
412,254,26818,1,8,3:0:0:0:
432,212,26901,1,8,3:0:0:0:
490,154,26985,5,8,0:0:0:0:
510,112,27068,1,8,3:0:0:0:
509,66,27151,1,8,3:0:0:0:
487,26,27234,1,8,3:0:0:0:
413,65,27319,5,8,0:0:0:0:
382,59,27402,1,8,3:0:0:0:
351,54,27485,1,8,3:0:0:0:
320,49,27568,1,8,3:0:0:0:
262,0,27652,5,8,0:0:0:0:
207,2,27735,1,8,3:0:0:0:
152,11,27819,2,0,L|90:17,1,62.5,8|0,3:0|0:0,0:0:0:0:
25,157,27985,5,8,0:0:0:0:
0,212,28068,1,8,3:0:0:0:
18,271,28151,1,8,3:0:0:0:
71,302,28234,1,8,3:0:0:0:
129,360,28319,5,8,0:0:0:0:
149,336,28402,1,8,3:0:0:0:
174,318,28485,1,8,3:0:0:0:
204,308,28568,1,8,3:0:0:0:
261,365,28652,5,8,0:0:0:0:
316,363,28735,1,8,3:0:0:0:
371,354,28819,2,0,L|433:348,1,62.5,8|0,3:0|0:0,0:0:0:0:
320,49,28985,5,8,0:0:0:0:
204,308,29152,2,0,P|182:266|178:232,1,62.5,8|0,0:0|0:0,0:0:0:0:
317,180,29319,5,8,3:0:0:0:
305,209,29402,1,8,3:0:0:0:
286,233,29485,1,8,3:0:0:0:
260,248,29568,1,8,3:0:0:0:
179,251,29652,5,8,3:0:0:0:
151,236,29735,1,8,3:0:0:0:
129,214,29818,1,8,3:0:0:0:
116,186,29901,1,8,3:0:0:0:
112,104,29985,5,2,0:0:0:0:
114,93,30040,1,2,0:0:0:0:
116,83,30096,1,2,0:0:0:0:
119,73,30151,1,2,0:0:0:0:
121,63,30207,1,2,0:0:0:0:
48,233,30319,5,2,0:0:0:0:
50,244,30374,1,2,0:0:0:0:
52,254,30430,1,2,0:0:0:0:
55,264,30485,1,2,0:0:0:0:
57,274,30541,1,2,0:0:0:0:
59,285,30597,1,2,0:0:0:0:
61,295,30653,5,8,0:0:0:0:
179,251,30763,1,0,1:0:0:0:
13,384,30874,1,0,1:0:0:0:
205,367,30985,6,0,P|190:337|180:279,1,83.3333333333333,8|0,0:0|0:0,0:0:0:0:
257,181,31208,1,0,1:0:0:0:
305,351,31319,6,0,P|323:323|368:285,1,83.3333333333333,8|0,0:0|0:0,0:0:0:0:
463,328,31542,1,0,1:0:0:0:
257,181,31652,6,0,L|360:197,1,83.3333333333333,8|0,0:0|0:0,0:0:0:0:
441,158,31874,1,0,1:0:0:0:
220,71,31985,5,8,0:0:0:0:
301,0,32097,1,0,1:0:0:0:
322,106,32208,1,0,1:0:0:0:
196,140,32319,5,8,0:0:0:0:
149,86,32430,1,0,1:0:0:0:
220,71,32542,1,0,1:0:0:0:
125,155,32652,5,8,0:0:0:0:
0,106,32763,1,8,0:0:0:0:
172,209,32874,1,8,0:0:0:0:
0,330,32985,5,8,0:1:0:0:
101,224,33097,1,8,0:1:0:0:
0,360,33208,1,8,0:1:0:0:
152,282,33319,5,2,0:0:0:0:
183,284,33402,1,0,0:0:0:0:
214,287,33485,1,0,0:0:0:0:
245,290,33568,1,0,0:0:0:0:
276,292,33652,2,0,L|338:297,1,62.5
172,209,33819,5,2,0:0:0:0:
203,211,33902,1,0,0:0:0:0:
234,214,33985,1,0,0:0:0:0:
265,217,34068,1,0,0:0:0:0:
296,219,34152,2,0,L|358:224,1,62.5
192,136,34319,5,2,0:0:0:0:
223,138,34402,1,0,0:0:0:0:
254,141,34485,1,0,0:0:0:0:
285,144,34568,1,0,0:0:0:0:
316,146,34652,6,0,L|378:151,1,62.5,2|0,0:0|0:0,0:0:0:0:
512,34,34819,1,2,0:0:0:0:
438,40,34902,1,2,0:0:0:0:
367,47,34985,1,2,0:0:0:0:
367,47,35069,1,2,0:0:0:0:
367,47,35152,2,0,P|326:24|304:19,1,62.5,2|0,0:0|0:0,0:0:0:0:
5,176,35319,5,8,3:0:0:0:
82,168,35402,1,8,3:0:0:0:
160,161,35485,1,8,3:0:0:0:
238,153,35568,1,8,3:0:0:0:
316,146,35652,5,4,0:0:0:0:
316,146,35985,5,0,1:0:0:0:
76,271,36152,1,0,0:0:0:0:
238,153,36319,5,0,1:0:0:0:
64,61,36485,1,0,0:0:0:0:
158,319,36652,6,0,L|167:256,1,62.5,8|0,0:0|0:0,0:0:0:0:
160,261,36985,6,0,L|169:324,1,62.5,2|0,0:0|0:0,0:0:0:0:
172,311,37319,5,0,1:0:0:0:
285,215,37485,1,0,0:0:0:0:
76,271,37652,5,0,0:0:0:0:
389,325,37819,1,0,1:0:0:0:
0,384,37985,5,8,0:0:0:0:
172,311,38235,5,0,0:0:0:0:
172,311,38319,1,0,1:0:0:0:
23,199,38485,1,0,0:0:0:0:
285,215,38652,5,0,1:0:0:0:
172,311,38819,1,0,0:0:0:0:
468,344,38985,5,0,1:0:0:0:
254,292,39152,1,0,0:0:0:0:
411,282,39319,6,0,L|401:216,1,62.5,8|0,0:0|0:0,0:0:0:0:
412,217,39652,6,0,L|402:283,1,62.5,2|0,0:0|0:0,0:0:0:0:
396,273,39985,5,0,1:0:0:0:
336,141,40152,1,0,1:0:0:0:
336,141,40235,2,0,L|327:207,1,62.5,0|0,1:0|0:0,0:0:0:0:
512,148,40485,1,0,1:0:0:0:
260,59,40652,5,8,0:0:0:0:
260,59,41319,5,2,0:0:0:0:
434,37,41485,1,2,0:0:0:0:
347,48,41652,1,2,0:0:0:0:
206,125,41985,5,2,0:0:0:0:
467,158,42152,2,0,L|534:165,1,62.5,2|8,0:0|0:0,0:0:0:0:
336,141,42318,1,2,0:0:0:0:
336,141,42652,6,0,L|339:162,1,18.75,4|0,0:0|0:0,0:0:0:0:
407,228,42985,5,8,0:0:0:0:
364,246,43068,1,0,0:0:0:0:
317,245,43151,1,0,1:0:0:0:
275,225,43234,1,0,0:0:0:0:
245,189,43319,5,8,0:0:0:0:
191,161,43402,1,0,0:0:0:0:
130,169,43485,1,0,1:0:0:0:
83,210,43568,1,0,0:0:0:0:
87,296,43652,5,8,0:0:0:0:
122,290,43735,1,0,0:0:0:0:
195,338,43819,5,0,1:0:0:0:
230,332,43902,1,0,0:0:0:0:
297,384,43985,5,8,0:0:0:0:
264,323,44068,1,0,0:0:0:0:
280,256,44151,1,0,1:0:0:0:
337,218,44234,1,0,0:0:0:0:
405,227,44318,5,8,0:0:0:0:
397,182,44402,1,0,0:0:0:0:
335,120,44485,5,0,1:0:0:0:
327,75,44569,1,0,0:0:0:0:
387,12,44652,5,8,0:0:0:0:
348,36,44735,1,0,0:0:0:0:
303,48,44818,1,0,1:0:0:0:
256,46,44901,1,0,0:0:0:0:
212,30,44985,1,8,0:0:0:0:
185,20,45069,1,0,0:0:0:0:
156,19,45152,1,0,1:0:0:0:
128,26,45235,1,0,0:0:0:0:
104,41,45319,5,8,0:0:0:0:
106,48,45402,1,0,1:0:0:0:
109,55,45485,1,0,1:0:0:0:
112,62,45568,1,0,1:0:0:0:
90,85,45652,5,2,0:3:0:0:
137,76,45735,1,2,0:3:0:0:
112,100,45819,5,0,1:0:0:0:
109,107,45902,1,0,0:0:0:0:
106,114,45985,1,8,0:0:0:0:
103,121,46068,1,0,0:0:0:0:
100,128,46152,1,0,1:0:0:0:
63,148,46235,5,2,0:3:0:0:
107,160,46319,1,2,0:3:0:0:
78,177,46402,1,2,0:3:0:0:
78,185,46485,2,0,L|96:255,1,62.5,0|0,1:0|0:0,0:0:0:0:
94,359,46652,5,8,0:0:0:0:
162,322,46735,1,8,0:0:0:0:
239,309,46818,1,8,0:0:0:0:
316,319,46901,1,8,0:0:0:0:
386,353,46985,5,8,0:0:0:0:
375,275,47068,1,8,0:0:0:0:
365,198,47151,1,8,0:0:0:0:
355,120,47234,1,8,0:0:0:0:
345,43,47319,5,8,0:0:0:0:
343,56,47374,1,2,0:0:0:0:
341,70,47430,1,2,0:0:0:0:
339,84,47485,1,2,0:0:0:0:
337,98,47541,1,2,0:3:0:0:
336,111,47596,1,2,0:3:0:0:
334,125,47652,5,2,0:3:0:0:
307,116,47707,1,2,0:3:0:0:
280,114,47763,1,2,0:0:0:0:
252,119,47819,1,2,0:0:0:0:
224,124,47874,1,2,0:0:0:0:
197,123,47930,1,2,0:0:0:0:
171,114,47985,5,8,0:0:0:0:
188,233,48097,1,0,0:0:0:0:
205,352,48208,1,0,1:0:0:0:
309,276,48319,5,8,0:0:0:0:
197,231,48430,1,0,0:0:0:0:
291,156,48541,1,0,1:0:0:0:
205,352,48652,6,0,L|197:298,1,41.6666666666667,8|0,0:0|0:0,0:0:0:0:
121,343,48763,2,0,L|113:289,1,41.6666666666667,2|0,3:0|0:0,0:0:0:0:
37,334,48874,2,0,L|29:280,1,41.6666666666667,2|0,3:0|0:0,0:0:0:0:
291,156,48985,5,8,0:0:0:0:
77,189,49097,1,0,0:0:0:0:
303,168,49208,1,0,1:0:0:0:
164,17,49319,5,8,0:0:0:0:
197,231,49431,1,0,0:0:0:0:
153,34,49541,2,0,B|94:21|94:21|67:28,1,83.3333333333333,0|0,1:0|0:0,0:0:0:0:
42,37,49708,5,8,0:0:0:0:
225,95,49819,2,0,L|321:79,1,83.3333333333333,8|0,0:0|0:0,0:0:0:0:
354,16,49985,2,0,L|409:24,1,41.6666666666667,8|0,0:0|0:0,0:0:0:0:
422,27,50097,6,0,B|399:62|399:62|416:157,1,125,2|2,0:3|0:3,0:0:0:0:
452,366,50374,5,8,0:0:0:0:
512,241,50485,1,8,0:0:0:0:
413,143,50597,6,0,P|376:222|445:218,1,166.666666666667,2|2,0:0|0:0,0:0:0:0:
512,241,50944,5,0,1:0:0:0:
433,251,51086,5,2,0:0:0:0:
351,347,51253,5,2,0:0:0:0:
232,288,51427,5,2,0:0:0:0:
107,351,51649,5,2,0:0:0:0:
0,204,51983,5,2,0:0:0:0:
93,243,52316,5,2,0:0:0:0:
232,288,52566,5,2,0:0:0:0:
170,189,52744,5,2,0:0:0:0:
236,162,52900,5,2,0:0:0:0:
280,169,53005,5,2,0:0:0:0:
300,179,53091,5,2,0:0:0:0:
351,347,53299,6,0,L|342:383,1,31.25,12|0,0:0|0:0,0:0:0:0:
436,7,53385,1,4,0:0:0:0:
232,288,53472,5,4,0:0:0:0:
512,133,53747,5,4,0:0:0:0:
170,189,54047,5,4,0:0:0:0:
508,41,54380,5,4,0:0:0:0:
154,369,54623,5,4,0:0:0:0:
154,369,54998,6,0,B|96:325|96:325|416:361,1,250,4|0,0:0|0:0,0:0:0:0:
363,384,55248,6,0,L|451:369,1,62.5,0|0,1:0|0:0,0:0:0:0:
267,239,55498,6,0,P|268:220|271:196,1,31.25,8|0,0:0|0:0,0:0:0:0:
365,253,55623,2,0,P|364:272|361:296,1,31.25,0|0,1:0|0:0,0:0:0:0:
253,219,55748,6,0,P|261:194|274:163,1,31.25,8|0,0:0|0:0,0:0:0:0:
378,272,55873,2,0,P|370:297|357:328,1,31.25,0|0,1:0|0:0,0:0:0:0:
170,189,55998,6,0,P|169:170|166:146,1,31.25,12|0,0:0|0:0,0:0:0:0:
72,203,56123,2,0,P|73:222|76:246,1,31.25,0|0,1:0|0:0,0:0:0:0:
183,169,56248,6,0,P|174:144|162:113,1,31.25,8|0,0:0|0:0,0:0:0:0:
58,222,56373,2,0,P|66:246|78:277,1,31.25,0|0,1:0|0:0,0:0:0:0:
53,87,56498,6,0,L|21:82,1,20.8333333333333,10|0,0:0|0:0,0:0:0:0:
87,57,56581,2,0,L|55:62,1,20.8333333333333,2|0,0:0|0:0,0:0:0:0:
187,113,56664,6,0,L|156:124,1,20.8333333333333,8|0,0:0|0:0,0:0:0:0:
201,70,56747,2,0,L|175:90,1,20.8333333333333,2|0,0:0|0:0,0:0:0:0:
311,68,56831,6,0,L|290:93,1,20.8333333333333,8|0,0:0|0:0,0:0:0:0:
301,23,56914,2,0,L|289:53,1,20.8333333333333,2|0,0:0|0:0,0:0:0:0:
428,17,56998,6,0,P|412:72|398:250,1,125,12|0,0:0|0:0,0:0:0:0:
488,345,57248,1,0,0:0:0:0:
466,252,57373,1,0,0:0:0:0:
301,22,57498,6,0,P|283:83|273:144,1,125,12|0,0:0|0:0,0:0:0:0:
361,351,57748,1,8,0:0:0:0:
400,138,57873,1,8,0:0:0:0:
146,150,57998,6,0,P|156:89|174:29,1,125,12|0,0:0|0:0,0:0:0:0:
466,252,58248,1,8,0:0:0:0:
273,144,58373,1,0,0:0:0:0:
509,111,58498,6,0,P|459:147|399:137,1,125,12|0,0:0|0:0,0:0:0:0:
355,291,58748,2,0,P|282:232|272:140,1,187.500007152558,4|8,0:0|0:0,0:0:0:0:
441,64,58998,6,0,B|390:30|390:30|323:42,1,125,4|0,0:0|0:0,0:0:0:0:
273,144,59248,1,0,0:0:0:0:
273,144,59373,1,0,0:0:0:0:
174,28,59498,6,0,L|184:106,1,62.5,10|0,0:0|0:0,0:0:0:0:
185,167,59623,2,0,L|165:11,1,125,10|0,0:0|0:0,0:0:0:0:
273,144,59873,6,0,L|263:222,1,62.5,10|0,0:0|0:0,0:0:0:0:
262,283,59998,6,0,B|281:231|281:231|412:181,1,125,10|0,0:0|0:0,0:0:0:0:
484,166,60248,1,2,0:0:0:0:
484,166,60373,1,2,0:0:0:0:
352,305,60498,6,0,L|430:315,1,62.5,10|0,0:0|0:0,0:0:0:0:
491,316,60623,2,0,L|335:296,1,125,10|2,0:0|0:0,0:0:0:0:
215,381,60873,1,2,0:0:0:0:
185,167,60998,6,0,L|263:177,1,62.5,8|0,0:0|0:0,0:0:0:0:
262,170,61123,2,0,L|184:160,1,62.5,2|0,0:0|0:0,0:0:0:0:
352,305,61248,6,0,L|274:315,1,62.5,10|0,0:0|0:0,0:0:0:0:
275,308,61373,2,0,L|353:298,1,62.5,2|0,0:0|0:0,0:0:0:0:
491,316,61498,6,0,B|505:255|505:255|465:208,1,125,12|0,0:0|0:0,0:0:0:0:
185,167,61748,2,0,L|312:146,1,125,8|0,0:0|0:0,0:0:0:0:
502,71,61998,6,0,L|424:61,1,62.5,10|0,0:0|0:0,0:0:0:0:
425,68,62123,2,0,L|503:78,1,62.5,2|0,0:0|0:0,0:0:0:0:
308,146,62248,6,0,L|230:136,1,62.5,10|0,0:0|0:0,0:0:0:0:
231,143,62373,2,0,L|309:153,1,62.5,2|0,0:0|0:0,0:0:0:0:
464,207,62498,6,0,L|457:173,12,31.25,2|2|2|2|2|2|2|2|2|2|2|2|2,0:0|0:0|0:0|0:0|0:0|0:0|0:0|0:0|0:0|0:0|0:0|0:0|0:0,0:0:0:0:
308,146,62998,5,10,0:0:0:0:
297,105,63082,1,2,0:0:0:0:
337,94,63165,1,2,0:0:0:0:
348,135,63248,1,2,0:0:0:0:
352,305,63498,5,10,0:0:0:0:
363,264,63582,1,2,0:0:0:0:
323,253,63665,1,2,0:0:0:0:
312,294,63748,1,2,0:0:0:0:
185,167,63997,5,10,0:0:0:0:
145,154,64081,1,2,0:0:0:0:
145,112,64164,1,2,0:0:0:0:
185,99,64247,1,2,0:0:0:0:
209,133,64331,1,2,0:0:0:0:
100,285,64498,5,10,0:0:0:0:
91,302,64581,2,0,L|78:216,1,83.3333333333333,10|0,0:0|0:0,0:0:0:0:
54,13,64748,1,4,0:0:0:0:
91,302,64998,5,12,0:0:0:0:
161,246,65164,1,8,0:0:0:0:
245,278,65331,1,8,0:0:0:0:
87,253,65498,5,12,0:0:0:0:
149,226,65664,1,8,0:0:0:0:
204,266,65831,1,8,0:0:0:0:
92,210,65998,5,12,0:0:0:0:
142,203,66164,1,8,0:0:0:0:
173,242,66331,1,8,0:0:0:0:
102,172,66498,5,12,0:0:0:0:
102,172,66748,1,8,0:0:0:0:
245,278,66998,5,8,0:0:0:0:
223,154,67248,1,2,0:0:0:0:
244,156,67498,1,8,0:0:0:0:
222,280,67748,1,2,0:0:0:0:
194,44,67998,5,8,0:0:0:0:
297,70,68164,1,2,0:0:0:0:
341,61,68248,2,0,L|413:46,1,62.5,8|0,0:0|0:0,0:0:0:0:
508,144,68498,2,0,L|436:129,1,62.5,8|0,0:0|0:0,0:0:0:0:
319,245,68748,5,2,0:0:0:0:
403,216,68873,1,2,0:0:0:0:
296,247,68998,6,0,L|224:232,1,62.5,8|0,0:0|0:0,0:0:0:0:
86,282,69248,2,0,L|158:297,1,62.5,2|0,0:0|0:0,0:0:0:0:
210,146,69498,6,0,L|138:131,1,62.5,8|0,0:0|0:0,0:0:0:0:
53,112,69748,1,2,0:0:0:0:
402,48,69935,5,2,0:0:0:0:
402,48,69998,1,2,0:0:0:0:
246,360,70185,5,2,0:0:0:0:
246,360,70248,1,2,0:0:0:0:
186,32,70435,5,2,0:0:0:0:
186,32,70498,1,10,0:0:0:0:
414,250,70685,5,2,0:0:0:0:
414,250,70748,1,10,0:0:0:0:
86,282,70998,5,4,1:0:0:0:
165,256,71123,1,0,0:0:0:0:
35,221,71248,5,0,0:0:0:0:
197,261,71373,1,8,0:0:0:0:
110,140,71498,5,0,1:0:0:0:
105,66,71621,1,0,0:0:0:0:
163,15,71744,5,8,0:0:0:0:
80,153,71867,1,8,0:0:0:0:
235,52,71990,6,0,L|247:122,1,62.5,4|0,1:0|0:0,1:0:0:0:
75,343,72232,2,0,L|87:273,1,62.5,2|8,0:0|0:0,0:0:0:0:
266,299,72474,5,0,1:0:0:0:
187,354,72594,1,2,0:0:0:0:
75,343,72713,5,8,0:0:0:0:
176,348,72832,1,8,0:0:0:0:
231,283,72951,5,4,1:0:0:0:
231,219,73069,1,0,0:0:0:0:
257,163,73186,5,2,0:0:0:0:
140,223,73303,1,8,0:0:0:0:
300,78,73421,5,0,1:0:0:0:
300,78,73652,5,0,1:0:0:0:
300,78,73768,1,0,1:0:0:0:
361,226,73884,6,0,L|350:162,1,62.5,12|0,0:0|0:0,0:0:0:0:
410,12,74112,2,0,L|399:76,1,62.5,2|8,0:0|0:0,0:0:0:0:
229,353,74340,5,8,0:0:0:0:
131,328,74452,2,0,P|144:299|234:251,1,125,2|0,0:0|0:0,0:0:0:0:
383,323,74789,5,4,1:0:0:0:
313,359,74899,1,0,0:0:0:0:
220,251,75010,5,0,1:0:0:0:
310,345,75121,1,8,0:0:0:0:
454,273,75232,5,0,1:0:0:0:
384,309,75342,1,0,0:0:0:0:
215,172,75450,5,0,1:0:0:0:
161,384,75560,1,0,1:0:0:0:
223,176,75668,6,0,L|213:115,1,62.5,8|0,0:0|0:0,0:0:0:0:
303,46,75883,1,0,0:0:0:0:
318,135,75991,2,0,L|328:74,1,62.5,0|8,1:0|0:0,0:0:0:0:
416,1,76205,1,0,1:0:0:0:
431,90,76313,2,0,L|441:29,1,62.5,8|0,0:0|1:0,0:0:0:0:
223,176,76523,5,8,0:0:0:0:
391,213,76628,1,8,0:0:0:0:
127,222,76733,5,8,0:0:0:0:
318,135,76838,1,2,0:0:0:0:
213,274,76942,5,8,0:0:0:0:
141,125,77046,1,8,0:0:0:0:
131,352,77149,5,8,0:0:0:0:
218,77,77252,1,2,0:0:0:0:
125,375,77356,6,0,L|278:355,1,125,12|0,0:0|0:0,0:0:0:0:
391,213,77662,1,8,0:0:0:0:
213,274,77764,6,8,L|244:276,1,31.25
391,213,77864,2,8,L|359:210,1,31.25
223,283,77965,2,8,L|254:285,1,31.25
401,222,78065,2,8,L|369:219,1,31.25
398,359,78166,5,8,0:0:0:0:
318,135,78365,1,8,0:0:0:0:
398,359,78564,5,8,0:0:0:0:
427,284,78662,1,8,0:0:0:0:
404,364,78760,1,8,0:0:0:0:
433,289,78858,1,8,0:0:0:0:
512,337,78956,6,0,P|522:279|488:209,1,125,4|2,1:0|0:0,0:0:0:0:
318,135,79247,1,8,0:0:0:0:
497,98,79344,6,0,L|428:110,1,62.5,0|2,1:0|0:0,0:0:0:0:
433,289,79535,2,0,L|364:277,1,62.5,2|2,0:0|0:0,0:0:0:0:
157,239,79726,5,4,1:0:0:0:
302,338,79852,1,0,0:0:0:0:
128,260,79978,1,0,1:0:0:0:
318,135,80104,5,8,0:0:0:0:
327,212,80229,1,0,0:0:0:0:
371,278,80353,1,0,1:0:0:0:
488,185,80478,5,8,0:0:0:0:
444,251,80602,1,0,1:0:0:0:
435,328,80727,1,0,1:0:0:0:
327,212,80847,5,8,0:0:0:0:
449,115,80968,1,8,0:0:0:0:
308,53,81090,1,8,0:0:0:0:
371,278,81212,5,4,1:0:0:0:
338,252,81302,1,0,0:0:0:0:
297,244,81392,1,8,0:0:0:0:
258,256,81482,1,0,0:0:0:0:
193,305,81572,5,0,1:0:0:0:
153,316,81661,1,0,0:0:0:0:
112,309,81750,1,8,0:0:0:0:
80,283,81839,1,0,0:0:0:0:
45,212,81928,5,0,1:0:0:0:
51,171,82016,1,0,0:0:0:0:
57,130,82104,1,8,0:0:0:0:
63,89,82193,1,0,0:0:0:0:
39,13,82281,5,0,1:0:0:0:
80,4,82368,1,0,0:0:0:0:
137,61,82455,1,8,0:0:0:0:
178,52,82542,1,0,0:0:0:0:
235,109,82629,5,0,1:0:0:0:
277,114,82716,1,0,0:0:0:0:
317,105,82803,1,8,0:0:0:0:
353,85,82890,1,0,1:0:0:0:
407,28,82973,5,8,0:0:0:0:
401,69,83059,1,0,0:0:0:0:
395,110,83145,1,0,1:0:0:0:
389,152,83231,1,0,0:0:0:0:
333,207,83314,5,0,1:0:0:0:
339,248,83398,1,0,1:0:0:0:
345,289,83482,1,8,0:0:0:0:
351,331,83567,1,0,1:0:0:0:
512,384,83651,5,14,0:0:0:0:
512,384,84984,6,0,L|506:363,1,18.75,2|0,0:0|0:0,0:0:0:0:
375,384,85318,6,0,P|381:259|414:137,1,250,12|0,0:0|0:0,0:0:0:0:
137,384,85651,2,0,P|131:259|98:137,1,250,8|0,0:0|0:0,0:0:0:0:
405,294,85984,6,0,P|432:171|486:57,1,250,8|0,0:0|0:0,0:0:0:0:
107,294,86318,2,0,P|79:171|25:57,1,250,8|0,0:0|0:0,0:0:0:0:
236,130,86568,1,0,1:0:0:0:
162,102,86651,6,0,P|286:95|410:76,1,250,8|0,0:0|0:0,0:0:0:0:
162,282,86984,2,0,P|286:288|410:307,1,250,8|0,0:0|0:0,0:0:0:0:
247,67,87318,6,0,P|368:38|487:0,1,250,8|0,0:0|0:0,0:0:0:0:
247,317,87651,2,0,P|368:345|481:384,1,125,8|0,0:0|0:0,0:0:0:0:
279,90,87818,2,0,P|340:77|401:62,1,125,8|0,0:0|0:0,0:0:0:0:
98,245,87984,6,0,P|131:124|137:0,1,250,12|0,0:0|0:0,0:0:0:0:
413,245,88317,2,0,P|380:124|375:0,1,250,8|0,0:0|0:0,0:0:0:0:
27,324,88650,6,0,P|80:211|107:90,1,250,8|0,0:0|0:0,0:0:0:0:
485,324,88984,2,0,P|432:211|405:90,1,250,8|0,0:0|0:0,0:0:0:0:
279,253,89234,1,0,1:0:0:0:
350,282,89318,6,0,P|225:288|101:307,1,250,8|0,0:0|0:0,0:0:0:0:
350,102,89650,2,0,P|225:95|101:76,1,250,8|0,0:0|0:0,0:0:0:0:
265,317,89984,6,0,P|143:345|24:384,1,250,8|0,0:0|0:0,0:0:0:0:
265,67,90317,2,0,P|143:38|24:0,1,250,8|0,0:0|0:0,0:0:0:0:
137,384,90651,6,0,P|131:259|98:137,1,250,12|0,0:0|0:0,0:0:0:0:
375,384,90984,2,0,P|381:259|413:152,1,125,8|0,0:0|0:0,0:0:0:0:
412,141,91151,2,0,P|470:30|544:-53,1,125,8|0,0:0|0:0,0:0:0:0:
107,294,91317,6,0,P|80:171|26:57,1,250,8|0,0:0|0:0,0:0:0:0:
405,294,91651,5,8,0:0:0:0:
420,212,91734,1,8,0:0:0:0:
447,133,91817,1,8,0:0:0:0:
485,59,91900,1,8,0:0:0:0:
346,72,91984,6,0,P|223:97|98:111,1,250,12|0,0:0|0:0,0:0:0:0:
405,294,92317,2,0,P|341:280|276:273,1,125,8|0,0:0|0:0,0:0:0:0:
122,277,92484,2,0,P|57:285|-5:301,1,125,8|0,0:0|0:0,0:0:0:0:
265,67,92651,6,0,P|143:38|24:0,1,250,8|0,0:0|0:0,0:0:0:0:
306,322,92984,2,0,P|203:345|104:378,1,125,8|0,0:0|0:0,0:0:0:0:
99,110,93151,2,0,P|159:127|220:140,1,125,8|0,0:0|0:0,0:0:0:0:
413,245,93317,6,0,P|380:124|374:0,1,250,8|0,0:0|0:0,0:0:0:0:
98,245,93650,2,0,P|127:135|133:22,1,125,8|0,0:0|0:0,0:0:0:0:
296,187,93818,2,0,P|277:128|265:67,1,125,8|0,0:0|0:0,0:0:0:0:
484,324,93983,6,0,P|431:211|405:90,1,250,8|0,0:0|0:0,0:0:0:0:
26,324,94317,1,8,0:0:0:0:
64,250,94400,1,8,0:0:0:0:
91,171,94483,1,8,0:0:0:0:
106,90,94566,1,8,0:0:0:0:
97,5,94651,5,12,0:0:0:0:
327,221,94818,1,8,0:0:0:0:
26,324,94984,5,8,0:0:0:0:
190,214,95151,1,8,0:0:0:0:
284,370,95318,6,0,L|271:300,1,62.5,10|0,0:0|0:0,0:0:0:0:
283,294,95401,2,0,L|296:364,1,62.5,2|0,0:0|0:0,0:0:0:0:
327,221,95484,6,0,L|314:151,1,62.5,10|0,0:0|0:0,0:0:0:0:
326,145,95567,2,0,L|339:215,1,62.5,2|0,0:0|0:0,0:0:0:0:
368,64,95651,6,0,L|400:71,12,31.25,2|2|2|2|2|2|2|2|2|2|2|2|2,0:0|0:0|0:0|0:0|0:0|0:0|0:0|0:0|0:0|0:0|0:0|0:0|0:0,0:0:0:0:
295,0,95984,6,0,P|236:-1|145:19,1,125,0|0,1:0|0:0,0:0:0:0:
91,171,96151,1,0,0:0:0:0:
326,145,96234,2,0,P|251:117|60:86,1,250,8|0,0:0|0:0,0:0:0:0:
0,257,96484,1,0,1:0:0:0:
53,321,96568,1,0,0:0:0:0:
139,340,96651,2,0,P|197:330|283:295,1,125,0|0,1:0|0:0,0:0:0:0:
506,291,96818,2,0,P|447:281|361:246,1,125,0|8,0:0|0:0,0:0:0:0:
91,171,96984,2,0,P|136:133|193:60,1,125,0|0,1:0|0:0,0:0:0:0:
478,156,97151,2,0,P|432:118|375:45,1,125
263,319,97318,5,0,1:0:0:0:
259,307,97401,1,0,0:0:0:0:
256,295,97484,1,0,0:0:0:0:
253,283,97568,1,8,0:0:0:0:
91,171,97651,5,0,1:0:0:0:
102,174,97734,1,0,0:0:0:0:
114,177,97817,1,8,0:0:0:0:
126,180,97901,1,0,0:0:0:0:
303,95,97984,5,0,1:0:0:0:
295,103,98067,1,0,0:0:0:0:
287,112,98150,1,0,0:0:0:0:
278,121,98234,1,8,0:0:0:0:
217,193,98318,5,0,1:0:0:0:
217,193,98651,5,4,1:0:0:0:
187,107,98734,1,0,0:0:0:0:
241,35,98817,1,0,0:0:0:0:
331,40,98900,1,8,0:0:0:0:
377,118,98985,5,0,1:0:0:0:
358,172,99068,1,0,0:0:0:0:
392,218,99151,1,8,0:0:0:0:
450,215,99234,1,0,0:0:0:0:
479,165,99318,5,0,1:0:0:0:
449,157,99401,1,0,0:0:0:0:
419,165,99484,1,0,0:0:0:0:
398,188,99567,1,8,0:0:0:0:
392,218,99651,1,0,1:0:0:0:
393,225,99734,1,8,0:0:0:0:
395,233,99817,1,8,0:0:0:0:
397,240,99900,1,8,0:0:0:0:
454,307,99984,5,4,1:0:0:0:
483,221,100067,1,2,0:0:0:0:
429,149,100150,1,2,0:0:0:0:
339,154,100233,1,10,0:0:0:0:
294,232,100318,5,0,1:0:0:0:
309,291,100401,1,0,0:0:0:0:
279,332,100484,1,8,0:0:0:0:
221,329,100567,1,0,0:0:0:0:
192,279,100651,5,0,1:0:0:0:
221,271,100734,1,0,0:0:0:0:
251,279,100817,1,0,0:0:0:0:
272,302,100900,1,8,0:0:0:0:
279,332,100984,1,0,1:0:0:0:
277,339,101067,1,0,0:0:0:0:
275,347,101150,1,0,0:0:0:0:
273,354,101233,1,0,0:0:0:0:
306,323,101318,5,12,1:0:0:0:
285,199,101429,1,0,0:0:0:0:
264,75,101540,1,0,0:0:0:0:
345,246,101651,5,8,1:0:0:0:
357,169,101762,1,0,0:0:0:0:
370,93,101873,1,0,0:0:0:0:
454,268,101984,6,0,L|432:134,1,125.000004768372,8|0,1:0|0:0,0:0:0:0:
306,323,102207,1,8,0:0:0:0:
234,276,102318,2,0,P|283:239|344:245,1,125.000004768372,8|0,1:0|0:0,0:0:0:0:
50,110,102540,1,8,0:0:0:0:
9,197,102651,5,8,1:0:0:0:
153,105,102762,1,0,1:0:0:0:
2,27,102873,1,0,1:0:0:0:
234,276,102984,5,8,1:0:0:0:
140,214,103095,1,0,1:0:0:0:
241,162,103206,1,0,1:0:0:0:
306,323,103318,5,8,1:0:0:0:
337,316,103429,1,2,0:0:0:0:
368,310,103540,1,2,0:0:0:0:
439,375,103651,5,8,1:0:0:0:
460,281,103762,1,2,0:0:0:0:
481,187,103873,1,2,0:0:0:0:
368,310,103984,5,12,1:0:0:0:
327,331,104067,1,0,0:0:0:0:
282,344,104150,1,8,1:0:0:0:
235,348,104234,1,0,0:0:0:0:
189,343,104317,1,8,1:0:0:0:
144,328,104400,1,0,0:0:0:0:
103,306,104484,5,8,1:0:0:0:
145,284,104567,1,0,0:0:0:0:
175,249,104650,1,8,1:0:0:0:
190,205,104733,1,0,0:0:0:0:
186,158,104817,1,8,1:0:0:0:
166,116,104900,1,0,0:0:0:0:
131,85,104984,5,8,0:0:0:0:
142,153,105067,1,8,0:0:0:0:
189,204,105150,1,8,0:0:0:0:
257,220,105233,1,8,0:0:0:0:
322,196,105318,6,0,B|373:184|373:184|413:213,1,93.7500035762788,12|0,1:0|0:0,0:0:0:0:
503,71,105484,5,8,1:0:0:0:
433,121,105568,1,0,0:0:0:0:
368,66,105651,5,8,1:0:0:0:
320,29,105734,1,8,1:0:0:0:
274,68,105817,1,8,1:0:0:0:
226,34,105900,1,8,1:0:0:0:
166,116,105984,5,8,1:0:0:0:
116,88,106067,1,8,1:0:0:0:
73,127,106150,1,8,1:0:0:0:
26,95,106233,1,8,1:0:0:0:
0,0,106318,5,14,0:0:0:0:
