osu file format v14

[General]
AudioFilename: audio.mp3
AudioLeadIn: 0
PreviewTime: 53420
Countdown: 0
SampleSet: Normal
StackLeniency: 0.7
Mode: 1
LetterboxInBreaks: 0
WidescreenStoryboard: 0

[Editor]
Bookmarks: 171,10837,21504,32170,42837,53504,96170,98837,109504,120170,141504,162837,173504,184170
DistanceSpacing: 2
BeatDivisor: 2
GridSize: 32
TimelineZoom: 0.6999994

[Metadata]
Title:mango sago
TitleUnicode:mango sago
Artist:kiraku
ArtistUnicode:kiraku
Creator:komasy
Version:Kantan
Source:
Tags:Instrumental Electronic Happy Hardcore mangopop Attack The Music ATKS-0035 Cynplytholowazy
BeatmapID:2481869
BeatmapSetID:1191159

[Difficulty]
HPDrainRate:8
CircleSize:7
OverallDifficulty:3
ApproachRate:10
SliderMultiplier:1.4
SliderTickRate:1

[Events]
//Background and Video events
0,0,"yellow-white-and-gray-background-2340254.jpg",0,0
//Break Periods
2,34837,40170
2,99037,109054
//Storyboard Layer 0 (Background)
//Storyboard Layer 1 (Fail)
//Storyboard Layer 2 (Pass)
//Storyboard Layer 3 (Foreground)
//Storyboard Layer 4 (Overlay)
//Storyboard Sound Samples

[TimingPoints]
171,333.333333333333,4,1,0,80,1,0
10004,-100,4,1,0,60,0,0
10754,-100,4,1,0,80,0,0
32254,-100,4,1,0,40,0,0
42754,-100,4,1,0,80,0,0
53504,-100,4,1,0,90,0,1
64170,-100,4,1,0,90,0,0
66837,-100,4,1,0,90,0,1
74837,-100,4,1,0,90,0,0
77504,-100,4,1,0,90,0,1
85504,-100,4,1,0,90,0,0
86837,-100,4,1,0,90,0,1
96170,-100,4,1,0,90,0,0
96254,-100,4,1,0,50,0,0
98754,-100,4,1,0,80,0,0
141420,-100,4,1,0,40,0,0
142420,-100,4,1,0,80,0,0
144170,-100,4,1,0,90,0,1
162837,-100,4,1,0,90,0,0
184087,-100,4,1,0,55,0,0

[HitObjects]
160,96,171,5,0,0:0:0:0:
160,96,1504,1,0,0:0:0:0:
160,96,2170,1,0,0:0:0:0:
160,96,2837,1,0,0:0:0:0:
160,96,4170,1,0,0:0:0:0:
160,96,4504,1,0,0:0:0:0:
160,96,4837,1,0,0:0:0:0:
160,96,5504,1,0,0:0:0:0:
160,96,6837,1,0,0:0:0:0:
160,96,7504,1,0,0:0:0:0:
160,96,8170,1,0,0:0:0:0:
352,96,8837,1,8,0:0:0:0:
160,288,9504,5,4,0:0:0:0:
160,288,9837,1,4,0:0:0:0:
160,288,10837,1,4,0:0:0:0:
352,96,11504,1,8,0:0:0:0:
160,96,12170,1,0,0:0:0:0:
160,96,12504,1,0,0:0:0:0:
160,96,12837,1,0,0:0:0:0:
160,96,13504,1,0,0:0:0:0:
352,96,14170,1,8,0:0:0:0:
352,96,14504,1,8,0:0:0:0:
160,96,14837,1,0,0:0:0:0:
352,288,15837,1,12,0:0:0:0:
160,96,16170,1,0,0:0:0:0:
352,96,16837,1,8,0:0:0:0:
160,96,17504,1,0,0:0:0:0:
352,96,17837,1,8,0:0:0:0:
160,96,18170,1,0,0:0:0:0:
160,96,18837,1,0,0:0:0:0:
352,96,19504,1,8,0:0:0:0:
160,96,19837,1,0,0:0:0:0:
160,96,20170,1,0,0:0:0:0:
352,288,21170,1,12,0:0:0:0:
160,96,21504,1,0,0:0:0:0:
352,96,22170,1,8,0:0:0:0:
160,96,22837,1,0,0:0:0:0:
160,96,23170,1,0,0:0:0:0:
160,96,23504,1,0,0:0:0:0:
160,96,24170,1,0,0:0:0:0:
352,96,24837,1,8,0:0:0:0:
352,96,25170,1,8,0:0:0:0:
160,96,25504,1,0,0:0:0:0:
352,288,26504,1,12,0:0:0:0:
160,96,26837,1,0,0:0:0:0:
160,96,27504,1,0,0:0:0:0:
160,96,28170,1,0,0:0:0:0:
160,96,28504,1,0,0:0:0:0:
160,96,28837,1,0,0:0:0:0:
160,96,29504,1,0,0:0:0:0:
160,96,30170,1,0,0:0:0:0:
160,96,30504,1,0,0:0:0:0:
352,288,30837,1,12,0:0:0:0:
352,288,31170,1,12,0:0:0:0:
352,96,31837,1,8,0:0:0:0:
160,288,32170,1,4,0:0:0:0:
160,96,41504,12,0,42504,0:0:0:0:
352,96,42837,5,8,0:0:0:0:
352,96,43837,1,8,0:0:0:0:
352,96,44170,1,8,0:0:0:0:
352,96,44837,1,8,0:0:0:0:
352,96,45504,1,8,0:0:0:0:
352,96,45837,1,8,0:0:0:0:
352,96,46170,1,8,0:0:0:0:
352,96,46837,1,8,0:0:0:0:
352,96,47504,1,8,0:0:0:0:
352,96,47837,1,8,0:0:0:0:
352,96,48170,1,8,0:0:0:0:
352,96,49170,1,8,0:0:0:0:
352,96,49504,1,8,0:0:0:0:
352,96,50170,1,8,0:0:0:0:
352,96,50837,1,8,0:0:0:0:
352,96,51170,1,8,0:0:0:0:
352,96,51504,1,8,0:0:0:0:
160,96,52170,12,0,53170,0:0:0:0:
352,288,53504,5,12,0:0:0:0:
160,96,54670,1,0,0:0:0:0:
352,96,55004,1,8,0:0:0:0:
160,96,55337,1,0,0:0:0:0:
160,96,55670,1,0,0:0:0:0:
352,96,56170,1,8,0:0:0:0:
160,96,56837,1,0,0:0:0:0:
352,96,57337,1,8,0:0:0:0:
352,96,57670,1,8,0:0:0:0:
160,96,58004,1,0,0:0:0:0:
160,96,58337,1,0,0:0:0:0:
352,96,58837,1,8,0:0:0:0:
160,96,60004,1,0,0:0:0:0:
352,96,60337,1,8,0:0:0:0:
160,96,60670,1,0,0:0:0:0:
160,96,61004,1,0,0:0:0:0:
352,96,61504,1,8,0:0:0:0:
160,96,62170,1,0,0:0:0:0:
160,96,62670,1,0,0:0:0:0:
352,96,63004,1,8,0:0:0:0:
352,96,63337,1,8,0:0:0:0:
160,96,63670,1,0,0:0:0:0:
352,288,64170,1,12,0:0:0:0:
160,288,65337,1,4,0:0:0:0:
160,288,65670,1,4,0:0:0:0:
160,288,66004,1,4,0:0:0:0:
352,288,66504,1,12,0:0:0:0:
160,288,66837,1,4,0:0:0:0:
160,96,67504,1,0,0:0:0:0:
352,96,68004,1,8,0:0:0:0:
352,96,68337,1,8,0:0:0:0:
352,96,68670,1,8,0:0:0:0:
160,96,69004,1,0,0:0:0:0:
352,96,69504,1,8,0:0:0:0:
352,96,70670,1,8,0:0:0:0:
352,96,71004,1,8,0:0:0:0:
160,96,71337,1,0,0:0:0:0:
160,96,71670,1,0,0:0:0:0:
352,96,72170,1,8,0:0:0:0:
160,96,72837,1,0,0:0:0:0:
160,96,73337,1,0,0:0:0:0:
352,96,73670,1,8,0:0:0:0:
352,96,74004,1,8,0:0:0:0:
160,96,74337,1,0,0:0:0:0:
352,288,74837,5,12,0:0:0:0:
352,288,75504,1,12,0:0:0:0:
160,288,76004,1,4,0:0:0:0:
160,288,76337,1,4,0:0:0:0:
160,288,76670,1,4,0:0:0:0:
352,288,77170,1,12,0:0:0:0:
160,288,77504,1,4,0:0:0:0:
352,96,78670,1,8,0:0:0:0:
352,96,79004,1,8,0:0:0:0:
160,96,79337,1,0,0:0:0:0:
160,96,79670,1,0,0:0:0:0:
352,96,80170,1,8,0:0:0:0:
160,96,81337,1,0,0:0:0:0:
352,96,81670,1,8,0:0:0:0:
160,96,82004,1,0,0:0:0:0:
160,96,82337,1,0,0:0:0:0:
352,96,82837,1,8,0:0:0:0:
160,96,83504,1,0,0:0:0:0:
160,96,84004,1,0,0:0:0:0:
352,96,84337,1,8,0:0:0:0:
352,96,84670,1,8,0:0:0:0:
160,96,85004,1,0,0:0:0:0:
352,288,85504,1,12,0:0:0:0:
160,96,86670,1,0,0:0:0:0:
352,96,87004,1,8,0:0:0:0:
160,96,87337,1,0,0:0:0:0:
160,96,87670,1,0,0:0:0:0:
352,96,88170,1,8,0:0:0:0:
352,96,88837,1,8,0:0:0:0:
352,96,89337,1,8,0:0:0:0:
160,96,89670,1,0,0:0:0:0:
352,96,90004,1,8,0:0:0:0:
160,96,90337,1,0,0:0:0:0:
352,96,90837,1,8,0:0:0:0:
160,96,92004,1,0,0:0:0:0:
352,96,92337,1,8,0:0:0:0:
160,96,92670,1,0,0:0:0:0:
160,96,93170,1,0,0:0:0:0:
352,96,93504,1,8,0:0:0:0:
352,96,94170,1,8,0:0:0:0:
352,96,94670,1,8,0:0:0:0:
352,96,95004,1,8,0:0:0:0:
352,96,95337,1,8,0:0:0:0:
160,288,96170,1,4,0:0:0:0:
160,96,97504,12,0,98504,0:0:0:0:
352,288,98837,5,12,0:0:0:0:
160,96,109504,5,0,0:0:0:0:
352,96,110170,1,8,0:0:0:0:
352,96,111504,1,8,0:0:0:0:
160,96,112170,1,0,0:0:0:0:
352,96,112837,1,8,0:0:0:0:
160,96,113837,1,0,0:0:0:0:
352,96,114170,1,8,0:0:0:0:
160,96,114837,1,0,0:0:0:0:
352,96,115504,1,8,0:0:0:0:
352,96,116837,1,8,0:0:0:0:
160,96,117504,1,0,0:0:0:0:
352,96,118170,1,8,0:0:0:0:
160,96,119170,1,0,0:0:0:0:
352,96,119504,1,8,0:0:0:0:
352,96,120170,1,8,0:0:0:0:
352,96,120837,1,8,0:0:0:0:
160,96,121837,1,0,0:0:0:0:
160,96,122170,1,0,0:0:0:0:
352,96,122837,1,8,0:0:0:0:
352,96,123504,1,8,0:0:0:0:
160,96,124170,1,0,0:0:0:0:
160,96,124504,1,0,0:0:0:0:
160,96,124837,1,0,0:0:0:0:
352,96,125504,1,8,0:0:0:0:
352,96,126170,1,8,0:0:0:0:
160,96,127170,1,0,0:0:0:0:
160,96,127504,1,0,0:0:0:0:
352,96,128170,1,8,0:0:0:0:
352,96,128837,1,8,0:0:0:0:
160,96,129504,1,0,0:0:0:0:
160,96,129837,1,0,0:0:0:0:
160,96,130170,1,0,0:0:0:0:
160,96,130837,1,0,0:0:0:0:
352,96,131504,1,8,0:0:0:0:
160,96,132504,1,0,0:0:0:0:
352,96,132837,1,8,0:0:0:0:
160,96,133504,1,0,0:0:0:0:
352,96,134170,1,8,0:0:0:0:
352,96,134837,1,8,0:0:0:0:
160,96,135170,1,0,0:0:0:0:
352,96,135504,1,8,0:0:0:0:
160,288,136170,1,4,0:0:0:0:
352,96,136837,1,8,0:0:0:0:
352,96,137170,1,8,0:0:0:0:
160,96,137504,1,0,0:0:0:0:
160,96,138170,1,0,0:0:0:0:
311,123,138837,2,0,L|388:73,6,70
352,96,140170,1,8,0:0:0:0:
160,96,140504,1,0,0:0:0:0:
352,96,140837,1,8,0:0:0:0:
352,96,141170,1,8,0:0:0:0:
160,288,142670,1,4,0:0:0:0:
160,288,143004,1,4,0:0:0:0:
160,288,143337,1,4,0:0:0:0:
352,288,143837,1,12,0:0:0:0:
160,288,144170,1,4,0:0:0:0:
160,96,144837,1,0,0:0:0:0:
352,96,145337,1,8,0:0:0:0:
352,96,145670,1,8,0:0:0:0:
160,96,146004,1,0,0:0:0:0:
160,96,146337,1,0,0:0:0:0:
352,96,146837,1,8,0:0:0:0:
352,96,148004,1,8,0:0:0:0:
352,96,148337,1,8,0:0:0:0:
160,96,148670,1,0,0:0:0:0:
160,96,149004,1,0,0:0:0:0:
352,96,149504,1,8,0:0:0:0:
160,96,150170,1,0,0:0:0:0:
160,96,150670,1,0,0:0:0:0:
352,96,151004,1,8,0:0:0:0:
352,96,151337,1,8,0:0:0:0:
160,96,151670,1,0,0:0:0:0:
352,288,152170,1,12,0:0:0:0:
160,96,153337,1,0,0:0:0:0:
352,96,153670,1,8,0:0:0:0:
160,96,154004,1,0,0:0:0:0:
160,96,154337,1,0,0:0:0:0:
352,96,154837,1,8,0:0:0:0:
352,96,155504,1,8,0:0:0:0:
352,96,156004,1,8,0:0:0:0:
160,96,156337,1,0,0:0:0:0:
352,96,156670,1,8,0:0:0:0:
160,96,157004,1,0,0:0:0:0:
160,96,157504,1,0,0:0:0:0:
352,96,158170,1,8,0:0:0:0:
352,96,159504,1,8,0:0:0:0:
160,96,160170,1,0,0:0:0:0:
352,96,160837,1,8,0:0:0:0:
160,96,161504,1,0,0:0:0:0:
160,96,161837,1,0,0:0:0:0:
352,96,162170,1,8,0:0:0:0:
160,288,162837,1,4,0:0:0:0:
352,96,163837,1,8,0:0:0:0:
160,96,164170,1,0,0:0:0:0:
352,96,164837,1,8,0:0:0:0:
160,96,165504,1,0,0:0:0:0:
352,96,166170,1,8,0:0:0:0:
352,96,166504,1,8,0:0:0:0:
160,96,166837,1,0,0:0:0:0:
352,96,167504,1,8,0:0:0:0:
160,96,168170,1,0,0:0:0:0:
352,96,169170,1,8,0:0:0:0:
160,96,169504,1,0,0:0:0:0:
352,96,170170,1,8,0:0:0:0:
160,96,170837,1,0,0:0:0:0:
352,96,171504,1,8,0:0:0:0:
352,96,171837,1,8,0:0:0:0:
160,96,172170,1,0,0:0:0:0:
352,96,172837,1,8,0:0:0:0:
160,96,173504,1,0,0:0:0:0:
160,96,174504,1,0,0:0:0:0:
160,96,175004,1,0,0:0:0:0:
160,96,175337,1,0,0:0:0:0:
160,96,175837,1,0,0:0:0:0:
352,96,176170,1,8,0:0:0:0:
352,96,177170,1,8,0:0:0:0:
352,96,177670,1,8,0:0:0:0:
352,96,178004,1,8,0:0:0:0:
352,96,178504,1,8,0:0:0:0:
160,96,178837,1,0,0:0:0:0:
160,96,179837,1,0,0:0:0:0:
160,96,180337,1,0,0:0:0:0:
160,96,180670,1,0,0:0:0:0:
160,96,181170,1,0,0:0:0:0:
352,96,181504,1,8,0:0:0:0:
352,96,182504,1,8,0:0:0:0:
352,96,183004,1,8,0:0:0:0:
352,96,183337,1,8,0:0:0:0:
352,96,183837,1,8,0:0:0:0:
160,288,184170,1,4,0:0:0:0:
160,96,185504,1,0,0:0:0:0:
160,96,186170,1,0,0:0:0:0:
352,96,186504,1,8,0:0:0:0:
160,96,186837,1,0,0:0:0:0:
160,96,188170,1,0,0:0:0:0:
160,96,188837,1,0,0:0:0:0:
352,96,189170,1,8,0:0:0:0:
160,96,189504,1,0,0:0:0:0:
160,96,190837,1,0,0:0:0:0:
160,96,191504,1,0,0:0:0:0:
352,96,191837,1,8,0:0:0:0:
160,96,192170,1,0,0:0:0:0:
160,96,192837,1,0,0:0:0:0:
160,96,193504,1,0,0:0:0:0:
352,96,193837,1,8,0:0:0:0:
160,96,194170,1,0,0:0:0:0:
352,96,194504,1,8,0:0:0:0:
