osu file format v14

[General]
AudioFilename: audio.mp3
AudioLeadIn: 0
PreviewTime: 53420
Countdown: 0
SampleSet: Normal
StackLeniency: 0.7
Mode: 1
LetterboxInBreaks: 0
WidescreenStoryboard: 0

[Editor]
Bookmarks: 171,10837,21504,32170,42837,53504,96170,98837,109504,120170,141504,162837,173504,184170
DistanceSpacing: 2
BeatDivisor: 4
GridSize: 16
TimelineZoom: 2.799999

[Metadata]
Title:mango sago
TitleUnicode:mango sago
Artist:kiraku
ArtistUnicode:kiraku
Creator:komasy
Version:Inner Oni
Source:
Tags:Instrumental Electronic Happy Hardcore mangopop Attack The Music ATKS-0035 Cynplytholowazy
BeatmapID:2481868
BeatmapSetID:1191159

[Difficulty]
HPDrainRate:6
CircleSize:5
OverallDifficulty:6
ApproachRate:6
SliderMultiplier:1.4
SliderTickRate:1

[Events]
//Background and Video events
0,0,"yellow-white-and-gray-background-2340254.jpg",0,0
//Break Periods
2,34837,40170
//Storyboard Layer 0 (Background)
//Storyboard Layer 1 (Fail)
//Storyboard Layer 2 (Pass)
//Storyboard Layer 3 (Foreground)
//Storyboard Layer 4 (Overlay)
//Storyboard Sound Samples

[TimingPoints]
171,333.333333333333,4,1,0,80,1,0
10004,-100,4,1,0,60,0,0
10754,-100,4,1,0,80,0,0
32254,-100,4,1,0,40,0,0
42754,-100,4,1,0,80,0,0
53504,-100,4,1,0,90,0,1
64170,-100,4,1,0,90,0,0
66837,-100,4,1,0,90,0,1
74837,-100,4,1,0,90,0,0
77504,-100,4,1,0,90,0,1
85504,-100,4,1,0,90,0,0
86837,-100,4,1,0,90,0,1
96170,-100,4,1,0,90,0,0
96254,-100,4,1,0,50,0,0
98754,-100,4,1,0,80,0,0
141420,-100,4,1,0,40,0,0
142420,-100,4,1,0,80,0,0
144170,-100,4,1,0,90,0,1
162837,-100,4,1,0,90,0,0
184087,-100,4,1,0,55,0,0

[HitObjects]
160,96,171,5,0,0:0:0:0:
160,96,504,1,0,0:0:0:0:
160,96,837,1,0,0:0:0:0:
160,96,1087,1,0,0:0:0:0:
160,96,1337,1,0,0:0:0:0:
160,96,1504,1,0,0:0:0:0:
352,96,1670,1,8,0:0:0:0:
160,96,1837,1,0,0:0:0:0:
352,96,2004,1,8,0:0:0:0:
160,96,2170,1,0,0:0:0:0:
160,96,2420,1,0,0:0:0:0:
160,96,2670,1,0,0:0:0:0:
160,96,2837,1,0,0:0:0:0:
160,96,3170,1,0,0:0:0:0:
352,96,3337,1,8,0:0:0:0:
160,96,3504,1,0,0:0:0:0:
352,96,3754,1,8,0:0:0:0:
160,96,3837,1,0,0:0:0:0:
352,96,4004,1,8,0:0:0:0:
160,96,4170,1,0,0:0:0:0:
160,96,4504,1,0,0:0:0:0:
352,96,4670,1,8,0:0:0:0:
160,96,4837,1,0,0:0:0:0:
160,96,5087,1,0,0:0:0:0:
352,96,5170,1,8,0:0:0:0:
160,96,5337,1,0,0:0:0:0:
160,96,5504,1,0,0:0:0:0:
160,96,5837,1,0,0:0:0:0:
352,96,6004,1,8,0:0:0:0:
160,96,6170,1,0,0:0:0:0:
160,96,6420,1,0,0:0:0:0:
160,96,6670,1,0,0:0:0:0:
160,96,6837,1,0,0:0:0:0:
352,96,7004,1,8,0:0:0:0:
160,96,7170,1,0,0:0:0:0:
352,96,7337,1,8,0:0:0:0:
160,96,7504,1,0,0:0:0:0:
160,96,7754,1,0,0:0:0:0:
160,96,8004,1,0,0:0:0:0:
160,96,8170,1,0,0:0:0:0:
160,96,8504,1,0,0:0:0:0:
352,96,8670,1,8,0:0:0:0:
352,96,8754,1,8,0:0:0:0:
160,96,8837,1,0,0:0:0:0:
160,96,9004,1,0,0:0:0:0:
352,96,9087,1,8,0:0:0:0:
160,96,9170,1,0,0:0:0:0:
160,96,9254,1,0,0:0:0:0:
352,96,9337,1,8,0:0:0:0:
160,288,9504,1,4,0:0:0:0:
160,288,9837,1,4,0:0:0:0:
256,192,10170,12,0,10504,0:0:0:0:
160,288,10837,5,4,0:0:0:0:
352,96,11170,1,8,0:0:0:0:
160,96,11504,1,0,0:0:0:0:
352,96,11754,1,8,0:0:0:0:
160,96,11837,1,0,0:0:0:0:
352,96,12004,1,8,0:0:0:0:
160,96,12170,1,0,0:0:0:0:
160,96,12254,1,0,0:0:0:0:
352,96,12337,1,8,0:0:0:0:
160,96,12504,1,0,0:0:0:0:
352,96,12670,1,8,0:0:0:0:
160,96,12837,1,0,0:0:0:0:
352,96,13087,1,8,0:0:0:0:
160,96,13170,1,0,0:0:0:0:
352,96,13337,1,8,0:0:0:0:
160,96,13504,1,0,0:0:0:0:
352,96,13837,1,8,0:0:0:0:
352,96,14004,1,8,0:0:0:0:
160,96,14170,1,0,0:0:0:0:
352,96,14420,1,8,0:0:0:0:
160,96,14504,1,0,0:0:0:0:
352,96,14670,1,8,0:0:0:0:
160,96,14837,1,0,0:0:0:0:
352,96,15004,1,8,0:0:0:0:
352,96,15087,1,8,0:0:0:0:
160,96,15170,1,0,0:0:0:0:
352,96,15337,1,8,0:0:0:0:
160,96,15504,1,0,0:0:0:0:
352,96,15587,1,8,0:0:0:0:
160,96,15670,1,0,0:0:0:0:
160,96,15754,1,0,0:0:0:0:
352,96,15837,1,8,0:0:0:0:
160,96,16170,1,0,0:0:0:0:
352,96,16337,1,8,0:0:0:0:
160,96,16504,1,0,0:0:0:0:
160,96,16587,1,0,0:0:0:0:
352,96,16670,1,8,0:0:0:0:
160,96,16837,1,0,0:0:0:0:
352,96,17004,1,8,0:0:0:0:
352,96,17087,1,8,0:0:0:0:
160,96,17170,1,0,0:0:0:0:
352,96,17337,1,8,0:0:0:0:
160,96,17504,1,0,0:0:0:0:
160,96,17670,1,0,0:0:0:0:
352,96,17754,1,8,0:0:0:0:
160,96,17837,1,0,0:0:0:0:
352,96,18004,1,8,0:0:0:0:
160,96,18170,1,0,0:0:0:0:
352,96,18420,1,8,0:0:0:0:
160,96,18504,1,0,0:0:0:0:
352,96,18670,1,8,0:0:0:0:
160,96,18837,1,0,0:0:0:0:
352,96,19004,1,8,0:0:0:0:
160,96,19170,1,0,0:0:0:0:
160,96,19254,1,0,0:0:0:0:
352,96,19337,1,8,0:0:0:0:
160,96,19504,1,0,0:0:0:0:
352,96,19670,1,8,0:0:0:0:
160,96,19754,1,0,0:0:0:0:
352,96,19837,1,8,0:0:0:0:
160,96,20004,1,0,0:0:0:0:
160,96,20170,1,0,0:0:0:0:
352,288,20504,1,12,0:0:0:0:
352,96,20837,1,8,0:0:0:0:
352,96,21087,1,8,0:0:0:0:
160,96,21170,1,0,0:0:0:0:
352,96,21337,1,8,0:0:0:0:
160,96,21504,1,0,0:0:0:0:
160,96,21837,1,0,0:0:0:0:
352,96,22004,1,8,0:0:0:0:
160,96,22170,1,0,0:0:0:0:
352,96,22337,1,8,0:0:0:0:
352,96,22420,1,8,0:0:0:0:
160,96,22504,1,0,0:0:0:0:
352,96,22670,1,8,0:0:0:0:
160,96,22837,1,0,0:0:0:0:
160,96,23004,1,0,0:0:0:0:
352,96,23087,1,8,0:0:0:0:
160,96,23170,1,0,0:0:0:0:
352,96,23337,1,8,0:0:0:0:
160,96,23504,1,0,0:0:0:0:
160,96,23587,1,0,0:0:0:0:
352,96,23754,1,8,0:0:0:0:
160,96,23837,1,0,0:0:0:0:
352,96,24004,1,8,0:0:0:0:
160,96,24170,1,0,0:0:0:0:
160,96,24504,1,0,0:0:0:0:
352,96,24670,1,8,0:0:0:0:
160,96,24837,1,0,0:0:0:0:
352,96,25004,1,8,0:0:0:0:
352,96,25087,1,8,0:0:0:0:
160,96,25170,1,0,0:0:0:0:
352,96,25337,1,8,0:0:0:0:
160,96,25504,1,0,0:0:0:0:
160,96,25670,1,0,0:0:0:0:
352,96,25754,1,8,0:0:0:0:
160,96,25837,1,0,0:0:0:0:
352,96,26004,1,8,0:0:0:0:
160,96,26170,1,0,0:0:0:0:
352,96,26337,1,8,0:0:0:0:
352,96,26420,1,8,0:0:0:0:
352,96,26504,1,8,0:0:0:0:
352,96,26670,1,8,0:0:0:0:
160,288,26837,1,4,0:0:0:0:
160,96,27087,1,0,0:0:0:0:
352,96,27170,1,8,0:0:0:0:
160,96,27337,1,0,0:0:0:0:
352,96,27504,1,8,0:0:0:0:
160,96,27587,1,0,0:0:0:0:
352,96,27754,1,8,0:0:0:0:
160,96,27837,1,0,0:0:0:0:
352,96,28004,1,8,0:0:0:0:
160,96,28170,1,0,0:0:0:0:
352,96,28337,1,8,0:0:0:0:
160,96,28420,1,0,0:0:0:0:
352,96,28504,1,8,0:0:0:0:
160,96,28670,1,0,0:0:0:0:
352,96,28837,1,8,0:0:0:0:
160,96,28920,1,0,0:0:0:0:
352,96,29087,1,8,0:0:0:0:
352,96,29170,1,8,0:0:0:0:
352,96,29337,1,8,0:0:0:0:
160,96,29504,1,0,0:0:0:0:
160,96,29670,1,0,0:0:0:0:
160,96,29754,1,0,0:0:0:0:
352,96,29837,1,8,0:0:0:0:
352,96,30004,1,8,0:0:0:0:
160,96,30170,1,0,0:0:0:0:
352,96,30254,1,8,0:0:0:0:
352,96,30337,1,8,0:0:0:0:
160,96,30420,1,0,0:0:0:0:
352,96,30504,1,8,0:0:0:0:
352,96,30670,1,8,0:0:0:0:
160,288,30837,1,4,0:0:0:0:
160,288,31170,1,4,0:0:0:0:
352,96,31504,1,8,0:0:0:0:
352,96,31754,1,8,0:0:0:0:
352,96,31837,1,8,0:0:0:0:
352,96,32004,1,8,0:0:0:0:
160,96,32170,1,0,0:0:0:0:
256,192,41504,12,0,42670,0:0:0:0:
352,96,42837,5,8,0:0:0:0:
352,96,43170,1,8,0:0:0:0:
352,96,43504,1,8,0:0:0:0:
352,96,43837,1,8,0:0:0:0:
160,96,44004,1,0,0:0:0:0:
352,96,44170,1,8,0:0:0:0:
352,96,44504,1,8,0:0:0:0:
160,96,44670,1,0,0:0:0:0:
352,96,44837,1,8,0:0:0:0:
160,96,45004,1,0,0:0:0:0:
352,96,45170,1,8,0:0:0:0:
160,96,45337,1,0,0:0:0:0:
352,96,45420,1,8,0:0:0:0:
352,96,45504,1,8,0:0:0:0:
352,96,45837,1,8,0:0:0:0:
352,96,46170,1,8,0:0:0:0:
160,96,46337,1,0,0:0:0:0:
352,96,46504,1,8,0:0:0:0:
160,96,46670,1,0,0:0:0:0:
352,96,46837,1,8,0:0:0:0:
352,96,47170,1,8,0:0:0:0:
160,96,47337,1,0,0:0:0:0:
352,96,47504,1,8,0:0:0:0:
160,96,47670,1,0,0:0:0:0:
352,96,47837,1,8,0:0:0:0:
160,96,48004,1,0,0:0:0:0:
352,96,48087,1,8,0:0:0:0:
352,96,48170,1,8,0:0:0:0:
352,96,48337,1,8,0:0:0:0:
160,96,48504,1,0,0:0:0:0:
160,96,48670,1,0,0:0:0:0:
352,96,48837,1,8,0:0:0:0:
352,96,49004,1,8,0:0:0:0:
160,96,49170,1,0,0:0:0:0:
352,96,49337,1,8,0:0:0:0:
352,96,49420,1,8,0:0:0:0:
160,96,49504,1,0,0:0:0:0:
160,96,49587,1,0,0:0:0:0:
352,96,49670,1,8,0:0:0:0:
160,96,49837,5,0,0:0:0:0:
352,96,50004,1,8,0:0:0:0:
160,96,50170,1,0,0:0:0:0:
160,96,50337,1,0,0:0:0:0:
352,96,50504,1,8,0:0:0:0:
160,96,50670,1,0,0:0:0:0:
160,96,50754,1,0,0:0:0:0:
352,96,50837,1,8,0:0:0:0:
352,96,51004,1,8,0:0:0:0:
160,96,51170,1,0,0:0:0:0:
352,96,51254,1,8,0:0:0:0:
352,96,51295,1,8,0:0:0:0:
160,96,51337,1,0,0:0:0:0:
352,96,51504,1,8,0:0:0:0:
352,96,51545,1,8,0:0:0:0:
352,96,51670,1,8,0:0:0:0:
352,96,51712,1,8,0:0:0:0:
160,96,51837,1,0,0:0:0:0:
352,96,51920,1,8,0:0:0:0:
352,96,51962,1,8,0:0:0:0:
160,96,52004,1,0,0:0:0:0:
352,96,52170,1,8,0:0:0:0:
160,96,52337,1,0,0:0:0:0:
160,96,52420,1,0,0:0:0:0:
352,96,52504,1,8,0:0:0:0:
160,96,52670,1,0,0:0:0:0:
352,96,52837,1,8,0:0:0:0:
160,96,52920,1,0,0:0:0:0:
160,96,53004,1,0,0:0:0:0:
160,96,53087,1,0,0:0:0:0:
352,96,53170,1,8,0:0:0:0:
352,96,53254,1,8,0:0:0:0:
352,96,53337,1,8,0:0:0:0:
352,96,53420,1,8,0:0:0:0:
160,96,53504,1,0,0:0:0:0:
160,96,53754,1,0,0:0:0:0:
352,96,53837,1,8,0:0:0:0:
160,96,54004,1,0,0:0:0:0:
352,96,54170,1,8,0:0:0:0:
352,96,54254,1,8,0:0:0:0:
160,96,54337,1,0,0:0:0:0:
352,96,54504,1,8,0:0:0:0:
160,96,54670,1,0,0:0:0:0:
352,96,54754,1,8,0:0:0:0:
160,96,54837,1,0,0:0:0:0:
352,96,55004,1,8,0:0:0:0:
160,96,55170,1,0,0:0:0:0:
352,96,55337,1,8,0:0:0:0:
160,96,55420,1,0,0:0:0:0:
160,96,55504,1,0,0:0:0:0:
160,96,55670,1,0,0:0:0:0:
352,96,55837,1,8,0:0:0:0:
352,96,56004,1,8,0:0:0:0:
352,96,56087,1,8,0:0:0:0:
160,96,56170,1,0,0:0:0:0:
160,96,56420,1,0,0:0:0:0:
352,96,56504,1,8,0:0:0:0:
160,96,56670,1,0,0:0:0:0:
352,96,56837,1,8,0:0:0:0:
160,96,56920,1,0,0:0:0:0:
352,96,57004,1,8,0:0:0:0:
160,96,57170,1,0,0:0:0:0:
352,96,57337,1,8,0:0:0:0:
352,96,57420,1,8,0:0:0:0:
160,96,57504,1,0,0:0:0:0:
352,96,57670,1,8,0:0:0:0:
160,96,57837,1,0,0:0:0:0:
160,96,57920,1,0,0:0:0:0:
352,96,58004,1,8,0:0:0:0:
160,96,58170,1,0,0:0:0:0:
352,96,58337,1,8,0:0:0:0:
352,96,58420,1,8,0:0:0:0:
160,96,58504,1,0,0:0:0:0:
160,96,58587,1,0,0:0:0:0:
352,96,58670,1,8,0:0:0:0:
160,96,58837,1,0,0:0:0:0:
160,96,59087,1,0,0:0:0:0:
352,96,59170,1,8,0:0:0:0:
160,96,59337,1,0,0:0:0:0:
352,96,59504,1,8,0:0:0:0:
352,96,59587,1,8,0:0:0:0:
160,96,59670,1,0,0:0:0:0:
352,96,59837,1,8,0:0:0:0:
160,96,60004,1,0,0:0:0:0:
352,96,60087,1,8,0:0:0:0:
160,96,60170,1,0,0:0:0:0:
352,96,60337,1,8,0:0:0:0:
160,96,60504,1,0,0:0:0:0:
352,96,60670,1,8,0:0:0:0:
160,96,60754,1,0,0:0:0:0:
160,96,60837,1,0,0:0:0:0:
160,96,61004,1,0,0:0:0:0:
352,96,61170,1,8,0:0:0:0:
160,96,61337,1,0,0:0:0:0:
160,96,61420,1,0,0:0:0:0:
352,96,61504,1,8,0:0:0:0:
160,96,61754,1,0,0:0:0:0:
352,96,61837,1,8,0:0:0:0:
160,96,62004,1,0,0:0:0:0:
352,96,62170,1,8,0:0:0:0:
160,96,62254,1,0,0:0:0:0:
160,96,62337,1,0,0:0:0:0:
352,96,62504,1,8,0:0:0:0:
160,96,62670,1,0,0:0:0:0:
352,96,62754,1,8,0:0:0:0:
160,96,62837,1,0,0:0:0:0:
352,96,63004,1,8,0:0:0:0:
160,96,63170,1,0,0:0:0:0:
160,96,63254,1,0,0:0:0:0:
352,96,63337,1,8,0:0:0:0:
160,96,63504,1,0,0:0:0:0:
352,96,63670,1,8,0:0:0:0:
352,96,63754,1,8,0:0:0:0:
160,96,63837,1,0,0:0:0:0:
352,96,63920,1,8,0:0:0:0:
160,96,64004,1,0,0:0:0:0:
352,288,64170,1,12,0:0:0:0:
352,96,64504,1,8,0:0:0:0:
352,96,64837,1,8,0:0:0:0:
160,288,65170,1,4,0:0:0:0:
160,288,65337,1,4,0:0:0:0:
352,288,65670,1,12,0:0:0:0:
160,288,66004,1,4,0:0:0:0:
160,96,66337,1,0,0:0:0:0:
352,288,66504,1,12,0:0:0:0:
352,96,66670,1,8,0:0:0:0:
352,96,66754,1,8,0:0:0:0:
160,96,66837,1,0,0:0:0:0:
160,96,67087,1,0,0:0:0:0:
352,96,67170,1,8,0:0:0:0:
160,96,67337,1,0,0:0:0:0:
352,96,67504,1,8,0:0:0:0:
160,96,67587,1,0,0:0:0:0:
352,96,67670,1,8,0:0:0:0:
352,96,67754,1,8,0:0:0:0:
160,96,67837,1,0,0:0:0:0:
352,96,68004,1,8,0:0:0:0:
160,96,68170,1,0,0:0:0:0:
160,96,68254,1,0,0:0:0:0:
352,96,68337,1,8,0:0:0:0:
160,96,68504,1,0,0:0:0:0:
352,96,68670,1,8,0:0:0:0:
352,96,68754,1,8,0:0:0:0:
160,96,68837,1,0,0:0:0:0:
160,96,68920,1,0,0:0:0:0:
352,96,69004,1,8,0:0:0:0:
160,96,69170,1,0,0:0:0:0:
352,96,69337,1,8,0:0:0:0:
352,96,69393,1,8,0:0:0:0:
352,96,69448,1,8,0:0:0:0:
160,96,69504,1,0,0:0:0:0:
160,96,69754,1,0,0:0:0:0:
352,96,69837,1,8,0:0:0:0:
160,96,70004,1,0,0:0:0:0:
352,96,70170,1,8,0:0:0:0:
352,96,70254,1,8,0:0:0:0:
160,96,70337,1,0,0:0:0:0:
352,96,70504,1,8,0:0:0:0:
160,96,70670,1,0,0:0:0:0:
352,96,70754,1,8,0:0:0:0:
160,96,70837,1,0,0:0:0:0:
160,96,70920,1,0,0:0:0:0:
352,96,71004,1,8,0:0:0:0:
160,96,71170,1,0,0:0:0:0:
352,96,71337,1,8,0:0:0:0:
160,96,71420,1,0,0:0:0:0:
160,96,71504,1,0,0:0:0:0:
160,96,71670,1,0,0:0:0:0:
352,96,71837,1,8,0:0:0:0:
160,96,72004,1,0,0:0:0:0:
160,96,72087,1,0,0:0:0:0:
352,96,72170,1,8,0:0:0:0:
160,96,72420,1,0,0:0:0:0:
352,96,72504,1,8,0:0:0:0:
160,96,72670,1,0,0:0:0:0:
352,96,72837,1,8,0:0:0:0:
352,96,72920,1,8,0:0:0:0:
160,96,73004,1,0,0:0:0:0:
352,96,73087,1,8,0:0:0:0:
160,96,73170,1,0,0:0:0:0:
352,96,73337,1,8,0:0:0:0:
160,96,73504,1,0,0:0:0:0:
160,96,73587,1,0,0:0:0:0:
352,96,73670,1,8,0:0:0:0:
160,96,73837,1,0,0:0:0:0:
352,96,74004,1,8,0:0:0:0:
352,96,74087,1,8,0:0:0:0:
160,96,74170,1,0,0:0:0:0:
352,96,74337,1,8,0:0:0:0:
160,96,74420,1,0,0:0:0:0:
352,96,74504,1,8,0:0:0:0:
352,96,74587,1,8,0:0:0:0:
160,96,74670,1,0,0:0:0:0:
160,96,74754,1,0,0:0:0:0:
352,288,74837,5,12,0:0:0:0:
352,288,75170,1,12,0:0:0:0:
352,288,75504,1,12,0:0:0:0:
160,288,75670,1,4,0:0:0:0:
352,288,76004,1,12,0:0:0:0:
352,288,76337,1,12,0:0:0:0:
160,288,76670,1,4,0:0:0:0:
160,96,77004,1,0,0:0:0:0:
352,288,77170,1,12,0:0:0:0:
160,288,77504,1,4,0:0:0:0:
352,96,77754,1,8,0:0:0:0:
160,96,77837,1,0,0:0:0:0:
352,96,78004,1,8,0:0:0:0:
160,96,78170,1,0,0:0:0:0:
352,96,78337,1,8,0:0:0:0:
160,96,78420,1,0,0:0:0:0:
352,96,78670,1,8,0:0:0:0:
160,96,78837,1,0,0:0:0:0:
352,96,79004,1,8,0:0:0:0:
160,96,79087,1,0,0:0:0:0:
352,96,79170,1,8,0:0:0:0:
352,96,79337,1,8,0:0:0:0:
160,96,79504,1,0,0:0:0:0:
160,96,79670,1,0,0:0:0:0:
160,96,79754,1,0,0:0:0:0:
352,96,79837,1,8,0:0:0:0:
352,96,80004,1,8,0:0:0:0:
160,96,80170,1,0,0:0:0:0:
160,96,80420,1,0,0:0:0:0:
352,96,80504,1,8,0:0:0:0:
160,96,80670,1,0,0:0:0:0:
352,96,80837,1,8,0:0:0:0:
160,96,80920,1,0,0:0:0:0:
160,96,81004,1,0,0:0:0:0:
352,96,81170,1,8,0:0:0:0:
160,96,81337,1,0,0:0:0:0:
160,96,81420,1,0,0:0:0:0:
352,96,81587,1,8,0:0:0:0:
160,96,81670,1,0,0:0:0:0:
352,96,81837,1,8,0:0:0:0:
160,96,82004,1,0,0:0:0:0:
160,96,82087,1,0,0:0:0:0:
160,96,82170,1,0,0:0:0:0:
160,96,82337,1,0,0:0:0:0:
352,96,82504,1,8,0:0:0:0:
160,96,82670,1,0,0:0:0:0:
160,96,82754,1,0,0:0:0:0:
352,96,82837,1,8,0:0:0:0:
160,96,83087,1,0,0:0:0:0:
352,96,83170,1,8,0:0:0:0:
160,96,83337,1,0,0:0:0:0:
352,96,83504,1,8,0:0:0:0:
352,96,83587,1,8,0:0:0:0:
160,96,83670,1,0,0:0:0:0:
352,96,83837,1,8,0:0:0:0:
160,96,84004,1,0,0:0:0:0:
352,96,84087,1,8,0:0:0:0:
352,96,84170,1,8,0:0:0:0:
160,96,84337,1,0,0:0:0:0:
352,96,84504,1,8,0:0:0:0:
160,96,84670,1,0,0:0:0:0:
352,96,84754,1,8,0:0:0:0:
352,96,84837,1,8,0:0:0:0:
352,96,84920,1,8,0:0:0:0:
160,96,85004,1,0,0:0:0:0:
352,96,85170,1,8,0:0:0:0:
352,96,85337,1,8,0:0:0:0:
352,96,85420,1,8,0:0:0:0:
160,96,85504,1,0,0:0:0:0:
352,96,85837,1,8,0:0:0:0:
160,96,86004,1,0,0:0:0:0:
160,96,86337,1,0,0:0:0:0:
352,96,86504,1,8,0:0:0:0:
352,96,86670,1,8,0:0:0:0:
160,96,86837,1,0,0:0:0:0:
352,96,87004,1,8,0:0:0:0:
160,96,87087,1,0,0:0:0:0:
352,96,87170,1,8,0:0:0:0:
352,96,87337,1,8,0:0:0:0:
160,96,87504,1,0,0:0:0:0:
160,96,87670,1,0,0:0:0:0:
160,96,87754,1,0,0:0:0:0:
352,96,87837,1,8,0:0:0:0:
160,96,87920,1,0,0:0:0:0:
352,96,88004,1,8,0:0:0:0:
352,96,88087,1,8,0:0:0:0:
160,96,88170,1,0,0:0:0:0:
160,96,88420,1,0,0:0:0:0:
352,96,88504,1,8,0:0:0:0:
160,96,88670,1,0,0:0:0:0:
352,96,88837,1,8,0:0:0:0:
160,96,88920,1,0,0:0:0:0:
160,96,89004,1,0,0:0:0:0:
352,96,89170,1,8,0:0:0:0:
160,96,89337,1,0,0:0:0:0:
352,96,89420,1,8,0:0:0:0:
352,96,89587,1,8,0:0:0:0:
160,96,89670,1,0,0:0:0:0:
352,96,89837,1,8,0:0:0:0:
160,96,90004,1,0,0:0:0:0:
352,96,90087,1,8,0:0:0:0:
352,96,90170,1,8,0:0:0:0:
352,96,90254,1,8,0:0:0:0:
160,96,90337,1,0,0:0:0:0:
352,96,90504,1,8,0:0:0:0:
352,96,90670,1,8,0:0:0:0:
352,96,90726,1,8,0:0:0:0:
352,96,90782,1,8,0:0:0:0:
160,96,90837,1,0,0:0:0:0:
160,96,91087,1,0,0:0:0:0:
352,96,91170,1,8,0:0:0:0:
160,96,91337,1,0,0:0:0:0:
352,96,91504,1,8,0:0:0:0:
352,96,91587,1,8,0:0:0:0:
160,96,91670,1,0,0:0:0:0:
352,96,91837,1,8,0:0:0:0:
160,288,92004,1,4,0:0:0:0:
352,288,92337,1,12,0:0:0:0:
160,288,92670,1,4,0:0:0:0:
160,96,92837,1,0,0:0:0:0:
352,96,92920,1,8,0:0:0:0:
160,96,93004,1,0,0:0:0:0:
160,96,93087,1,0,0:0:0:0:
352,96,93170,1,8,0:0:0:0:
160,96,93337,1,0,0:0:0:0:
352,96,93504,1,8,0:0:0:0:
352,96,93587,1,8,0:0:0:0:
160,96,93670,1,0,0:0:0:0:
160,96,93754,1,0,0:0:0:0:
352,96,93837,1,8,0:0:0:0:
160,96,94004,1,0,0:0:0:0:
352,96,94170,1,8,0:0:0:0:
160,96,94254,1,0,0:0:0:0:
160,96,94337,1,0,0:0:0:0:
160,96,94420,1,0,0:0:0:0:
352,96,94504,1,8,0:0:0:0:
352,96,94670,1,8,0:0:0:0:
352,96,94754,1,8,0:0:0:0:
160,96,94837,1,0,0:0:0:0:
352,96,95004,1,8,0:0:0:0:
352,96,95059,1,8,0:0:0:0:
352,96,95115,1,8,0:0:0:0:
160,96,95170,1,0,0:0:0:0:
160,96,95254,1,0,0:0:0:0:
352,96,95337,1,8,0:0:0:0:
352,96,95420,1,8,0:0:0:0:
160,96,95504,1,0,0:0:0:0:
160,96,95670,1,0,0:0:0:0:
160,96,95726,1,0,0:0:0:0:
160,96,95782,1,0,0:0:0:0:
352,96,95837,1,8,0:0:0:0:
352,96,95920,1,8,0:0:0:0:
352,96,96004,1,8,0:0:0:0:
352,96,96087,1,8,0:0:0:0:
160,288,96170,1,4,0:0:0:0:
256,192,97504,12,0,98504,0:0:0:0:
160,96,98837,5,0,0:0:0:0:
352,96,99337,1,8,0:0:0:0:
352,96,99837,1,8,0:0:0:0:
160,96,101504,1,0,0:0:0:0:
352,96,101670,1,8,0:0:0:0:
352,96,101837,1,8,0:0:0:0:
352,96,102170,1,8,0:0:0:0:
352,96,102504,1,8,0:0:0:0:
352,96,102670,1,8,0:0:0:0:
352,96,102837,1,8,0:0:0:0:
352,96,103337,1,8,0:0:0:0:
352,96,103837,1,8,0:0:0:0:
160,96,104170,1,0,0:0:0:0:
352,96,104670,1,8,0:0:0:0:
352,96,105170,1,8,0:0:0:0:
160,96,106837,1,0,0:0:0:0:
352,96,107004,1,8,0:0:0:0:
352,96,107170,1,8,0:0:0:0:
352,96,107504,1,8,0:0:0:0:
352,96,107670,1,8,0:0:0:0:
352,96,108004,1,8,0:0:0:0:
352,96,108337,1,8,0:0:0:0:
352,96,108504,1,8,0:0:0:0:
352,96,108670,1,8,0:0:0:0:
352,96,109170,1,8,0:0:0:0:
160,96,109504,1,0,0:0:0:0:
160,96,110004,1,0,0:0:0:0:
352,96,110170,1,8,0:0:0:0:
160,96,110337,1,0,0:0:0:0:
160,96,110504,1,0,0:0:0:0:
160,96,111170,1,0,0:0:0:0:
352,96,111504,1,8,0:0:0:0:
160,96,112170,1,0,0:0:0:0:
160,96,112337,1,0,0:0:0:0:
160,96,112670,1,0,0:0:0:0:
352,96,112837,1,8,0:0:0:0:
160,96,113004,1,0,0:0:0:0:
160,96,113170,1,0,0:0:0:0:
352,96,113504,1,8,0:0:0:0:
160,96,113837,1,0,0:0:0:0:
352,96,114004,1,8,0:0:0:0:
352,96,114170,1,8,0:0:0:0:
352,96,114504,1,8,0:0:0:0:
160,96,114670,1,0,0:0:0:0:
160,96,114837,1,0,0:0:0:0:
160,96,115337,1,0,0:0:0:0:
352,96,115504,1,8,0:0:0:0:
160,96,115670,1,0,0:0:0:0:
160,96,115837,1,0,0:0:0:0:
160,96,116504,1,0,0:0:0:0:
352,96,116837,1,8,0:0:0:0:
160,96,117504,1,0,0:0:0:0:
160,96,117670,1,0,0:0:0:0:
160,96,117837,1,0,0:0:0:0:
352,96,118170,1,8,0:0:0:0:
160,96,118337,1,0,0:0:0:0:
160,96,118504,1,0,0:0:0:0:
352,96,118670,1,8,0:0:0:0:
352,96,119004,1,8,0:0:0:0:
160,96,119170,1,0,0:0:0:0:
352,96,119337,1,8,0:0:0:0:
352,96,119504,1,8,0:0:0:0:
352,96,119837,1,8,0:0:0:0:
160,96,120004,1,0,0:0:0:0:
352,96,120170,1,8,0:0:0:0:
160,96,120504,1,0,0:0:0:0:
352,96,120837,1,8,0:0:0:0:
160,96,121004,1,0,0:0:0:0:
352,96,121087,1,8,0:0:0:0:
352,96,121170,1,8,0:0:0:0:
160,96,121337,1,0,0:0:0:0:
352,96,121504,1,8,0:0:0:0:
352,96,121670,1,8,0:0:0:0:
160,96,121837,1,0,0:0:0:0:
160,96,122004,1,0,0:0:0:0:
352,96,122170,1,8,0:0:0:0:
160,96,122420,1,0,0:0:0:0:
160,96,122504,1,0,0:0:0:0:
160,96,122670,1,0,0:0:0:0:
352,96,122837,1,8,0:0:0:0:
352,96,123004,1,8,0:0:0:0:
160,96,123170,1,0,0:0:0:0:
160,96,123337,1,0,0:0:0:0:
352,96,123504,1,8,0:0:0:0:
160,96,123670,1,0,0:0:0:0:
352,96,123754,1,8,0:0:0:0:
352,96,123837,1,8,0:0:0:0:
160,96,124004,1,0,0:0:0:0:
352,96,124170,1,8,0:0:0:0:
160,96,124504,1,0,0:0:0:0:
160,96,124670,1,0,0:0:0:0:
352,96,124837,1,8,0:0:0:0:
160,96,125087,1,0,0:0:0:0:
352,96,125170,1,8,0:0:0:0:
160,96,125337,1,0,0:0:0:0:
352,96,125504,1,8,0:0:0:0:
160,96,125837,1,0,0:0:0:0:
160,96,126004,1,0,0:0:0:0:
352,96,126170,1,8,0:0:0:0:
160,96,126337,1,0,0:0:0:0:
352,96,126420,1,8,0:0:0:0:
352,96,126504,1,8,0:0:0:0:
160,96,126670,1,0,0:0:0:0:
352,96,126837,1,8,0:0:0:0:
352,96,127004,1,8,0:0:0:0:
160,96,127170,1,0,0:0:0:0:
160,96,127337,1,0,0:0:0:0:
352,96,127504,1,8,0:0:0:0:
352,96,127754,1,8,0:0:0:0:
352,96,127837,1,8,0:0:0:0:
160,96,128004,1,0,0:0:0:0:
352,96,128170,1,8,0:0:0:0:
352,96,128337,1,8,0:0:0:0:
160,96,128504,1,0,0:0:0:0:
160,96,128670,1,0,0:0:0:0:
352,96,128837,1,8,0:0:0:0:
160,96,129004,1,0,0:0:0:0:
352,96,129087,1,8,0:0:0:0:
352,96,129170,1,8,0:0:0:0:
160,96,129337,1,0,0:0:0:0:
352,96,129504,1,8,0:0:0:0:
352,96,129670,1,8,0:0:0:0:
160,96,129837,1,0,0:0:0:0:
160,96,130004,1,0,0:0:0:0:
352,96,130170,1,8,0:0:0:0:
160,96,130420,1,0,0:0:0:0:
352,96,130504,1,8,0:0:0:0:
352,96,130670,1,8,0:0:0:0:
160,96,130837,1,0,0:0:0:0:
160,96,131170,1,0,0:0:0:0:
160,96,131337,1,0,0:0:0:0:
352,96,131504,1,8,0:0:0:0:
160,96,131670,1,0,0:0:0:0:
160,96,131754,1,0,0:0:0:0:
352,96,131837,1,8,0:0:0:0:
352,96,132004,1,8,0:0:0:0:
160,96,132170,1,0,0:0:0:0:
160,96,132504,1,0,0:0:0:0:
352,96,132837,1,8,0:0:0:0:
160,96,133087,1,0,0:0:0:0:
160,96,133337,1,0,0:0:0:0:
160,96,133504,1,0,0:0:0:0:
352,96,133670,1,8,0:0:0:0:
160,96,133837,1,0,0:0:0:0:
160,96,134004,1,0,0:0:0:0:
352,96,134170,1,8,0:0:0:0:
160,96,134337,1,0,0:0:0:0:
352,96,134420,1,8,0:0:0:0:
160,96,134504,1,0,0:0:0:0:
352,96,134670,1,8,0:0:0:0:
160,96,134837,1,0,0:0:0:0:
160,96,135170,1,0,0:0:0:0:
352,96,135337,1,8,0:0:0:0:
352,96,135504,1,8,0:0:0:0:
352,96,135754,1,8,0:0:0:0:
352,96,135837,1,8,0:0:0:0:
352,96,136004,1,8,0:0:0:0:
160,288,136170,1,4,0:0:0:0:
160,96,136337,1,0,0:0:0:0:
352,96,136420,1,8,0:0:0:0:
160,96,136504,1,0,0:0:0:0:
160,96,136670,1,0,0:0:0:0:
352,96,136837,1,8,0:0:0:0:
352,96,137004,1,8,0:0:0:0:
160,96,137087,1,0,0:0:0:0:
352,96,137170,1,8,0:0:0:0:
352,96,137337,1,8,0:0:0:0:
160,288,137504,1,4,0:0:0:0:
160,96,137670,1,0,0:0:0:0:
160,96,137754,1,0,0:0:0:0:
352,96,137837,1,8,0:0:0:0:
160,96,138004,1,0,0:0:0:0:
352,96,138170,1,8,0:0:0:0:
352,96,138337,1,8,0:0:0:0:
352,96,138420,1,8,0:0:0:0:
160,96,138504,1,0,0:0:0:0:
352,96,138670,1,8,0:0:0:0:
160,96,138837,1,0,0:0:0:0:
160,96,138920,1,0,0:0:0:0:
352,96,139004,1,8,0:0:0:0:
160,96,139087,1,0,0:0:0:0:
352,96,139170,1,8,0:0:0:0:
352,96,139254,1,8,0:0:0:0:
160,96,139337,1,0,0:0:0:0:
352,96,139420,1,8,0:0:0:0:
160,96,139504,1,0,0:0:0:0:
352,96,139587,1,8,0:0:0:0:
352,96,139670,1,8,0:0:0:0:
160,96,139754,1,0,0:0:0:0:
352,96,139837,1,8,0:0:0:0:
352,96,139920,1,8,0:0:0:0:
160,96,140004,1,0,0:0:0:0:
160,96,140087,1,0,0:0:0:0:
352,96,140170,1,8,0:0:0:0:
352,96,140337,1,8,0:0:0:0:
160,96,140504,1,0,0:0:0:0:
160,96,140670,1,0,0:0:0:0:
352,96,140837,1,8,0:0:0:0:
352,96,141087,1,8,0:0:0:0:
352,96,141170,1,8,0:0:0:0:
352,96,141337,1,8,0:0:0:0:
160,288,142504,1,4,0:0:0:0:
160,288,142670,1,4,0:0:0:0:
352,288,143004,1,12,0:0:0:0:
160,288,143337,1,4,0:0:0:0:
160,96,143670,1,0,0:0:0:0:
160,96,143754,1,0,0:0:0:0:
352,96,143837,1,8,0:0:0:0:
160,96,143920,1,0,0:0:0:0:
352,96,144004,1,8,0:0:0:0:
352,96,144087,1,8,0:0:0:0:
160,96,144170,1,0,0:0:0:0:
160,96,144420,1,0,0:0:0:0:
352,96,144504,1,8,0:0:0:0:
160,96,144670,1,0,0:0:0:0:
352,96,144837,1,8,0:0:0:0:
352,96,144920,1,8,0:0:0:0:
160,96,145004,1,0,0:0:0:0:
352,96,145170,1,8,0:0:0:0:
160,96,145337,1,0,0:0:0:0:
160,96,145420,1,0,0:0:0:0:
352,96,145504,1,8,0:0:0:0:
352,96,145587,1,8,0:0:0:0:
160,96,145670,1,0,0:0:0:0:
352,96,145837,1,8,0:0:0:0:
160,96,146004,1,0,0:0:0:0:
352,96,146087,1,8,0:0:0:0:
352,96,146170,1,8,0:0:0:0:
160,96,146337,1,0,0:0:0:0:
352,96,146504,1,8,0:0:0:0:
352,96,146587,1,8,0:0:0:0:
160,96,146670,1,0,0:0:0:0:
160,96,146754,1,0,0:0:0:0:
352,96,146837,1,8,0:0:0:0:
160,96,147087,1,0,0:0:0:0:
352,96,147170,1,8,0:0:0:0:
160,96,147337,1,0,0:0:0:0:
352,96,147504,1,8,0:0:0:0:
160,96,147587,1,0,0:0:0:0:
160,96,147670,1,0,0:0:0:0:
352,96,147837,1,8,0:0:0:0:
160,96,148004,1,0,0:0:0:0:
352,96,148087,1,8,0:0:0:0:
352,96,148170,1,8,0:0:0:0:
352,96,148254,1,8,0:0:0:0:
160,96,148337,1,0,0:0:0:0:
352,96,148504,1,8,0:0:0:0:
160,96,148670,1,0,0:0:0:0:
160,96,148754,1,0,0:0:0:0:
352,96,148837,1,8,0:0:0:0:
160,96,149004,1,0,0:0:0:0:
352,96,149170,1,8,0:0:0:0:
160,96,149254,1,0,0:0:0:0:
160,96,149337,1,0,0:0:0:0:
160,96,149420,1,0,0:0:0:0:
352,96,149504,1,8,0:0:0:0:
352,96,149670,1,8,0:0:0:0:
160,96,149754,1,0,0:0:0:0:
352,96,149837,1,8,0:0:0:0:
160,96,150004,1,0,0:0:0:0:
352,96,150170,1,8,0:0:0:0:
352,96,150254,1,8,0:0:0:0:
160,96,150337,1,0,0:0:0:0:
352,96,150504,1,8,0:0:0:0:
160,96,150670,1,0,0:0:0:0:
160,96,150754,1,0,0:0:0:0:
352,96,150837,1,8,0:0:0:0:
352,96,150920,1,8,0:0:0:0:
160,96,151004,1,0,0:0:0:0:
352,96,151170,1,8,0:0:0:0:
160,96,151337,1,0,0:0:0:0:
352,96,151420,1,8,0:0:0:0:
352,96,151504,1,8,0:0:0:0:
160,96,151670,1,0,0:0:0:0:
352,96,151837,1,8,0:0:0:0:
160,96,151948,1,0,0:0:0:0:
160,96,152059,1,0,0:0:0:0:
352,288,152170,1,12,0:0:0:0:
160,96,152420,1,0,0:0:0:0:
352,96,152504,1,8,0:0:0:0:
160,96,152670,1,0,0:0:0:0:
352,96,152837,1,8,0:0:0:0:
352,96,152920,1,8,0:0:0:0:
160,96,153004,1,0,0:0:0:0:
352,96,153087,1,8,0:0:0:0:
160,96,153170,1,0,0:0:0:0:
352,96,153337,1,8,0:0:0:0:
160,96,153504,1,0,0:0:0:0:
160,96,153587,1,0,0:0:0:0:
352,96,153670,1,8,0:0:0:0:
160,96,153837,1,0,0:0:0:0:
352,96,154004,1,8,0:0:0:0:
352,96,154087,1,8,0:0:0:0:
160,96,154170,1,0,0:0:0:0:
352,96,154337,1,8,0:0:0:0:
160,96,154420,1,0,0:0:0:0:
352,96,154504,1,8,0:0:0:0:
352,96,154587,1,8,0:0:0:0:
160,96,154670,1,0,0:0:0:0:
352,96,154754,1,8,0:0:0:0:
352,96,154837,1,8,0:0:0:0:
160,96,155004,1,0,0:0:0:0:
160,96,155087,1,0,0:0:0:0:
352,96,155170,1,8,0:0:0:0:
160,96,155337,1,0,0:0:0:0:
352,96,155504,1,8,0:0:0:0:
160,96,155587,1,0,0:0:0:0:
352,96,155670,1,8,0:0:0:0:
352,96,155754,1,8,0:0:0:0:
160,96,155837,1,0,0:0:0:0:
352,96,156004,1,8,0:0:0:0:
160,96,156170,1,0,0:0:0:0:
160,96,156254,1,0,0:0:0:0:
352,96,156337,1,8,0:0:0:0:
160,96,156504,1,0,0:0:0:0:
352,96,156670,1,8,0:0:0:0:
352,96,156754,1,8,0:0:0:0:
160,96,156837,1,0,0:0:0:0:
352,96,156920,1,8,0:0:0:0:
352,96,157004,1,8,0:0:0:0:
160,96,157170,1,0,0:0:0:0:
160,96,157254,1,0,0:0:0:0:
352,96,157337,1,8,0:0:0:0:
352,96,157393,1,8,0:0:0:0:
352,96,157448,1,8,0:0:0:0:
160,96,157504,1,0,0:0:0:0:
352,96,157837,1,8,0:0:0:0:
160,96,158004,1,0,0:0:0:0:
352,96,158170,1,8,0:0:0:0:
160,96,158504,1,0,0:0:0:0:
352,96,158670,1,8,0:0:0:0:
160,96,158837,1,0,0:0:0:0:
160,96,159004,1,0,0:0:0:0:
160,96,159337,1,0,0:0:0:0:
160,96,159393,1,0,0:0:0:0:
160,96,159448,1,0,0:0:0:0:
352,96,159504,1,8,0:0:0:0:
352,96,159670,1,8,0:0:0:0:
160,96,159837,1,0,0:0:0:0:
160,96,160004,1,0,0:0:0:0:
352,96,160170,1,8,0:0:0:0:
160,96,160337,1,0,0:0:0:0:
160,96,160670,1,0,0:0:0:0:
352,96,160837,1,8,0:0:0:0:
160,96,161170,1,0,0:0:0:0:
160,96,161337,1,0,0:0:0:0:
352,96,161504,1,8,0:0:0:0:
160,96,161670,1,0,0:0:0:0:
352,96,161837,1,8,0:0:0:0:
352,96,161920,1,8,0:0:0:0:
160,96,162004,1,0,0:0:0:0:
352,96,162170,1,8,0:0:0:0:
160,96,162337,1,0,0:0:0:0:
160,96,162420,1,0,0:0:0:0:
352,96,162504,1,8,0:0:0:0:
160,96,162587,1,0,0:0:0:0:
352,96,162670,1,8,0:0:0:0:
352,96,162754,1,8,0:0:0:0:
160,96,162837,1,0,0:0:0:0:
352,96,163087,5,8,0:0:0:0:
160,96,163170,1,0,0:0:0:0:
160,96,163337,1,0,0:0:0:0:
352,96,163504,1,8,0:0:0:0:
160,96,163670,1,0,0:0:0:0:
352,96,163754,1,8,0:0:0:0:
352,96,163837,1,8,0:0:0:0:
160,96,164004,1,0,0:0:0:0:
352,96,164170,1,8,0:0:0:0:
160,96,164337,1,0,0:0:0:0:
160,96,164420,1,0,0:0:0:0:
352,96,164504,1,8,0:0:0:0:
160,96,164670,1,0,0:0:0:0:
352,96,164837,1,8,0:0:0:0:
160,96,164920,1,0,0:0:0:0:
160,96,165087,1,0,0:0:0:0:
352,96,165170,1,8,0:0:0:0:
160,96,165337,1,0,0:0:0:0:
352,96,165504,1,8,0:0:0:0:
160,96,165837,1,0,0:0:0:0:
160,96,166004,1,0,0:0:0:0:
352,96,166170,1,8,0:0:0:0:
160,96,166337,1,0,0:0:0:0:
352,96,166420,1,8,0:0:0:0:
352,96,166504,1,8,0:0:0:0:
160,96,166670,1,0,0:0:0:0:
352,96,166837,1,8,0:0:0:0:
160,96,167087,1,0,0:0:0:0:
352,96,167170,1,8,0:0:0:0:
160,96,167337,1,0,0:0:0:0:
352,96,167504,1,8,0:0:0:0:
160,96,167587,1,0,0:0:0:0:
352,96,167754,1,8,0:0:0:0:
352,96,167837,1,8,0:0:0:0:
352,96,168004,1,8,0:0:0:0:
160,96,168170,5,0,0:0:0:0:
352,96,168420,1,8,0:0:0:0:
160,96,168504,1,0,0:0:0:0:
160,96,168670,1,0,0:0:0:0:
352,96,168837,1,8,0:0:0:0:
160,96,169004,1,0,0:0:0:0:
352,96,169087,1,8,0:0:0:0:
352,96,169170,1,8,0:0:0:0:
160,96,169337,1,0,0:0:0:0:
352,96,169504,1,8,0:0:0:0:
160,96,169670,1,0,0:0:0:0:
160,96,169754,1,0,0:0:0:0:
352,96,169837,1,8,0:0:0:0:
160,96,170004,1,0,0:0:0:0:
352,96,170170,1,8,0:0:0:0:
160,96,170254,1,0,0:0:0:0:
160,96,170420,1,0,0:0:0:0:
352,96,170504,1,8,0:0:0:0:
160,96,170670,1,0,0:0:0:0:
352,96,170837,1,8,0:0:0:0:
160,96,171170,1,0,0:0:0:0:
160,96,171337,1,0,0:0:0:0:
352,96,171504,1,8,0:0:0:0:
160,96,171670,1,0,0:0:0:0:
352,96,171754,1,8,0:0:0:0:
352,96,171837,1,8,0:0:0:0:
160,96,172004,1,0,0:0:0:0:
352,96,172170,1,8,0:0:0:0:
160,96,172420,1,0,0:0:0:0:
352,96,172504,1,8,0:0:0:0:
160,96,172670,1,0,0:0:0:0:
352,96,172837,1,8,0:0:0:0:
352,96,173004,1,8,0:0:0:0:
160,96,173087,1,0,0:0:0:0:
160,96,173170,1,0,0:0:0:0:
352,96,173337,1,8,0:0:0:0:
160,288,173504,1,4,0:0:0:0:
352,96,173837,1,8,0:0:0:0:
160,96,174004,1,0,0:0:0:0:
352,96,174170,1,8,0:0:0:0:
352,96,174254,1,8,0:0:0:0:
160,96,174337,1,0,0:0:0:0:
352,96,174504,1,8,0:0:0:0:
160,96,174670,1,0,0:0:0:0:
160,96,175004,1,0,0:0:0:0:
352,96,175170,1,8,0:0:0:0:
160,96,175337,1,0,0:0:0:0:
160,96,175420,1,0,0:0:0:0:
160,96,175504,1,0,0:0:0:0:
352,96,175670,1,8,0:0:0:0:
352,96,175837,1,8,0:0:0:0:
160,96,176170,1,0,0:0:0:0:
352,96,176504,1,8,0:0:0:0:
160,96,176670,1,0,0:0:0:0:
352,96,176837,1,8,0:0:0:0:
352,96,176920,1,8,0:0:0:0:
160,96,177004,1,0,0:0:0:0:
352,96,177170,1,8,0:0:0:0:
160,96,177337,1,0,0:0:0:0:
160,96,177420,1,0,0:0:0:0:
160,96,177504,1,0,0:0:0:0:
160,96,177670,1,0,0:0:0:0:
352,96,177837,1,8,0:0:0:0:
160,96,178004,1,0,0:0:0:0:
352,96,178087,1,8,0:0:0:0:
160,96,178170,1,0,0:0:0:0:
352,96,178337,1,8,0:0:0:0:
352,96,178504,1,8,0:0:0:0:
160,96,178837,1,0,0:0:0:0:
352,96,179170,1,8,0:0:0:0:
160,96,179337,1,0,0:0:0:0:
352,96,179504,1,8,0:0:0:0:
352,96,179587,1,8,0:0:0:0:
160,96,179670,1,0,0:0:0:0:
352,96,179837,1,8,0:0:0:0:
160,96,180004,1,0,0:0:0:0:
160,96,180337,1,0,0:0:0:0:
352,96,180504,1,8,0:0:0:0:
160,96,180670,1,0,0:0:0:0:
160,96,180754,1,0,0:0:0:0:
160,96,180837,1,0,0:0:0:0:
352,96,181004,1,8,0:0:0:0:
352,96,181170,1,8,0:0:0:0:
160,96,181504,1,0,0:0:0:0:
160,96,181754,1,0,0:0:0:0:
352,96,181837,1,8,0:0:0:0:
160,96,182004,1,0,0:0:0:0:
352,96,182170,1,8,0:0:0:0:
352,96,182254,1,8,0:0:0:0:
160,96,182337,1,0,0:0:0:0:
352,96,182504,1,8,0:0:0:0:
160,96,182670,1,0,0:0:0:0:
160,96,182754,1,0,0:0:0:0:
160,96,182837,1,0,0:0:0:0:
160,96,183004,1,0,0:0:0:0:
160,96,183087,1,0,0:0:0:0:
352,96,183170,1,8,0:0:0:0:
160,96,183282,1,0,0:0:0:0:
160,96,183393,1,0,0:0:0:0:
160,96,183504,1,0,0:0:0:0:
352,96,183670,1,8,0:0:0:0:
352,96,183837,1,8,0:0:0:0:
160,288,184170,1,4,0:0:0:0:
160,96,184504,1,0,0:0:0:0:
160,96,184837,1,0,0:0:0:0:
160,96,185170,1,0,0:0:0:0:
160,96,185504,1,0,0:0:0:0:
160,96,185837,1,0,0:0:0:0:
160,96,186170,1,0,0:0:0:0:
352,96,186337,1,8,0:0:0:0:
352,96,186420,1,8,0:0:0:0:
160,96,186504,1,0,0:0:0:0:
352,96,186670,1,8,0:0:0:0:
160,96,186837,1,0,0:0:0:0:
160,96,187170,1,0,0:0:0:0:
160,96,187504,1,0,0:0:0:0:
160,96,187837,1,0,0:0:0:0:
160,96,188170,1,0,0:0:0:0:
160,96,188504,1,0,0:0:0:0:
160,96,188837,1,0,0:0:0:0:
352,96,189004,1,8,0:0:0:0:
352,96,189087,1,8,0:0:0:0:
160,96,189170,1,0,0:0:0:0:
352,96,189337,1,8,0:0:0:0:
160,96,189504,1,0,0:0:0:0:
160,96,189837,1,0,0:0:0:0:
160,96,190170,1,0,0:0:0:0:
160,96,190504,1,0,0:0:0:0:
160,96,190837,1,0,0:0:0:0:
160,96,191170,1,0,0:0:0:0:
160,96,191504,1,0,0:0:0:0:
352,96,191670,1,8,0:0:0:0:
352,96,191754,1,8,0:0:0:0:
160,96,191837,1,0,0:0:0:0:
352,96,192004,1,8,0:0:0:0:
160,96,192170,1,0,0:0:0:0:
160,96,192504,1,0,0:0:0:0:
160,96,192837,1,0,0:0:0:0:
160,96,193170,1,0,0:0:0:0:
160,96,193504,1,0,0:0:0:0:
352,96,193670,1,8,0:0:0:0:
352,96,193754,1,8,0:0:0:0:
160,96,193837,1,0,0:0:0:0:
352,96,194004,1,8,0:0:0:0:
352,96,194087,1,8,0:0:0:0:
160,96,194170,1,0,0:0:0:0:
352,96,194337,1,8,0:0:0:0:
352,96,194420,1,8,0:0:0:0:
160,96,194504,1,0,0:0:0:0:
352,96,194670,1,8,0:0:0:0:
