osu file format v14

[General]
AudioFilename: audio.mp3
AudioLeadIn: 0
PreviewTime: 53420
Countdown: 0
SampleSet: Normal
StackLeniency: 0.7
Mode: 1
LetterboxInBreaks: 0
WidescreenStoryboard: 1

[Editor]
Bookmarks: 171,10837,21504,32170,42837,53504,96170,98837,109504,120170,141504,162837,173504,184170
DistanceSpacing: 2
BeatDivisor: 4
GridSize: 32
TimelineZoom: 1.9

[Metadata]
Title:mango sago
TitleUnicode:mango sago
Artist:kiraku
ArtistUnicode:kiraku
Creator:komasy
Version:Cynp-zy's Oni
Source:
Tags:Instrumental Electronic Happy Hardcore mangopop Attack The Music ATKS-0035 Cynplytholowazy
BeatmapID:2481867
BeatmapSetID:1191159

[Difficulty]
HPDrainRate:6
CircleSize:7
OverallDifficulty:5.5
ApproachRate:10
SliderMultiplier:1.4
SliderTickRate:1

[Events]
//Background and Video events
0,0,"yellow-white-and-gray-background-2340254.jpg",0,0
//Break Periods
//Storyboard Layer 0 (Background)
//Storyboard Layer 1 (Fail)
//Storyboard Layer 2 (Pass)
//Storyboard Layer 3 (Foreground)
//Storyboard Layer 4 (Overlay)
//Storyboard Sound Samples

[TimingPoints]
171,333.333333333333,4,1,0,80,1,0
171,-133.333333333333,4,1,0,80,0,0
8170,-133.333333333333,4,1,0,80,0,0
8504,-128.468323565458,4,1,0,80,0,0
8670,-126.166408446084,4,1,0,80,0,0
8837,-123.945686999957,4,1,0,80,0,0
9004,-121.801789511892,4,1,0,80,0,0
9087,-120.757341744485,4,1,0,80,0,0
9170,-119.730797275406,4,1,0,80,0,0
9254,-118.72141781866,4,1,0,80,0,0
9337,-117.729053646775,4,1,0,80,0,0
9504,-100,4,1,0,80,0,0
15837,-90.9090909090909,4,1,0,80,0,0
16170,-100,4,1,0,80,0,0
20337,-111.111111111111,4,1,0,80,0,0
21170,-90.9090909090909,4,1,0,80,0,0
21504,-100,4,1,0,80,0,0
26337,-95.2380952380952,4,1,0,80,0,0
26504,-86.9565217391304,4,1,0,80,0,0
26837,-100,4,1,0,80,0,0
27087,-99.3788819875776,4,1,0,80,0,0
27170,-99.173586503665,4,1,0,80,0,0
27337,-98.7654320987654,4,1,0,80,0,0
27504,-98.3606234883202,4,1,0,80,0,0
27587,-98.159509202454,4,1,0,80,0,0
27754,-97.759642277917,4,1,0,80,0,0
27837,-97.5609756097561,4,1,0,80,0,0
28004,-97.1659604320776,4,1,0,80,0,0
28170,-96.774224765879,4,1,0,80,0,0
28337,-96.3855421686747,4,1,0,80,0,0
28420,-96.1924156127986,4,1,0,80,0,0
28504,-95.9999692800098,4,1,0,80,0,0
28670,-95.6175603561945,4,1,0,80,0,0
28837,-95.2380952380952,4,1,0,80,0,0
28920,-95.0495350651992,4,1,0,80,0,0
29087,-94.6745562130178,4,1,0,80,0,0
29170,-94.4882187364469,4,1,0,80,0,0
29337,-94.1176470588235,4,1,0,80,0,0
29504,-93.7499707031342,4,1,0,80,0,0
29670,-93.3852430771185,4,1,0,80,0,0
29837,-93.0232558139535,4,1,0,80,0,0
30004,-92.6640640419879,4,1,0,80,0,0
30170,-92.3077207100679,4,1,0,80,0,0
30337,-91.9540229885058,4,1,0,80,0,0
30504,-91.6030254647251,4,1,0,80,0,0
30670,-91.2547806098192,4,1,0,80,0,0
30837,-90.9090909090909,4,1,0,80,0,0
32170,-133.333333333333,4,1,0,80,0,0
42837,-117.647058823529,4,1,0,80,0,0
48170,-117.647058823529,4,1,0,80,0,0
48504,-115.944179834061,4,1,0,80,0,0
48670,-115.111093716546,4,1,0,80,0,0
48837,-114.290024652358,4,1,0,80,0,0
49004,-113.480456963104,4,1,0,80,0,0
49170,-112.682277669415,4,1,0,80,0,0
49337,-111.895248144497,4,1,0,80,0,0
49504,-111.119136382072,4,1,0,80,0,0
49587,-110.735103913822,4,1,0,80,0,0
49670,-110.353716768358,4,1,0,80,0,0
49837,-109.598769863407,4,1,0,80,0,0
50004,-108.854082191363,4,1,0,80,0,0
50170,-108.119562937479,4,1,0,80,0,0
50337,-107.394774599847,4,1,0,80,0,0
50504,-106.679638910758,4,1,0,80,0,0
50670,-105.973964316447,4,1,0,80,0,0
50754,-105.624616450612,4,1,0,80,0,0
50837,-105.277564298272,4,1,0,80,0,0
51004,-104.590257208361,4,1,0,80,0,0
51170,-103.911866111639,4,1,0,80,0,0
51254,-103.575960019679,4,1,0,80,0,0
51337,-103.242218633982,4,1,0,80,0,0
51504,-102.581252045214,4,1,0,80,0,0
51587,-102.253880023477,4,1,0,80,0,0
51670,-101.92859086781,4,1,0,80,0,0
51837,-101.284182145422,4,1,0,80,0,0
51920,-100.965023696491,4,1,0,80,0,0
52004,-100.647870341388,4,1,0,80,0,0
52170,-100.019503803242,4,1,0,80,0,0
52337,-99.3989346422185,4,1,0,80,0,0
52420,-99.0915288633805,4,1,0,80,0,0
52504,-98.7860186172131,4,1,0,80,0,0
52670,-98.1806150230086,4,1,0,80,0,0
52837,-97.5826818062945,4,1,0,80,0,0
52920,-97.2863907040908,4,1,0,80,0,0
53004,-96.9918934175482,4,1,0,80,0,0
53170,-96.408215522494,4,1,0,80,0,0
53254,-96.1190030152531,4,1,0,80,0,0
53337,-95.8315205204035,4,1,0,80,0,0
53420,-95.5457525613428,4,1,0,80,0,0
53504,-90.9090909090909,4,1,0,90,0,1
64170,-90.9090909090909,4,1,0,90,0,0
64337,-100,4,1,0,90,0,0
65170,-86.9565217391304,4,1,0,90,0,0
66337,-100,4,1,0,90,0,0
66504,-83.3333333333333,4,1,0,90,0,0
66837,-90.9090909090909,4,1,0,90,0,1
74837,-86.9565217391304,4,1,0,90,0,0
77504,-90.9090909090909,4,1,0,90,0,1
85504,-90.9090909090909,4,1,0,90,0,0
85837,-100,4,1,0,90,0,0
96170,-90.9090909090909,4,1,0,90,0,0
96254,-100,4,1,0,50,0,0
97504,-133.333333333333,4,1,0,50,0,0
98754,-200,4,1,0,80,0,0
109504,-160,4,1,0,80,0,0
120170,-133.333333333333,4,1,0,80,0,0
136170,-121.212121212121,4,1,0,80,0,0
136337,-120.420266730891,4,1,0,80,0,0
136504,-119.638691152719,4,1,0,80,0,0
136670,-118.867195625687,4,1,0,80,0,0
136837,-118.105586394236,4,1,0,80,0,0
137004,-117.353674636937,4,1,0,80,0,0
137170,-116.611276310419,4,1,0,80,0,0
137337,-115.878211999189,4,1,0,80,0,0
137504,-115.154306771073,4,1,0,80,0,0
137670,-114.439390038051,4,1,0,80,0,0
137837,-113.733295422235,4,1,0,80,0,0
138004,-113.035860626784,4,1,0,80,0,0
138170,-112.347053530001,4,1,0,80,0,0
138337,-111.666465667028,4,1,0,80,0,0
138504,-110.994074026388,4,1,0,80,0,0
138670,-110.329731435368,4,1,0,80,0,0
138837,-109.673294223837,4,1,0,80,0,0
139004,-109.02462212066,4,1,0,80,0,0
139087,-108.703095972876,4,1,0,80,0,0
139170,-108.383578153772,4,1,0,80,0,0
139254,-108.065816404823,4,1,0,80,0,0
139337,-107.750028553758,4,1,0,80,0,0
139504,-107.123842660785,4,1,0,80,0,0
139670,-106.504892834777,4,1,0,80,0,0
139754,-106.198035973523,4,1,0,80,0,0
139837,-105.893054368671,4,1,0,80,0,0
139920,-105.589819451968,4,1,0,80,0,0
140004,-105.288205404654,4,1,0,80,0,0
140170,-90.9090909090909,4,1,0,80,0,0
141420,-133.333333333333,4,1,0,40,0,0
142420,-83.3333333333333,4,1,0,80,0,0
143670,-100,4,1,0,80,0,0
143837,-95.2380952380952,4,1,0,80,0,0
143920,-94.3396226415094,4,1,0,80,0,0
144004,-93.4579439252336,4,1,0,80,0,0
144087,-92.5925925925926,4,1,0,80,0,0
144170,-86.9565217391304,4,1,0,90,0,1
157504,-86.9565217391304,4,1,0,90,0,0
157837,-95.2380952380952,4,1,0,90,0,0
160170,-86.9565217391304,4,1,0,90,0,1
162837,-86.9565217391304,4,1,0,90,0,0
163170,-93.0232558139535,4,1,0,90,0,0
173837,-100,4,1,0,90,0,0
184087,-100,4,1,0,55,0,0
184504,-133.333333333333,4,1,0,55,0,0

[HitObjects]
256,192,171,5,2,0:0:0:0:
256,192,504,1,0,0:0:0:0:
256,192,837,1,2,0:0:0:0:
256,192,1087,1,2,0:0:0:0:
256,192,1337,1,2,0:0:0:0:
256,192,1504,1,2,0:0:0:0:
256,192,1670,1,0,0:0:0:0:
256,192,1837,1,2,0:0:0:0:
256,192,2004,1,0,0:0:0:0:
256,192,2170,1,0,0:0:0:0:
256,192,2420,1,0,0:0:0:0:
256,192,2670,1,0,0:0:0:0:
256,192,2837,1,2,0:0:0:0:
256,192,3170,1,0,0:0:0:0:
256,192,3337,1,0,0:0:0:0:
256,192,3504,1,2,0:0:0:0:
256,192,3754,1,2,0:0:0:0:
256,192,4004,1,2,0:0:0:0:
256,192,4170,1,2,0:0:0:0:
256,192,4504,1,0,0:0:0:0:
256,192,4837,1,0,0:0:0:0:
256,192,5087,1,2,0:0:0:0:
256,192,5170,1,2,0:0:0:0:
256,192,5337,1,2,0:0:0:0:
256,192,5504,1,2,0:0:0:0:
256,192,5837,1,0,0:0:0:0:
256,192,6004,1,0,0:0:0:0:
256,192,6170,1,2,0:0:0:0:
256,192,6420,1,2,0:0:0:0:
256,192,6670,1,2,0:0:0:0:
256,192,6837,1,2,0:0:0:0:
256,192,7004,1,0,0:0:0:0:
256,192,7170,1,2,0:0:0:0:
256,192,7337,1,0,0:0:0:0:
256,192,7504,1,0,0:0:0:0:
256,192,7754,1,0,0:0:0:0:
256,192,8004,1,0,0:0:0:0:
256,192,8170,1,2,0:0:0:0:
256,192,8504,1,0,0:0:0:0:
256,192,8670,1,0,0:0:0:0:
256,192,8837,1,2,0:0:0:0:
256,192,9004,1,0,0:0:0:0:
256,192,9087,1,2,0:0:0:0:
256,192,9170,1,0,0:0:0:0:
256,192,9254,1,0,0:0:0:0:
256,192,9337,1,2,0:0:0:0:
256,192,9504,1,4,0:0:0:0:
256,192,9837,1,4,0:0:0:0:
256,192,10837,1,4,0:0:0:0:
256,192,11170,1,0,0:0:0:0:
256,192,11504,1,2,0:0:0:0:
256,192,11754,1,2,0:0:0:0:
256,192,11837,1,0,0:0:0:0:
256,192,12004,1,2,0:0:0:0:
256,192,12170,1,2,0:0:0:0:
256,192,12337,1,0,0:0:0:0:
256,192,12504,1,2,0:0:0:0:
256,192,12670,1,0,0:0:0:0:
256,192,12837,1,0,0:0:0:0:
256,192,13087,1,0,0:0:0:0:
256,192,13170,1,2,0:0:0:0:
256,192,13337,1,0,0:0:0:0:
256,192,13504,1,2,0:0:0:0:
256,192,13837,1,0,0:0:0:0:
256,192,14004,1,0,0:0:0:0:
256,192,14170,1,2,0:0:0:0:
256,192,14420,1,2,0:0:0:0:
256,192,14504,1,0,0:0:0:0:
256,192,14670,1,2,0:0:0:0:
256,192,14837,1,2,0:0:0:0:
256,192,15004,1,0,0:0:0:0:
256,192,15170,1,2,0:0:0:0:
256,192,15337,1,0,0:0:0:0:
256,192,15504,1,0,0:0:0:0:
256,192,15587,1,2,0:0:0:0:
256,192,15670,1,0,0:0:0:0:
256,192,15754,1,0,0:0:0:0:
256,192,15837,1,6,0:0:0:0:
256,192,16170,1,4,0:0:0:0:
256,192,16504,1,0,0:0:0:0:
256,192,16837,1,2,0:0:0:0:
256,192,17087,1,2,0:0:0:0:
256,192,17170,1,0,0:0:0:0:
256,192,17337,1,2,0:0:0:0:
256,192,17504,1,2,0:0:0:0:
256,192,17670,1,0,0:0:0:0:
256,192,17837,1,2,0:0:0:0:
256,192,18004,1,0,0:0:0:0:
256,192,18170,1,0,0:0:0:0:
256,192,18420,1,0,0:0:0:0:
256,192,18504,1,2,0:0:0:0:
256,192,18670,1,0,0:0:0:0:
256,192,18837,1,2,0:0:0:0:
256,192,19170,1,0,0:0:0:0:
256,192,19337,1,0,0:0:0:0:
256,192,19504,1,2,0:0:0:0:
256,192,19754,1,2,0:0:0:0:
256,192,19837,1,0,0:0:0:0:
256,192,20004,1,2,0:0:0:0:
256,192,20170,1,6,0:0:0:0:
256,192,20337,1,0,0:0:0:0:
256,192,20670,1,0,0:0:0:0:
256,192,21004,1,0,0:0:0:0:
256,192,21087,1,0,0:0:0:0:
256,192,21170,1,6,0:0:0:0:
256,192,21504,1,4,0:0:0:0:
256,192,21837,1,0,0:0:0:0:
256,192,22170,1,2,0:0:0:0:
256,192,22420,1,2,0:0:0:0:
256,192,22504,1,0,0:0:0:0:
256,192,22670,1,2,0:0:0:0:
256,192,22837,1,2,0:0:0:0:
256,192,23004,1,0,0:0:0:0:
256,192,23170,1,2,0:0:0:0:
256,192,23337,1,0,0:0:0:0:
256,192,23504,1,0,0:0:0:0:
256,192,23754,1,0,0:0:0:0:
256,192,23837,1,2,0:0:0:0:
256,192,24004,1,0,0:0:0:0:
256,192,24170,1,2,0:0:0:0:
256,192,24504,1,0,0:0:0:0:
256,192,24670,1,0,0:0:0:0:
256,192,24837,1,2,0:0:0:0:
256,192,25087,1,2,0:0:0:0:
256,192,25170,1,0,0:0:0:0:
256,192,25337,1,2,0:0:0:0:
256,192,25504,1,2,0:0:0:0:
256,192,25670,1,0,0:0:0:0:
256,192,25837,1,2,0:0:0:0:
256,192,26004,1,0,0:0:0:0:
256,192,26170,1,0,0:0:0:0:
256,192,26337,1,4,0:0:0:0:
256,192,26504,1,6,0:0:0:0:
256,192,26837,1,4,0:0:0:0:
256,192,27087,1,0,0:0:0:0:
256,192,27170,1,2,0:0:0:0:
256,192,27337,1,0,0:0:0:0:
256,192,27504,1,2,0:0:0:0:
256,192,27587,1,0,0:0:0:0:
256,192,27754,1,0,0:0:0:0:
256,192,27837,1,2,0:0:0:0:
256,192,28004,1,2,0:0:0:0:
256,192,28170,1,4,0:0:0:0:
256,192,28337,1,0,0:0:0:0:
256,192,28420,1,2,0:0:0:0:
256,192,28504,1,0,0:0:0:0:
256,192,28670,1,0,0:0:0:0:
256,192,28837,1,2,0:0:0:0:
256,192,28920,1,0,0:0:0:0:
256,192,29087,1,0,0:0:0:0:
256,192,29170,1,2,0:0:0:0:
256,192,29337,1,0,0:0:0:0:
256,192,29504,1,6,0:0:0:0:
256,192,29670,1,0,0:0:0:0:
256,192,29837,1,2,0:0:0:0:
256,192,30004,1,0,0:0:0:0:
256,192,30170,1,6,0:0:0:0:
256,192,30337,1,0,0:0:0:0:
256,192,30504,1,2,0:0:0:0:
256,192,30670,1,0,0:0:0:0:
256,192,30837,1,6,0:0:0:0:
256,192,31170,1,6,0:0:0:0:
256,192,32170,1,4,0:0:0:0:
256,192,32504,1,0,0:0:0:0:
256,192,32837,1,2,0:0:0:0:
256,192,33087,1,2,0:0:0:0:
256,192,33337,1,2,0:0:0:0:
256,192,33504,1,2,0:0:0:0:
256,192,33837,1,2,0:0:0:0:
256,192,34170,1,0,0:0:0:0:
256,192,34420,1,0,0:0:0:0:
256,192,34670,1,0,0:0:0:0:
256,192,34837,1,0,0:0:0:0:
256,192,35170,1,0,0:0:0:0:
256,192,35504,1,2,0:0:0:0:
256,192,35754,1,2,0:0:0:0:
256,192,36004,1,2,0:0:0:0:
256,192,36170,1,2,0:0:0:0:
256,192,36504,1,2,0:0:0:0:
256,192,36837,1,0,0:0:0:0:
256,192,37087,1,0,0:0:0:0:
256,192,37337,1,0,0:0:0:0:
256,192,37504,1,0,0:0:0:0:
256,192,37837,1,0,0:0:0:0:
256,192,38170,1,2,0:0:0:0:
256,192,38420,1,2,0:0:0:0:
256,192,38670,1,2,0:0:0:0:
256,192,38837,1,2,0:0:0:0:
256,192,39170,1,2,0:0:0:0:
256,192,39504,1,0,0:0:0:0:
256,192,39754,1,0,0:0:0:0:
256,192,40004,1,0,0:0:0:0:
256,192,40170,1,0,0:0:0:0:
256,192,40504,1,0,0:0:0:0:
256,192,40837,1,2,0:0:0:0:
256,192,41087,1,2,0:0:0:0:
256,192,41337,1,2,0:0:0:0:
256,192,41504,1,0,0:0:0:0:
256,192,41837,1,0,0:0:0:0:
256,192,42170,1,2,0:0:0:0:
256,192,42420,1,2,0:0:0:0:
256,192,42670,1,2,0:0:0:0:
256,192,42837,1,2,0:0:0:0:
256,192,43170,1,0,0:0:0:0:
256,192,43504,1,2,0:0:0:0:
256,192,43837,1,0,0:0:0:0:
256,192,44004,1,2,0:0:0:0:
256,192,44337,1,2,0:0:0:0:
256,192,44670,1,0,0:0:0:0:
256,192,45004,1,0,0:0:0:0:
256,192,45170,1,2,0:0:0:0:
256,192,45337,1,2,0:0:0:0:
256,192,45504,1,2,0:0:0:0:
256,192,45837,1,0,0:0:0:0:
256,192,46170,1,0,0:0:0:0:
256,192,46337,1,2,0:0:0:0:
256,192,46670,1,2,0:0:0:0:
256,192,47004,1,0,0:0:0:0:
256,192,47337,1,2,0:0:0:0:
256,192,47670,1,2,0:0:0:0:
256,192,47837,1,2,0:0:0:0:
256,192,48004,1,0,0:0:0:0:
256,192,48170,1,2,0:0:0:0:
256,192,48504,1,2,0:0:0:0:
256,192,48670,1,0,0:0:0:0:
256,192,48837,1,2,0:0:0:0:
256,192,49004,1,0,0:0:0:0:
256,192,49170,1,2,0:0:0:0:
256,192,49337,1,2,0:0:0:0:
256,192,49504,1,0,0:0:0:0:
256,192,49587,1,0,0:0:0:0:
256,192,49670,1,2,0:0:0:0:
256,192,49837,1,2,0:0:0:0:
256,192,50004,1,0,0:0:0:0:
256,192,50170,1,2,0:0:0:0:
256,192,50337,1,0,0:0:0:0:
256,192,50504,1,2,0:0:0:0:
256,192,50670,1,0,0:0:0:0:
256,192,50754,1,0,0:0:0:0:
256,192,50837,1,6,0:0:0:0:
256,192,51004,1,0,0:0:0:0:
256,192,51170,1,2,0:0:0:0:
256,192,51254,1,0,0:0:0:0:
256,192,51337,1,2,0:0:0:0:
256,192,51504,1,2,0:0:0:0:
256,192,51587,1,0,0:0:0:0:
256,192,51670,1,2,0:0:0:0:
256,192,51837,1,0,0:0:0:0:
256,192,51920,1,0,0:0:0:0:
256,192,52004,1,2,0:0:0:0:
256,192,52170,1,4,0:0:0:0:
256,192,52337,1,0,0:0:0:0:
256,192,52420,1,2,0:0:0:0:
256,192,52504,1,0,0:0:0:0:
256,192,52670,1,0,0:0:0:0:
256,192,52837,1,2,0:0:0:0:
256,192,52920,1,2,0:0:0:0:
256,192,53004,1,0,0:0:0:0:
256,192,53170,1,2,0:0:0:0:
256,192,53254,1,2,0:0:0:0:
256,192,53337,1,2,0:0:0:0:
256,192,53420,1,2,0:0:0:0:
256,192,53504,1,4,0:0:0:0:
256,192,53837,1,2,0:0:0:0:
256,192,54004,1,0,0:0:0:0:
256,192,54170,1,2,0:0:0:0:
256,192,54337,1,0,0:0:0:0:
256,192,54420,1,0,0:0:0:0:
256,192,54504,1,2,0:0:0:0:
256,192,54670,1,2,0:0:0:0:
256,192,55004,1,2,0:0:0:0:
256,192,55170,1,0,0:0:0:0:
256,192,55337,1,2,0:0:0:0:
256,192,55504,1,0,0:0:0:0:
256,192,55670,1,0,0:0:0:0:
256,192,55754,1,0,0:0:0:0:
256,192,55837,1,2,0:0:0:0:
256,192,56004,1,0,0:0:0:0:
256,192,56170,1,2,0:0:0:0:
256,192,56504,1,2,0:0:0:0:
256,192,56670,1,0,0:0:0:0:
256,192,56754,1,0,0:0:0:0:
256,192,56837,1,2,0:0:0:0:
256,192,57004,1,2,0:0:0:0:
256,192,57170,1,0,0:0:0:0:
256,192,57337,1,2,0:0:0:0:
256,192,57670,1,2,0:0:0:0:
256,192,57837,1,0,0:0:0:0:
256,192,58004,1,2,0:0:0:0:
256,192,58170,1,0,0:0:0:0:
256,192,58337,1,0,0:0:0:0:
256,192,58420,1,0,0:0:0:0:
256,192,58504,1,2,0:0:0:0:
256,192,58670,1,2,0:0:0:0:
256,192,58837,1,2,0:0:0:0:
256,192,59170,1,2,0:0:0:0:
256,192,59337,1,0,0:0:0:0:
256,192,59504,1,2,0:0:0:0:
256,192,59670,1,0,0:0:0:0:
256,192,59754,1,0,0:0:0:0:
256,192,59837,1,2,0:0:0:0:
256,192,60004,1,2,0:0:0:0:
256,192,60337,1,2,0:0:0:0:
256,192,60504,1,0,0:0:0:0:
256,192,60670,1,2,0:0:0:0:
256,192,60837,1,0,0:0:0:0:
256,192,61004,1,0,0:0:0:0:
256,192,61087,1,0,0:0:0:0:
256,192,61170,1,2,0:0:0:0:
256,192,61337,1,0,0:0:0:0:
256,192,61504,1,2,0:0:0:0:
256,192,61837,1,2,0:0:0:0:
256,192,62004,1,0,0:0:0:0:
256,192,62170,1,2,0:0:0:0:
256,192,62337,1,0,0:0:0:0:
256,192,62420,1,0,0:0:0:0:
256,192,62504,1,2,0:0:0:0:
256,192,62670,1,2,0:0:0:0:
256,192,63004,1,2,0:0:0:0:
256,192,63170,1,0,0:0:0:0:
256,192,63337,1,2,0:0:0:0:
256,192,63504,1,0,0:0:0:0:
256,192,63670,1,2,0:0:0:0:
256,192,63837,1,2,0:0:0:0:
256,192,64004,1,0,0:0:0:0:
256,192,64087,1,0,0:0:0:0:
256,192,64170,1,6,0:0:0:0:
256,192,64337,1,0,0:0:0:0:
256,192,64670,1,0,0:0:0:0:
256,192,65004,1,0,0:0:0:0:
256,192,65170,1,4,0:0:0:0:
256,192,65337,1,6,0:0:0:0:
256,192,65670,1,6,0:0:0:0:
256,192,66004,1,4,0:0:0:0:
256,192,66337,1,0,0:0:0:0:
256,192,66504,1,6,0:0:0:0:
256,192,66837,1,4,0:0:0:0:
256,192,67170,1,2,0:0:0:0:
256,192,67337,1,0,0:0:0:0:
256,192,67420,1,0,0:0:0:0:
256,192,67504,1,2,0:0:0:0:
256,192,67670,1,2,0:0:0:0:
256,192,67837,1,0,0:0:0:0:
256,192,68004,1,2,0:0:0:0:
256,192,68337,1,2,0:0:0:0:
256,192,68504,1,0,0:0:0:0:
256,192,68670,1,2,0:0:0:0:
256,192,68837,1,0,0:0:0:0:
256,192,69004,1,2,0:0:0:0:
256,192,69087,1,0,0:0:0:0:
256,192,69170,1,2,0:0:0:0:
256,192,69337,1,0,0:0:0:0:
256,192,69504,1,2,0:0:0:0:
256,192,69837,1,2,0:0:0:0:
256,192,70004,1,0,0:0:0:0:
256,192,70170,1,2,0:0:0:0:
256,192,70337,1,0,0:0:0:0:
256,192,70420,1,0,0:0:0:0:
256,192,70504,1,2,0:0:0:0:
256,192,70670,1,2,0:0:0:0:
256,192,71004,1,2,0:0:0:0:
256,192,71170,1,0,0:0:0:0:
256,192,71337,1,2,0:0:0:0:
256,192,71504,1,0,0:0:0:0:
256,192,71670,1,0,0:0:0:0:
256,192,71754,1,0,0:0:0:0:
256,192,71837,1,2,0:0:0:0:
256,192,72004,1,0,0:0:0:0:
256,192,72170,1,2,0:0:0:0:
256,192,72504,1,2,0:0:0:0:
256,192,72670,1,0,0:0:0:0:
256,192,72837,1,2,0:0:0:0:
256,192,73004,1,0,0:0:0:0:
256,192,73087,1,0,0:0:0:0:
256,192,73170,1,2,0:0:0:0:
256,192,73337,1,2,0:0:0:0:
256,192,73670,1,2,0:0:0:0:
256,192,73837,1,0,0:0:0:0:
256,192,74004,1,2,0:0:0:0:
256,192,74170,1,0,0:0:0:0:
256,192,74337,1,2,0:0:0:0:
256,192,74420,1,0,0:0:0:0:
256,192,74504,1,2,0:0:0:0:
256,192,74587,1,0,0:0:0:0:
256,192,74670,1,2,0:0:0:0:
256,192,74837,1,6,0:0:0:0:
256,192,75170,1,6,0:0:0:0:
256,192,75504,1,6,0:0:0:0:
256,192,75670,1,4,0:0:0:0:
256,192,76004,1,6,0:0:0:0:
256,192,76337,1,6,0:0:0:0:
256,192,76670,1,4,0:0:0:0:
256,192,77004,1,4,0:0:0:0:
256,192,77170,1,6,0:0:0:0:
256,192,77504,1,6,0:0:0:0:
256,192,77754,1,2,0:0:0:0:
256,192,77837,1,4,0:0:0:0:
256,192,78004,1,0,0:0:0:0:
256,192,78087,1,0,0:0:0:0:
256,192,78170,1,6,0:0:0:0:
256,192,78420,1,4,0:0:0:0:
256,192,78670,1,6,0:0:0:0:
256,192,78837,1,4,0:0:0:0:
256,192,79004,1,2,0:0:0:0:
256,192,79170,1,0,0:0:0:0:
256,192,79337,1,2,0:0:0:0:
256,192,79504,1,0,0:0:0:0:
256,192,79670,1,2,0:0:0:0:
256,192,79754,1,0,0:0:0:0:
256,192,79837,1,2,0:0:0:0:
256,192,80004,1,0,0:0:0:0:
256,192,80170,1,6,0:0:0:0:
256,192,80504,1,2,0:0:0:0:
256,192,80670,1,0,0:0:0:0:
256,192,80837,1,2,0:0:0:0:
256,192,81004,1,0,0:0:0:0:
256,192,81087,1,0,0:0:0:0:
256,192,81170,1,2,0:0:0:0:
256,192,81337,1,2,0:0:0:0:
256,192,81670,1,2,0:0:0:0:
256,192,81837,1,0,0:0:0:0:
256,192,82004,1,2,0:0:0:0:
256,192,82170,1,0,0:0:0:0:
256,192,82337,1,0,0:0:0:0:
256,192,82420,1,0,0:0:0:0:
256,192,82504,1,2,0:0:0:0:
256,192,82670,1,0,0:0:0:0:
256,192,82837,1,2,0:0:0:0:
256,192,83170,1,2,0:0:0:0:
256,192,83337,1,0,0:0:0:0:
256,192,83504,1,2,0:0:0:0:
256,192,83670,1,0,0:0:0:0:
256,192,83754,1,0,0:0:0:0:
256,192,83837,1,2,0:0:0:0:
256,192,84004,1,2,0:0:0:0:
256,192,84337,1,2,0:0:0:0:
256,192,84504,1,0,0:0:0:0:
256,192,84670,1,2,0:0:0:0:
256,192,84837,1,0,0:0:0:0:
256,192,84920,1,0,0:0:0:0:
256,192,85004,1,2,0:0:0:0:
256,192,85170,1,2,0:0:0:0:
256,192,85337,1,0,0:0:0:0:
256,192,85504,1,6,0:0:0:0:
256,192,85837,1,2,0:0:0:0:
256,192,86004,1,0,0:0:0:0:
256,192,86337,1,0,0:0:0:0:
256,192,86670,1,0,0:0:0:0:
256,192,86837,1,2,0:0:0:0:
256,192,87004,1,0,0:0:0:0:
256,192,87170,1,2,0:0:0:0:
256,192,87337,1,0,0:0:0:0:
256,192,87420,1,0,0:0:0:0:
256,192,87504,1,2,0:0:0:0:
256,192,87670,1,0,0:0:0:0:
256,192,87837,1,2,0:0:0:0:
256,192,87920,1,2,0:0:0:0:
256,192,88004,1,2,0:0:0:0:
256,192,88087,1,2,0:0:0:0:
256,192,88170,1,0,0:0:0:0:
256,192,88504,1,2,0:0:0:0:
256,192,88670,1,0,0:0:0:0:
256,192,88754,1,0,0:0:0:0:
256,192,88837,1,2,0:0:0:0:
256,192,89004,1,2,0:0:0:0:
256,192,89170,1,0,0:0:0:0:
256,192,89337,1,2,0:0:0:0:
256,192,89670,1,2,0:0:0:0:
256,192,89837,1,0,0:0:0:0:
256,192,90004,1,2,0:0:0:0:
256,192,90170,1,0,0:0:0:0:
256,192,90254,1,0,0:0:0:0:
256,192,90337,1,2,0:0:0:0:
256,192,90504,1,0,0:0:0:0:
256,192,90587,1,0,0:0:0:0:
256,192,90670,1,2,0:0:0:0:
256,192,90754,1,0,0:0:0:0:
256,192,90837,1,2,0:0:0:0:
256,192,91170,1,2,0:0:0:0:
256,192,91337,1,0,0:0:0:0:
256,192,91504,1,2,0:0:0:0:
256,192,91670,1,0,0:0:0:0:
256,192,91754,1,0,0:0:0:0:
256,192,91837,1,2,0:0:0:0:
256,192,92004,1,0,0:0:0:0:
256,192,92337,1,0,0:0:0:0:
256,192,92670,1,0,0:0:0:0:
256,192,92837,1,0,0:0:0:0:
256,192,93004,1,0,0:0:0:0:
256,192,93087,1,0,0:0:0:0:
256,192,93170,1,2,0:0:0:0:
256,192,93337,1,0,0:0:0:0:
256,192,93504,1,6,0:0:0:0:
256,192,93837,1,4,0:0:0:0:
256,192,94170,1,6,0:0:0:0:
256,192,94504,1,4,0:0:0:0:
256,192,94670,1,0,0:0:0:0:
256,192,94837,1,6,0:0:0:0:
256,192,95004,1,0,0:0:0:0:
256,192,95087,1,0,0:0:0:0:
256,192,95170,1,6,0:0:0:0:
256,192,95337,1,0,0:0:0:0:
256,192,95420,1,0,0:0:0:0:
256,192,95504,1,6,0:0:0:0:
256,192,95670,1,0,0:0:0:0:
256,192,95754,1,0,0:0:0:0:
256,192,95837,1,6,0:0:0:0:
256,192,96004,1,0,0:0:0:0:
256,192,96087,1,2,0:0:0:0:
256,192,96170,1,4,0:0:0:0:
256,192,98837,1,2,0:0:0:0:
256,192,99337,1,0,0:0:0:0:
256,192,99837,1,2,0:0:0:0:
256,192,101504,1,0,0:0:0:0:
256,192,101670,1,2,0:0:0:0:
256,192,101837,1,2,0:0:0:0:
256,192,102004,1,0,0:0:0:0:
256,192,102170,1,2,0:0:0:0:
256,192,102337,1,2,0:0:0:0:
256,192,102504,1,2,0:0:0:0:
256,192,102670,1,2,0:0:0:0:
256,192,102837,1,0,0:0:0:0:
256,192,103337,1,2,0:0:0:0:
256,192,103837,1,0,0:0:0:0:
256,192,104170,1,2,0:0:0:0:
256,192,104670,1,2,0:0:0:0:
256,192,105170,1,2,0:0:0:0:
256,192,106837,1,0,0:0:0:0:
256,192,107004,1,0,0:0:0:0:
256,192,107170,1,2,0:0:0:0:
256,192,107504,1,0,0:0:0:0:
256,192,107670,1,0,0:0:0:0:
256,192,107837,1,2,0:0:0:0:
256,192,108004,1,2,0:0:0:0:
256,192,108337,1,2,0:0:0:0:
256,192,108504,1,2,0:0:0:0:
256,192,108670,1,0,0:0:0:0:
256,192,109170,1,2,0:0:0:0:
256,192,109504,1,2,0:0:0:0:
256,192,110170,1,2,0:0:0:0:
256,192,110337,1,0,0:0:0:0:
256,192,110504,1,2,0:0:0:0:
256,192,111170,1,0,0:0:0:0:
256,192,111504,1,2,0:0:0:0:
256,192,112170,1,2,0:0:0:0:
256,192,112837,1,2,0:0:0:0:
256,192,113004,1,0,0:0:0:0:
256,192,113170,1,0,0:0:0:0:
256,192,113837,1,0,0:0:0:0:
256,192,114170,1,2,0:0:0:0:
256,192,114504,1,2,0:0:0:0:
256,192,114670,1,0,0:0:0:0:
256,192,114837,1,2,0:0:0:0:
256,192,115504,1,2,0:0:0:0:
256,192,115670,1,0,0:0:0:0:
256,192,115837,1,2,0:0:0:0:
256,192,116504,1,0,0:0:0:0:
256,192,116837,1,2,0:0:0:0:
256,192,117504,1,2,0:0:0:0:
256,192,118170,1,2,0:0:0:0:
256,192,118337,1,0,0:0:0:0:
256,192,118504,1,0,0:0:0:0:
256,192,119170,1,0,0:0:0:0:
256,192,119504,1,2,0:0:0:0:
256,192,119837,1,2,0:0:0:0:
256,192,120004,1,2,0:0:0:0:
256,192,120170,1,2,0:0:0:0:
256,192,120504,1,0,0:0:0:0:
256,192,120837,1,2,0:0:0:0:
256,192,121087,1,2,0:0:0:0:
256,192,121337,1,2,0:0:0:0:
256,192,121504,1,2,0:0:0:0:
256,192,121670,1,0,0:0:0:0:
256,192,121837,1,2,0:0:0:0:
256,192,122004,1,0,0:0:0:0:
256,192,122170,1,0,0:0:0:0:
256,192,122420,1,0,0:0:0:0:
256,192,122670,1,0,0:0:0:0:
256,192,122837,1,2,0:0:0:0:
256,192,123170,1,0,0:0:0:0:
256,192,123337,1,0,0:0:0:0:
256,192,123504,1,2,0:0:0:0:
256,192,123754,1,2,0:0:0:0:
256,192,124004,1,2,0:0:0:0:
256,192,124170,1,2,0:0:0:0:
256,192,124504,1,0,0:0:0:0:
256,192,124837,1,0,0:0:0:0:
256,192,125087,1,2,0:0:0:0:
256,192,125170,1,2,0:0:0:0:
256,192,125337,1,2,0:0:0:0:
256,192,125504,1,2,0:0:0:0:
256,192,125837,1,0,0:0:0:0:
256,192,126004,1,0,0:0:0:0:
256,192,126170,1,2,0:0:0:0:
256,192,126420,1,2,0:0:0:0:
256,192,126670,1,2,0:0:0:0:
256,192,126837,1,2,0:0:0:0:
256,192,127004,1,0,0:0:0:0:
256,192,127170,1,2,0:0:0:0:
256,192,127337,1,0,0:0:0:0:
256,192,127504,1,0,0:0:0:0:
256,192,127754,1,0,0:0:0:0:
256,192,128004,1,0,0:0:0:0:
256,192,128170,1,2,0:0:0:0:
256,192,128504,1,0,0:0:0:0:
256,192,128670,1,0,0:0:0:0:
256,192,128837,1,2,0:0:0:0:
256,192,129087,1,2,0:0:0:0:
256,192,129337,1,2,0:0:0:0:
256,192,129504,1,2,0:0:0:0:
256,192,129837,1,0,0:0:0:0:
256,192,130170,1,0,0:0:0:0:
256,192,130420,1,2,0:0:0:0:
256,192,130504,1,2,0:0:0:0:
256,192,130670,1,2,0:0:0:0:
256,192,130837,1,2,0:0:0:0:
256,192,131170,1,0,0:0:0:0:
256,192,131504,1,2,0:0:0:0:
256,192,131754,1,2,0:0:0:0:
256,192,132004,1,2,0:0:0:0:
256,192,132170,1,2,0:0:0:0:
256,192,132337,1,0,0:0:0:0:
256,192,132504,1,2,0:0:0:0:
256,192,132670,1,0,0:0:0:0:
256,192,132837,1,0,0:0:0:0:
256,192,133087,1,0,0:0:0:0:
256,192,133337,1,0,0:0:0:0:
256,192,133504,1,2,0:0:0:0:
256,192,133837,1,0,0:0:0:0:
256,192,134004,1,0,0:0:0:0:
256,192,134170,1,2,0:0:0:0:
256,192,134420,1,2,0:0:0:0:
256,192,134670,1,2,0:0:0:0:
256,192,134837,1,2,0:0:0:0:
256,192,135170,1,0,0:0:0:0:
256,192,135504,1,0,0:0:0:0:
256,192,135754,1,2,0:0:0:0:
256,192,135837,1,2,0:0:0:0:
256,192,136004,1,2,0:0:0:0:
256,192,136170,1,6,0:0:0:0:
256,192,136337,1,0,0:0:0:0:
256,192,136504,1,2,0:0:0:0:
256,192,136670,1,0,0:0:0:0:
256,192,136837,1,2,0:0:0:0:
256,192,137004,1,0,0:0:0:0:
256,192,137170,1,2,0:0:0:0:
256,192,137337,1,0,0:0:0:0:
256,192,137504,1,6,0:0:0:0:
256,192,137670,1,0,0:0:0:0:
256,192,137837,1,2,0:0:0:0:
256,192,138004,1,0,0:0:0:0:
256,192,138170,1,2,0:0:0:0:
256,192,138337,1,0,0:0:0:0:
256,192,138504,1,2,0:0:0:0:
256,192,138670,1,0,0:0:0:0:
256,192,138837,1,6,0:0:0:0:
256,192,139004,1,0,0:0:0:0:
256,192,139087,1,0,0:0:0:0:
256,192,139170,1,2,0:0:0:0:
256,192,139254,1,2,0:0:0:0:
256,192,139337,1,0,0:0:0:0:
256,192,139504,1,6,0:0:0:0:
256,192,139670,1,0,0:0:0:0:
256,192,139754,1,2,0:0:0:0:
256,192,139837,1,0,0:0:0:0:
256,192,139920,1,0,0:0:0:0:
256,192,140004,1,2,0:0:0:0:
256,192,140170,1,4,0:0:0:0:
256,192,140837,1,4,0:0:0:0:
256,192,141504,1,2,0:0:0:0:
256,192,141837,1,2,0:0:0:0:
256,192,142170,1,2,0:0:0:0:
256,192,142504,1,4,0:0:0:0:
256,192,142670,1,6,0:0:0:0:
256,192,143004,1,6,0:0:0:0:
256,192,143337,1,4,0:0:0:0:
256,192,143670,1,0,0:0:0:0:
256,192,143837,1,2,0:0:0:0:
256,192,143920,1,2,0:0:0:0:
256,192,144004,1,0,0:0:0:0:
256,192,144087,1,0,0:0:0:0:
256,192,144170,1,6,0:0:0:0:
256,192,144504,1,2,0:0:0:0:
256,192,144670,1,0,0:0:0:0:
256,192,144754,1,0,0:0:0:0:
256,192,144837,1,2,0:0:0:0:
256,192,145004,1,2,0:0:0:0:
256,192,145170,1,0,0:0:0:0:
256,192,145337,1,2,0:0:0:0:
256,192,145670,1,2,0:0:0:0:
256,192,145837,1,0,0:0:0:0:
256,192,146004,1,2,0:0:0:0:
256,192,146170,1,0,0:0:0:0:
256,192,146337,1,0,0:0:0:0:
256,192,146420,1,0,0:0:0:0:
256,192,146504,1,2,0:0:0:0:
256,192,146670,1,2,0:0:0:0:
256,192,146837,1,2,0:0:0:0:
256,192,147170,1,2,0:0:0:0:
256,192,147337,1,0,0:0:0:0:
256,192,147504,1,2,0:0:0:0:
256,192,147670,1,0,0:0:0:0:
256,192,147754,1,0,0:0:0:0:
256,192,147837,1,2,0:0:0:0:
256,192,148004,1,2,0:0:0:0:
256,192,148337,1,2,0:0:0:0:
256,192,148504,1,0,0:0:0:0:
256,192,148670,1,2,0:0:0:0:
256,192,148837,1,0,0:0:0:0:
256,192,149004,1,0,0:0:0:0:
256,192,149087,1,0,0:0:0:0:
256,192,149170,1,2,0:0:0:0:
256,192,149337,1,0,0:0:0:0:
256,192,149504,1,2,0:0:0:0:
256,192,149837,1,2,0:0:0:0:
256,192,150004,1,0,0:0:0:0:
256,192,150170,1,2,0:0:0:0:
256,192,150337,1,0,0:0:0:0:
256,192,150420,1,0,0:0:0:0:
256,192,150504,1,2,0:0:0:0:
256,192,150670,1,2,0:0:0:0:
256,192,151004,1,2,0:0:0:0:
256,192,151170,1,0,0:0:0:0:
256,192,151337,1,2,0:0:0:0:
256,192,151504,1,0,0:0:0:0:
256,192,151670,1,2,0:0:0:0:
256,192,151837,1,2,0:0:0:0:
256,192,151948,1,0,0:0:0:0:
256,192,152059,1,0,0:0:0:0:
256,192,152170,1,6,0:0:0:0:
256,192,152504,1,2,0:0:0:0:
256,192,152670,1,0,0:0:0:0:
256,192,152837,1,2,0:0:0:0:
256,192,153004,1,0,0:0:0:0:
256,192,153087,1,0,0:0:0:0:
256,192,153170,1,2,0:0:0:0:
256,192,153337,1,2,0:0:0:0:
256,192,153670,1,2,0:0:0:0:
256,192,153837,1,0,0:0:0:0:
256,192,154004,1,2,0:0:0:0:
256,192,154170,1,0,0:0:0:0:
256,192,154337,1,0,0:0:0:0:
256,192,154504,1,2,0:0:0:0:
256,192,154587,1,0,0:0:0:0:
256,192,154670,1,2,0:0:0:0:
256,192,154754,1,2,0:0:0:0:
256,192,154837,1,2,0:0:0:0:
256,192,155170,1,2,0:0:0:0:
256,192,155337,1,0,0:0:0:0:
256,192,155420,1,0,0:0:0:0:
256,192,155504,1,2,0:0:0:0:
256,192,155670,1,2,0:0:0:0:
256,192,155837,1,0,0:0:0:0:
256,192,156004,1,2,0:0:0:0:
256,192,156337,1,2,0:0:0:0:
256,192,156504,1,0,0:0:0:0:
256,192,156670,1,2,0:0:0:0:
256,192,156837,1,0,0:0:0:0:
256,192,157004,1,2,0:0:0:0:
256,192,157087,1,0,0:0:0:0:
256,192,157170,1,2,0:0:0:0:
256,192,157337,1,0,0:0:0:0:
256,192,157504,1,2,0:0:0:0:
256,192,157837,1,2,0:0:0:0:
256,192,158004,1,0,0:0:0:0:
256,192,158170,1,2,0:0:0:0:
256,192,158337,1,0,0:0:0:0:
256,192,158420,1,0,0:0:0:0:
256,192,158504,1,2,0:0:0:0:
256,192,158670,1,2,0:0:0:0:
256,192,159004,1,2,0:0:0:0:
256,192,159170,1,0,0:0:0:0:
256,192,159337,1,2,0:0:0:0:
256,192,159504,1,0,0:0:0:0:
256,192,159670,1,0,0:0:0:0:
256,192,159754,1,0,0:0:0:0:
256,192,159837,1,2,0:0:0:0:
256,192,160004,1,0,0:0:0:0:
256,192,160170,1,6,0:0:0:0:
256,192,160337,1,0,0:0:0:0:
256,192,160504,1,2,0:0:0:0:
256,192,160670,1,0,0:0:0:0:
256,192,160837,1,6,0:0:0:0:
256,192,161004,1,0,0:0:0:0:
256,192,161087,1,0,0:0:0:0:
256,192,161170,1,2,0:0:0:0:
256,192,161337,1,2,0:0:0:0:
256,192,161504,1,6,0:0:0:0:
256,192,161670,1,0,0:0:0:0:
256,192,161837,1,6,0:0:0:0:
256,192,162004,1,0,0:0:0:0:
256,192,162170,1,6,0:0:0:0:
256,192,162337,1,2,0:0:0:0:
256,192,162420,1,0,0:0:0:0:
256,192,162504,1,2,0:0:0:0:
256,192,162587,1,0,0:0:0:0:
256,192,162670,1,2,0:0:0:0:
256,192,162837,1,6,0:0:0:0:
256,192,163170,1,0,0:0:0:0:
256,192,163504,1,2,0:0:0:0:
256,192,163754,1,2,0:0:0:0:
256,192,163837,1,0,0:0:0:0:
256,192,164004,1,2,0:0:0:0:
256,192,164170,1,2,0:0:0:0:
256,192,164337,1,0,0:0:0:0:
256,192,164504,1,2,0:0:0:0:
256,192,164670,1,0,0:0:0:0:
256,192,164837,1,0,0:0:0:0:
256,192,165004,1,0,0:0:0:0:
256,192,165087,1,0,0:0:0:0:
256,192,165170,1,2,0:0:0:0:
256,192,165337,1,0,0:0:0:0:
256,192,165504,1,2,0:0:0:0:
256,192,165837,1,0,0:0:0:0:
256,192,166004,1,0,0:0:0:0:
256,192,166170,1,2,0:0:0:0:
256,192,166420,1,2,0:0:0:0:
256,192,166504,1,0,0:0:0:0:
256,192,166670,1,2,0:0:0:0:
256,192,166837,1,2,0:0:0:0:
256,192,167170,1,0,0:0:0:0:
256,192,167420,1,2,0:0:0:0:
256,192,167504,1,0,0:0:0:0:
256,192,167670,1,0,0:0:0:0:
256,192,167754,1,2,0:0:0:0:
256,192,167837,1,2,0:0:0:0:
256,192,168004,1,2,0:0:0:0:
256,192,168170,1,2,0:0:0:0:
256,192,168504,1,0,0:0:0:0:
256,192,168670,1,0,0:0:0:0:
256,192,168837,1,2,0:0:0:0:
256,192,169087,1,2,0:0:0:0:
256,192,169170,1,0,0:0:0:0:
256,192,169337,1,2,0:0:0:0:
256,192,169504,1,2,0:0:0:0:
256,192,169670,1,0,0:0:0:0:
256,192,169837,1,2,0:0:0:0:
256,192,170004,1,0,0:0:0:0:
256,192,170170,1,0,0:0:0:0:
256,192,170337,1,0,0:0:0:0:
256,192,170420,1,0,0:0:0:0:
256,192,170504,1,2,0:0:0:0:
256,192,170670,1,0,0:0:0:0:
256,192,170837,1,2,0:0:0:0:
256,192,171170,1,0,0:0:0:0:
256,192,171337,1,0,0:0:0:0:
256,192,171504,1,2,0:0:0:0:
256,192,171754,1,2,0:0:0:0:
256,192,171837,1,0,0:0:0:0:
256,192,172004,1,2,0:0:0:0:
256,192,172170,1,2,0:0:0:0:
256,192,172504,1,0,0:0:0:0:
256,192,172754,1,2,0:0:0:0:
256,192,172837,1,0,0:0:0:0:
256,192,173004,1,0,0:0:0:0:
256,192,173087,1,2,0:0:0:0:
256,192,173170,1,2,0:0:0:0:
256,192,173337,1,2,0:0:0:0:
256,192,173504,1,6,0:0:0:0:
256,192,173837,1,2,0:0:0:0:
256,192,174170,1,0,0:0:0:0:
256,192,174504,1,2,0:0:0:0:
256,192,174670,1,0,0:0:0:0:
256,192,175004,1,0,0:0:0:0:
256,192,175337,1,2,0:0:0:0:
256,192,175670,1,2,0:0:0:0:
256,192,175837,1,2,0:0:0:0:
256,192,176170,1,2,0:0:0:0:
256,192,176504,1,2,0:0:0:0:
256,192,176837,1,0,0:0:0:0:
256,192,177170,1,2,0:0:0:0:
256,192,177337,1,0,0:0:0:0:
256,192,177670,1,0,0:0:0:0:
256,192,178004,1,2,0:0:0:0:
256,192,178337,1,2,0:0:0:0:
256,192,178504,1,2,0:0:0:0:
256,192,178837,1,2,0:0:0:0:
256,192,179170,1,2,0:0:0:0:
256,192,179504,1,0,0:0:0:0:
256,192,179837,1,2,0:0:0:0:
256,192,180004,1,0,0:0:0:0:
256,192,180337,1,0,0:0:0:0:
256,192,180670,1,2,0:0:0:0:
256,192,181004,1,2,0:0:0:0:
256,192,181170,1,2,0:0:0:0:
256,192,181504,1,2,0:0:0:0:
256,192,181837,1,2,0:0:0:0:
256,192,182170,1,0,0:0:0:0:
256,192,182504,1,2,0:0:0:0:
256,192,182670,1,0,0:0:0:0:
256,192,183004,1,0,0:0:0:0:
256,192,183170,1,0,0:0:0:0:
256,192,183282,1,0,0:0:0:0:
256,192,183393,1,0,0:0:0:0:
256,192,183504,1,2,0:0:0:0:
256,192,183670,1,2,0:0:0:0:
256,192,183837,1,2,0:0:0:0:
256,192,184170,1,4,0:0:0:0:
256,192,184504,1,0,0:0:0:0:
256,192,184837,1,0,0:0:0:0:
256,192,185170,1,0,0:0:0:0:
256,192,185504,1,0,0:0:0:0:
256,192,185837,1,0,0:0:0:0:
256,192,186170,1,0,0:0:0:0:
256,192,186504,1,0,0:0:0:0:
256,192,186837,1,0,0:0:0:0:
256,192,187170,1,0,0:0:0:0:
256,192,187504,1,0,0:0:0:0:
256,192,187837,1,0,0:0:0:0:
256,192,188170,1,0,0:0:0:0:
256,192,188504,1,0,0:0:0:0:
256,192,188837,1,0,0:0:0:0:
256,192,189170,1,0,0:0:0:0:
256,192,189504,1,0,0:0:0:0:
256,192,189837,1,0,0:0:0:0:
256,192,190170,1,0,0:0:0:0:
256,192,190504,1,0,0:0:0:0:
256,192,190837,1,0,0:0:0:0:
256,192,191170,1,0,0:0:0:0:
256,192,191504,1,0,0:0:0:0:
256,192,191837,1,0,0:0:0:0:
256,192,192170,1,0,0:0:0:0:
256,192,192504,1,0,0:0:0:0:
256,192,192837,1,0,0:0:0:0:
256,192,193170,1,0,0:0:0:0:
256,192,193504,1,0,0:0:0:0:
256,192,193837,1,0,0:0:0:0:
256,192,194170,1,0,0:0:0:0:
256,192,194504,1,0,0:0:0:0:
