osu file format v14

[General]
AudioFilename: audio.mp3
AudioLeadIn: 0
PreviewTime: 53420
Countdown: 0
SampleSet: Normal
StackLeniency: 0.7
Mode: 1
LetterboxInBreaks: 0
WidescreenStoryboard: 1

[Editor]
Bookmarks: 171,10837,21504,32170,42837,53504,96170,98837,109504,120170,141504,162837,173504,184170
DistanceSpacing: 2
BeatDivisor: 2
GridSize: 32
TimelineZoom: 0.7999994

[Metadata]
Title:mango sago
TitleUnicode:mango sago
Artist:kiraku
ArtistUnicode:kiraku
Creator:komasy
Version:Cynp-zy's Futsuu
Source:
Tags:Instrumental Electronic Happy Hardcore mangopop Attack The Music ATKS-0035 Cynplytholowazy
BeatmapID:2481866
BeatmapSetID:1191159

[Difficulty]
HPDrainRate:7
CircleSize:7
OverallDifficulty:4
ApproachRate:10
SliderMultiplier:1.4
SliderTickRate:1

[Events]
//Background and Video events
0,0,"yellow-white-and-gray-background-2340254.jpg",0,0
//Break Periods
2,34837,41504
2,98837,108837
//Storyboard Layer 0 (Background)
//Storyboard Layer 1 (Fail)
//Storyboard Layer 2 (Pass)
//Storyboard Layer 3 (Foreground)
//Storyboard Layer 4 (Overlay)
//Storyboard Sound Samples

[TimingPoints]
171,333.333333333333,4,1,0,80,1,0
171,-111.111111111111,4,1,0,80,0,0
9504,-100,4,1,0,80,0,0
32504,-133.333333333333,4,1,0,80,0,0
42837,-111.111111111111,4,1,0,80,0,0
53504,-100,4,1,0,90,0,1
64170,-100,4,1,0,90,0,0
66837,-100,4,1,0,90,0,1
74837,-100,4,1,0,90,0,0
77504,-100,4,1,0,90,0,1
85504,-100,4,1,0,90,0,0
86837,-100,4,1,0,90,0,1
96170,-100,4,1,0,90,0,0
96254,-100,4,1,0,50,0,0
98754,-133.333333333333,4,1,0,80,0,0
109504,-111.111111111111,4,1,0,80,0,0
141420,-133.333333333333,4,1,0,40,0,0
142420,-100,4,1,0,80,0,0
144170,-100,4,1,0,90,0,1
162837,-100,4,1,0,90,0,0
184087,-100,4,1,0,55,0,0

[HitObjects]
256,192,171,5,0,0:0:0:0:
256,192,837,1,0,0:0:0:0:
256,192,1504,1,0,0:0:0:0:
256,192,1837,1,0,0:0:0:0:
256,192,2170,1,0,0:0:0:0:
256,192,2837,1,0,0:0:0:0:
256,192,3504,1,0,0:0:0:0:
256,192,4170,1,0,0:0:0:0:
256,192,4504,1,0,0:0:0:0:
256,192,4837,1,0,0:0:0:0:
256,192,5504,1,0,0:0:0:0:
256,192,6170,1,0,0:0:0:0:
256,192,6837,1,0,0:0:0:0:
256,192,7170,1,0,0:0:0:0:
256,192,7504,1,0,0:0:0:0:
256,192,8170,1,0,0:0:0:0:
256,192,8504,1,0,0:0:0:0:
256,192,8670,1,0,0:0:0:0:
256,192,8837,1,2,0:0:0:0:
256,192,9170,1,2,0:0:0:0:
256,192,9504,5,6,0:0:0:0:
256,192,9837,1,6,0:0:0:0:
256,192,10837,1,4,0:0:0:0:
256,192,11170,1,0,0:0:0:0:
256,192,11504,1,2,0:0:0:0:
256,192,11837,1,2,0:0:0:0:
256,192,12170,1,0,0:0:0:0:
256,192,12504,1,2,0:0:0:0:
256,192,12670,1,2,0:0:0:0:
256,192,12837,1,0,0:0:0:0:
256,192,13504,1,0,0:0:0:0:
256,192,13837,1,0,0:0:0:0:
256,192,14004,1,0,0:0:0:0:
256,192,14170,1,2,0:0:0:0:
256,192,14504,1,2,0:0:0:0:
256,192,14837,1,0,0:0:0:0:
256,192,15504,1,0,0:0:0:0:
256,192,15670,1,0,0:0:0:0:
256,192,15837,1,6,0:0:0:0:
256,192,16170,1,0,0:0:0:0:
256,192,16837,1,2,0:0:0:0:
256,192,17170,1,2,0:0:0:0:
256,192,17504,1,0,0:0:0:0:
256,192,17837,1,2,0:0:0:0:
256,192,18004,1,2,0:0:0:0:
256,192,18170,1,0,0:0:0:0:
256,192,18837,1,0,0:0:0:0:
256,192,19170,1,0,0:0:0:0:
256,192,19504,1,2,0:0:0:0:
256,192,19670,1,2,0:0:0:0:
256,192,20004,1,2,0:0:0:0:
256,192,20170,1,0,0:0:0:0:
256,192,21170,1,6,0:0:0:0:
256,192,21504,1,0,0:0:0:0:
256,192,21837,1,0,0:0:0:0:
256,192,22170,1,2,0:0:0:0:
256,192,22504,1,2,0:0:0:0:
256,192,22837,1,0,0:0:0:0:
256,192,23170,1,2,0:0:0:0:
256,192,23337,1,2,0:0:0:0:
256,192,23504,1,0,0:0:0:0:
256,192,24170,1,0,0:0:0:0:
256,192,24504,1,0,0:0:0:0:
256,192,24670,1,0,0:0:0:0:
256,192,24837,1,2,0:0:0:0:
256,192,25170,1,2,0:0:0:0:
256,192,25504,1,0,0:0:0:0:
256,192,26170,1,0,0:0:0:0:
256,192,26337,1,6,0:0:0:0:
256,192,26504,1,6,0:0:0:0:
256,192,26837,1,4,0:0:0:0:
256,192,27170,1,0,0:0:0:0:
256,192,27337,1,0,0:0:0:0:
256,192,27504,1,2,0:0:0:0:
256,192,27837,1,2,0:0:0:0:
256,192,28170,1,4,0:0:0:0:
256,192,28504,1,0,0:0:0:0:
256,192,28670,1,0,0:0:0:0:
256,192,28837,1,0,0:0:0:0:
256,192,29170,1,0,0:0:0:0:
256,192,29504,1,6,0:0:0:0:
256,192,29837,1,0,0:0:0:0:
256,192,30004,1,0,0:0:0:0:
256,192,30170,1,6,0:0:0:0:
256,192,30504,1,0,0:0:0:0:
256,192,30670,1,0,0:0:0:0:
256,192,30837,1,6,0:0:0:0:
256,192,31170,1,6,0:0:0:0:
256,192,32170,1,4,0:0:0:0:
256,192,42837,5,2,0:0:0:0:
256,192,43170,1,2,0:0:0:0:
256,192,43504,1,2,0:0:0:0:
256,192,43837,1,0,0:0:0:0:
256,192,44004,1,2,0:0:0:0:
256,192,44337,1,2,0:0:0:0:
256,192,44670,1,0,0:0:0:0:
256,192,45504,1,2,0:0:0:0:
256,192,45837,1,0,0:0:0:0:
256,192,46170,1,2,0:0:0:0:
256,192,46337,1,2,0:0:0:0:
256,192,46670,1,2,0:0:0:0:
256,192,47004,1,2,0:0:0:0:
256,192,47337,1,2,0:0:0:0:
256,192,48170,1,6,0:0:0:0:
256,192,48504,1,2,0:0:0:0:
256,192,48670,1,0,0:0:0:0:
256,192,48837,1,2,0:0:0:0:
256,192,49170,1,0,0:0:0:0:
256,192,49504,1,6,0:0:0:0:
256,192,49837,1,2,0:0:0:0:
256,192,50004,1,0,0:0:0:0:
256,192,50170,1,0,0:0:0:0:
256,192,50504,1,0,0:0:0:0:
256,192,50837,1,6,0:0:0:0:
256,192,51170,1,0,0:0:0:0:
256,192,51504,1,2,0:0:0:0:
256,192,51670,1,2,0:0:0:0:
256,192,51837,1,0,0:0:0:0:
256,192,52170,1,6,0:0:0:0:
256,192,53504,1,6,0:0:0:0:
256,192,53837,1,2,0:0:0:0:
256,192,54170,1,2,0:0:0:0:
256,192,54504,1,0,0:0:0:0:
256,192,54670,1,2,0:0:0:0:
256,192,55004,1,2,0:0:0:0:
256,192,55337,1,0,0:0:0:0:
256,192,55670,1,0,0:0:0:0:
256,192,55837,1,2,0:0:0:0:
256,192,56170,1,2,0:0:0:0:
256,192,56504,1,0,0:0:0:0:
256,192,56837,1,2,0:0:0:0:
256,192,57004,1,2,0:0:0:0:
256,192,57337,1,2,0:0:0:0:
256,192,57670,1,0,0:0:0:0:
256,192,58004,1,2,0:0:0:0:
256,192,58837,1,2,0:0:0:0:
256,192,59170,1,2,0:0:0:0:
256,192,59504,1,2,0:0:0:0:
256,192,59837,1,0,0:0:0:0:
256,192,60004,1,2,0:0:0:0:
256,192,60337,1,2,0:0:0:0:
256,192,60670,1,0,0:0:0:0:
256,192,61004,1,0,0:0:0:0:
256,192,61170,1,2,0:0:0:0:
256,192,61504,1,2,0:0:0:0:
256,192,61837,1,0,0:0:0:0:
256,192,62170,1,2,0:0:0:0:
256,192,62504,1,0,0:0:0:0:
256,192,62670,1,2,0:0:0:0:
256,192,63004,1,2,0:0:0:0:
256,192,63337,1,2,0:0:0:0:
256,192,63670,1,2,0:0:0:0:
256,192,63837,1,2,0:0:0:0:
256,192,64004,1,0,0:0:0:0:
256,192,64170,1,6,0:0:0:0:
256,192,65170,1,4,0:0:0:0:
256,192,65337,1,6,0:0:0:0:
256,192,65670,1,6,0:0:0:0:
256,192,66004,1,4,0:0:0:0:
256,192,66337,1,0,0:0:0:0:
256,192,66504,1,6,0:0:0:0:
256,192,66837,1,6,0:0:0:0:
256,192,67170,1,0,0:0:0:0:
256,192,67504,1,2,0:0:0:0:
256,192,67670,1,2,0:0:0:0:
256,192,68004,1,2,0:0:0:0:
256,192,68337,1,0,0:0:0:0:
256,192,68670,1,2,0:0:0:0:
256,192,69504,1,2,0:0:0:0:
256,192,69837,1,2,0:0:0:0:
256,192,70170,1,0,0:0:0:0:
256,192,70504,1,0,0:0:0:0:
256,192,70670,1,2,0:0:0:0:
256,192,71004,1,2,0:0:0:0:
256,192,71337,1,0,0:0:0:0:
256,192,71670,1,0,0:0:0:0:
256,192,71837,1,2,0:0:0:0:
256,192,72170,1,2,0:0:0:0:
256,192,72504,1,2,0:0:0:0:
256,192,72837,1,0,0:0:0:0:
256,192,73170,1,0,0:0:0:0:
256,192,73337,1,2,0:0:0:0:
256,192,73670,1,0,0:0:0:0:
256,192,74004,1,2,0:0:0:0:
256,192,74837,1,6,0:0:0:0:
256,192,75170,1,6,0:0:0:0:
256,192,75504,1,6,0:0:0:0:
256,192,75670,1,4,0:0:0:0:
256,192,76004,1,4,0:0:0:0:
256,192,76337,1,6,0:0:0:0:
256,192,76670,1,4,0:0:0:0:
256,192,77004,1,0,0:0:0:0:
256,192,77170,1,6,0:0:0:0:
256,192,77504,1,6,0:0:0:0:
256,192,77837,1,4,0:0:0:0:
256,192,78170,1,6,0:0:0:0:
256,192,78420,1,4,0:0:0:0:
256,192,78670,1,6,0:0:0:0:
256,192,78837,1,4,0:0:0:0:
256,192,79504,1,0,0:0:0:0:
256,192,79837,1,0,0:0:0:0:
256,192,80170,1,2,0:0:0:0:
256,192,80504,1,2,0:0:0:0:
256,192,80837,1,2,0:0:0:0:
256,192,81004,1,0,0:0:0:0:
256,192,81337,1,2,0:0:0:0:
256,192,81670,1,2,0:0:0:0:
256,192,82004,1,0,0:0:0:0:
256,192,82337,1,0,0:0:0:0:
256,192,82504,1,2,0:0:0:0:
256,192,82837,1,2,0:0:0:0:
256,192,83170,1,0,0:0:0:0:
256,192,83504,1,2,0:0:0:0:
256,192,83837,1,0,0:0:0:0:
256,192,84004,1,2,0:0:0:0:
256,192,84337,1,0,0:0:0:0:
256,192,84670,1,2,0:0:0:0:
256,192,85504,1,6,0:0:0:0:
256,192,86837,1,0,0:0:0:0:
256,192,87004,1,2,0:0:0:0:
256,192,87337,1,0,0:0:0:0:
256,192,87670,1,0,0:0:0:0:
256,192,87837,1,2,0:0:0:0:
256,192,88170,1,2,0:0:0:0:
256,192,88504,1,0,0:0:0:0:
256,192,88837,1,2,0:0:0:0:
256,192,89004,1,2,0:0:0:0:
256,192,89337,1,2,0:0:0:0:
256,192,89670,1,0,0:0:0:0:
256,192,90004,1,2,0:0:0:0:
256,192,90837,1,2,0:0:0:0:
256,192,91170,1,2,0:0:0:0:
256,192,91504,1,2,0:0:0:0:
256,192,91837,1,0,0:0:0:0:
256,192,92004,1,2,0:0:0:0:
256,192,92337,1,2,0:0:0:0:
256,192,92670,1,0,0:0:0:0:
256,192,93004,1,0,0:0:0:0:
256,192,93170,1,2,0:0:0:0:
256,192,93504,1,6,0:0:0:0:
256,192,93837,1,0,0:0:0:0:
256,192,94170,1,6,0:0:0:0:
256,192,94504,1,0,0:0:0:0:
256,192,94837,1,6,0:0:0:0:
256,192,95170,1,6,0:0:0:0:
256,192,95504,1,6,0:0:0:0:
256,192,95837,1,6,0:0:0:0:
256,192,96004,1,2,0:0:0:0:
256,192,96170,1,4,0:0:0:0:
256,192,109504,5,2,0:0:0:0:
256,192,110170,1,2,0:0:0:0:
256,192,111170,1,0,0:0:0:0:
256,192,111504,1,2,0:0:0:0:
256,192,112170,1,0,0:0:0:0:
256,192,112837,1,2,0:0:0:0:
256,192,113837,1,0,0:0:0:0:
256,192,114170,1,2,0:0:0:0:
256,192,114837,1,2,0:0:0:0:
256,192,115504,1,2,0:0:0:0:
256,192,116504,1,0,0:0:0:0:
256,192,116837,1,2,0:0:0:0:
256,192,117504,1,0,0:0:0:0:
256,192,118170,1,2,0:0:0:0:
256,192,119170,1,0,0:0:0:0:
256,192,119504,1,2,0:0:0:0:
256,192,120170,1,2,0:0:0:0:
256,192,120837,1,2,0:0:0:0:
256,192,121004,1,0,0:0:0:0:
256,192,121170,1,0,0:0:0:0:
256,192,121837,1,0,0:0:0:0:
256,192,122170,1,2,0:0:0:0:
256,192,122837,1,2,0:0:0:0:
256,192,123504,1,2,0:0:0:0:
256,192,123670,1,0,0:0:0:0:
256,192,123837,1,0,0:0:0:0:
256,192,124504,1,0,0:0:0:0:
256,192,124837,1,2,0:0:0:0:
256,192,125504,1,2,0:0:0:0:
256,192,126170,1,2,0:0:0:0:
256,192,126337,1,0,0:0:0:0:
256,192,126504,1,0,0:0:0:0:
256,192,127170,1,0,0:0:0:0:
256,192,127504,1,2,0:0:0:0:
256,192,128170,1,2,0:0:0:0:
256,192,128837,1,2,0:0:0:0:
256,192,129004,1,0,0:0:0:0:
256,192,129170,1,0,0:0:0:0:
256,192,129837,1,0,0:0:0:0:
256,192,130170,1,2,0:0:0:0:
256,192,130837,1,0,0:0:0:0:
256,192,131170,1,0,0:0:0:0:
256,192,131504,1,2,0:0:0:0:
256,192,131837,1,0,0:0:0:0:
256,192,132170,1,0,0:0:0:0:
256,192,132504,1,0,0:0:0:0:
256,192,132837,1,2,0:0:0:0:
256,192,133504,1,0,0:0:0:0:
256,192,133837,1,0,0:0:0:0:
256,192,134004,1,0,0:0:0:0:
256,192,134170,1,2,0:0:0:0:
256,192,134504,1,0,0:0:0:0:
256,192,134837,1,0,0:0:0:0:
256,192,135170,1,0,0:0:0:0:
256,192,135504,1,2,0:0:0:0:
256,192,136170,1,6,0:0:0:0:
256,192,136504,1,0,0:0:0:0:
256,192,136670,1,0,0:0:0:0:
256,192,136837,1,0,0:0:0:0:
256,192,137170,1,0,0:0:0:0:
256,192,137504,1,6,0:0:0:0:
256,192,137837,1,0,0:0:0:0:
256,192,138004,1,0,0:0:0:0:
256,192,138170,1,0,0:0:0:0:
256,192,138504,1,0,0:0:0:0:
256,192,138837,1,6,0:0:0:0:
256,192,139170,1,0,0:0:0:0:
256,192,139337,1,0,0:0:0:0:
256,192,139504,1,6,0:0:0:0:
256,192,139837,1,0,0:0:0:0:
256,192,140004,1,0,0:0:0:0:
256,192,140170,1,6,0:0:0:0:
256,192,140837,1,6,0:0:0:0:
256,192,142504,1,4,0:0:0:0:
256,192,142670,1,6,0:0:0:0:
256,192,143004,1,6,0:0:0:0:
256,192,143337,1,4,0:0:0:0:
256,192,144170,1,6,0:0:0:0:
256,192,144504,1,0,0:0:0:0:
256,192,144837,1,2,0:0:0:0:
256,192,145004,1,2,0:0:0:0:
256,192,145337,1,2,0:0:0:0:
256,192,145670,1,0,0:0:0:0:
256,192,146004,1,2,0:0:0:0:
256,192,146837,1,2,0:0:0:0:
256,192,147170,1,2,0:0:0:0:
256,192,147504,1,2,0:0:0:0:
256,192,147837,1,0,0:0:0:0:
256,192,148004,1,2,0:0:0:0:
256,192,148337,1,2,0:0:0:0:
256,192,148670,1,0,0:0:0:0:
256,192,149004,1,0,0:0:0:0:
256,192,149170,1,2,0:0:0:0:
256,192,149504,1,2,0:0:0:0:
256,192,149837,1,0,0:0:0:0:
256,192,150170,1,2,0:0:0:0:
256,192,150504,1,0,0:0:0:0:
256,192,150670,1,2,0:0:0:0:
256,192,151004,1,2,0:0:0:0:
256,192,151337,1,2,0:0:0:0:
256,192,152170,1,6,0:0:0:0:
256,192,152504,1,2,0:0:0:0:
256,192,152837,1,2,0:0:0:0:
256,192,153170,1,0,0:0:0:0:
256,192,153337,1,2,0:0:0:0:
256,192,153670,1,2,0:0:0:0:
256,192,154004,1,0,0:0:0:0:
256,192,154337,1,0,0:0:0:0:
256,192,154504,1,2,0:0:0:0:
256,192,154837,1,2,0:0:0:0:
256,192,155170,1,0,0:0:0:0:
256,192,155504,1,2,0:0:0:0:
256,192,155670,1,2,0:0:0:0:
256,192,156004,1,2,0:0:0:0:
256,192,156337,1,0,0:0:0:0:
256,192,156670,1,2,0:0:0:0:
256,192,157504,1,2,0:0:0:0:
256,192,158004,1,0,0:0:0:0:
256,192,158170,1,2,0:0:0:0:
256,192,158504,1,0,0:0:0:0:
256,192,158837,1,0,0:0:0:0:
256,192,159337,1,0,0:0:0:0:
256,192,159504,1,2,0:0:0:0:
256,192,159837,1,0,0:0:0:0:
256,192,160170,1,6,0:0:0:0:
256,192,160504,1,0,0:0:0:0:
256,192,160837,1,6,0:0:0:0:
256,192,161170,1,0,0:0:0:0:
256,192,161504,1,6,0:0:0:0:
256,192,161837,1,6,0:0:0:0:
256,192,162170,1,6,0:0:0:0:
256,192,162504,1,6,0:0:0:0:
256,192,162670,1,2,0:0:0:0:
256,192,162837,1,4,0:0:0:0:
256,192,163504,1,2,0:0:0:0:
256,192,163837,1,2,0:0:0:0:
256,192,164004,1,2,0:0:0:0:
256,192,164170,1,0,0:0:0:0:
256,192,164504,1,0,0:0:0:0:
256,192,164837,1,2,0:0:0:0:
256,192,165170,1,0,0:0:0:0:
256,192,165504,1,2,0:0:0:0:
256,192,166170,1,2,0:0:0:0:
256,192,166504,1,2,0:0:0:0:
256,192,166670,1,2,0:0:0:0:
256,192,166837,1,0,0:0:0:0:
256,192,167170,1,2,0:0:0:0:
256,192,167504,1,0,0:0:0:0:
256,192,167837,1,0,0:0:0:0:
256,192,168170,1,2,0:0:0:0:
256,192,168837,1,2,0:0:0:0:
256,192,169170,1,2,0:0:0:0:
256,192,169337,1,2,0:0:0:0:
256,192,169504,1,0,0:0:0:0:
256,192,169837,1,0,0:0:0:0:
256,192,170170,1,2,0:0:0:0:
256,192,170504,1,0,0:0:0:0:
256,192,170837,1,2,0:0:0:0:
256,192,171504,1,2,0:0:0:0:
256,192,171837,1,2,0:0:0:0:
256,192,172004,1,2,0:0:0:0:
256,192,172170,1,0,0:0:0:0:
256,192,172504,1,2,0:0:0:0:
256,192,172837,1,0,0:0:0:0:
256,192,173504,1,2,0:0:0:0:
256,192,173837,1,2,0:0:0:0:
256,192,174170,1,2,0:0:0:0:
256,192,174504,1,0,0:0:0:0:
256,192,174670,1,0,0:0:0:0:
256,192,175004,1,2,0:0:0:0:
256,192,175337,1,2,0:0:0:0:
256,192,176170,1,2,0:0:0:0:
256,192,176504,1,2,0:0:0:0:
256,192,176837,1,2,0:0:0:0:
256,192,177170,1,0,0:0:0:0:
256,192,177337,1,0,0:0:0:0:
256,192,177670,1,2,0:0:0:0:
256,192,178004,1,2,0:0:0:0:
256,192,178837,1,2,0:0:0:0:
256,192,179170,1,2,0:0:0:0:
256,192,179504,1,2,0:0:0:0:
256,192,179837,1,0,0:0:0:0:
256,192,180004,1,0,0:0:0:0:
256,192,180337,1,2,0:0:0:0:
256,192,180670,1,2,0:0:0:0:
256,192,181504,1,2,0:0:0:0:
256,192,181837,1,2,0:0:0:0:
256,192,182170,1,2,0:0:0:0:
256,192,182504,1,0,0:0:0:0:
256,192,182670,1,0,0:0:0:0:
256,192,183004,1,2,0:0:0:0:
256,192,183337,1,2,0:0:0:0:
256,192,184170,1,4,0:0:0:0:
256,192,185504,1,0,0:0:0:0:
256,192,186337,2,2,L|352:192,3,70
256,192,188170,1,0,0:0:0:0:
256,192,189004,2,2,L|352:192,3,70
256,192,190837,1,0,0:0:0:0:
256,192,191670,2,2,L|352:192,3,70
256,192,193670,2,2,L|352:192,5,70
