osu file format v14

[General]
AudioFilename: audio.mp3
AudioLeadIn: 0
PreviewTime: 43954
Countdown: 0
SampleSet: Soft
StackLeniency: 0.3
Mode: 0
LetterboxInBreaks: 0
WidescreenStoryboard: 1

[Editor]
Bookmarks: 11125,22096,26896,33068,43354,44039,65982,71468,76954,87925,89639,98896,109868,120839
DistanceSpacing: 1
BeatDivisor: 4
GridSize: 8
TimelineZoom: 3.199999

[Metadata]
Title:connection
TitleUnicode:connection
Artist:kiraku
ArtistUnicode:kiraku
Creator:- ascended -
Version:easy
Source:osu!
Tags:featured artist fa mappers' guild mpg mg electronic instrumental neurofunk drum and bass dnb d'n'b glitch hop glitchhop solo single quest -ascended- alina grubnyak
BeatmapID:2666500
BeatmapSetID:1283352

[Difficulty]
HPDrainRate:2.7
CircleSize:2.9
OverallDifficulty:2.5
ApproachRate:3.5
SliderMultiplier:1
SliderTickRate:1

[Events]
//Background and Video events
0,0,"covalent network metals.jpg",0,0
//Break Periods
//Storyboard Layer 0 (Background)
//Storyboard Layer 1 (Fail)
//Storyboard Layer 2 (Pass)
//Storyboard Layer 3 (Foreground)
//Storyboard Layer 4 (Overlay)
//Storyboard Sound Samples

[TimingPoints]
154,342.857142857143,4,2,1,60,1,0
27068,-100,4,2,2,60,0,0
27154,-100,4,2,1,60,0,0
27239,-100,4,2,2,60,0,0
27411,-100,4,2,1,60,0,0
33068,-100,4,2,1,65,0,0
42668,-100,4,2,1,65,0,0
42925,-100,4,2,1,65,0,0
44039,-100,4,2,2,75,0,1
44382,-100,4,2,1,75,0,1
46782,-100,4,2,2,75,0,1
47468,-100,4,2,1,75,0,1
49525,-100,4,2,2,75,0,1
50725,-100,4,2,1,75,0,1
50896,-100,4,2,2,75,0,1
52096,-100,4,2,1,75,0,1
52268,-100,4,2,2,75,0,1
52611,-100,4,2,1,75,0,1
55011,-100,4,2,2,75,0,1
58439,-100,4,2,1,75,0,1
60496,-100,4,2,2,75,0,1
60839,-100,4,2,1,75,0,1
61868,-100,4,2,2,75,0,1
63582,-100,4,2,1,75,0,1
65982,-100,4,2,1,65,0,0
67011,-100,4,2,3,65,0,0
67182,-100,4,2,1,65,0,0
68382,-100,4,2,3,65,0,0
68554,-100,4,2,1,65,0,0
69754,-100,4,2,4,65,0,0
69925,-100,4,2,1,65,0,0
71468,-100,4,2,1,75,0,1
75582,-100,4,2,2,75,0,1
76096,-100,4,2,1,75,0,1
76954,-100,4,2,1,65,0,0
87925,-100,4,2,1,60,0,0
98896,-100,4,2,1,70,0,0
109868,-100,4,2,1,50,0,0
120839,-100,4,2,1,85,0,0

[Colours]
Combo1 : 3,197,231
Combo2 : 191,191,191
Combo3 : 127,127,127
Combo4 : 255,128,128
Combo5 : 255,64,64
Combo6 : 113,255,255

[HitObjects]
383,334,22096,6,0,B|380:257|380:257|408:229|408:229|401:140,1,200,2|2,0:2|0:2,0:0:0:0:
219,61,23468,2,0,B|108:95|137:1|15:41,1,200,2|2,0:2|0:2,0:0:0:0:
140,202,24839,6,0,B|187:214|233:183|233:183|242:242|291:261,1,200,2|2,0:2|0:2,0:0:0:0:
118,369,26211,2,0,P|68:357|41:318,1,100,2|2,0:2|0:2,0:0:0:0:
14,222,26896,1,2,0:3:0:0:
92,31,27582,70,0,B|206:13|173:84|290:67,1,200,2|2,0:2|0:2,0:0:0:0:
369,16,28611,1,2,0:2:0:0:
466,36,28954,2,0,B|452:86|410:107|410:107|422:222,1,200,2|2,0:2|0:2,0:0:0:0:
354,288,29982,1,2,0:2:0:0:
279,221,30325,6,0,B|198:210|198:210|160:239|160:239|85:228,1,200,2|2,0:2|0:2,0:0:0:0:
240,360,31696,2,0,B|309:370|309:370|347:341|347:341|428:352,1,200,2|2,0:2|0:2,0:0:0:0:
505,167,33068,38,0,P|505:61|417:38,1,200,0|0,3:2|3:2,0:0:0:0:
326,207,34439,2,0,L|329:307,1,100,0|2,3:2|0:2,0:0:0:0:
234,273,35125,1,0,3:2:0:0:
135,258,35468,1,2,0:2:0:0:
36,240,35811,6,0,P|4:149|59:66,1,200,0|0,3:2|3:2,0:0:0:0:
223,177,37182,1,0,3:2:0:0:
311,129,37525,2,0,B|335:175|335:175|314:223,2,100,2|2|2,0:3|3:3|0:2,0:0:0:0:
227,73,38554,70,0,B|176:67|142:23|142:23|104:59|47:51,1,200,0|0,3:2|3:2,0:0:0:0:
118,240,39925,2,0,L|125:345,2,100,0|2|0,3:2|0:2|3:2,0:0:0:0:
313,197,41296,54,0,P|373:232|327:335,1,200,0|0,3:2|3:2,0:0:0:0:
236,367,42325,1,2,0:2:0:0:
140,336,42668,2,0,B|115:314|115:314|110:237|110:237|138:207,1,150,2|2,3:3|3:2,0:0:0:0:
332,52,44039,6,0,B|284:76|284:76|235:65,1,100,2|10,3:2|0:2,0:0:0:0:
148,22,44725,2,0,B|102:11|102:11|54:35,1,100,2|8,3:2|0:2,0:0:0:0:
8,126,45411,1,2,3:2:0:0:
28,223,45754,1,8,0:2:0:0:
48,320,46096,2,0,B|90:314|90:314|105:324|105:324|151:317,1,100,0|8,3:0|0:2,0:0:0:0:
232,365,46782,6,0,P|248:313|230:269,1,100,2|8,3:2|0:2,0:0:0:0:
158,204,47468,1,2,3:2:0:0:
154,104,47811,1,10,0:2:0:0:
226,34,48154,2,0,B|276:21|276:21|325:38,1,100,0|8,3:0|0:2,0:0:0:0:
365,126,48839,1,2,0:2:0:0:
303,316,49525,54,0,B|253:329|253:329|207:313,2,100,2|8|0,3:2|0:2|3:0,0:0:0:0:
360,233,50554,1,8,0:2:0:0:
275,179,50896,2,0,L|170:170,1,100,2|0,0:2|0:0,0:0:0:0:
126,183,51411,2,0,B|89:149|89:149|91:49,1,150,8|8,0:2|0:2,0:0:0:0:
185,16,52268,5,2,3:2:0:0:
272,63,52611,2,0,P|333:80|385:58,1,100,10|0,0:2|3:0,0:0:0:0:
457,28,53296,1,8,0:2:0:0:
505,115,53639,2,0,L|509:221,1,100,2|10,3:2|0:2,0:0:0:0:
415,251,54325,2,0,L|411:145,1,100,2|10,0:2|0:2,0:0:0:0:
368,68,55011,69,2,3:2:0:0:
271,96,55354,1,8,0:2:0:0:
174,68,55696,1,0,3:0:0:0:
110,145,56039,2,0,B|113:224|113:224|146:246|146:246|154:336,1,200,10|8,0:2|0:2,0:0:0:0:
61,368,57068,2,0,P|16:334|10:285,1,100,0|8,3:2|0:2,0:0:0:0:
18,193,57754,6,0,L|13:88,1,100,2|8,3:2|0:2,0:0:0:0:
87,26,58439,1,2,3:2:0:0:
173,75,58782,2,0,B|283:106|246:38|374:66,1,200,10|8,0:2|0:2,0:0:0:0:
413,153,59811,1,2,0:2:0:0:
288,309,60496,70,0,B|240:319|240:319|193:299,2,100,2|2|2,3:2|3:2|3:2,0:0:0:0:
379,350,61525,1,8,0:2:0:0:
469,308,61868,2,0,L|474:208,1,100,2|0,0:2|3:0,0:0:0:0:
497,163,62382,2,0,P|489:93|410:88,1,150,8|8,0:2|0:2,0:0:0:0:
362,162,63239,1,2,3:2:0:0:
303,243,63582,6,0,B|195:264|222:182|103:209,1,200,10|8,0:2|0:2,0:0:0:0:
31,265,64611,2,0,P|11:209|61:125,1,150,2|2,3:2|3:2,0:0:0:0:
100,111,65296,1,0,3:0:0:0:
199,123,65639,1,10,0:2:0:0:
298,131,65982,6,0,P|303:68|313:18,2,100,2|2|2,3:2|3:2|3:2,0:0:0:0:
383,182,67011,1,10,0:3:0:0:
450,108,67354,2,0,P|481:176|419:282,1,200,2|2,0:2|3:2,0:0:0:0:
356,351,68382,1,10,0:3:0:0:
274,292,68725,6,0,L|270:184,1,100,2|2,3:2|3:2,0:0:0:0:
177,153,69411,2,0,L|181:261,1,100,2|10,3:1|0:3,0:0:0:0:
157,297,69925,2,0,P|113:311|59:296,1,100,2|2,3:2|3:2,0:0:0:0:
26,151,70782,1,10,0:2:0:0:
76,64,71125,1,8,0:2:0:0:
171,92,71468,38,0,B|218:109|218:109|270:84,1,100,2|8,3:1|0:2,0:0:0:0:
346,31,72154,2,0,P|362:83|350:130,1,100,2|8,3:2|0:2,0:0:0:0:
327,170,72668,2,0,L|337:328,1,150,2|8,3:1|0:2,0:0:0:0:
432,346,73525,2,0,L|438:246,1,100,2|8,3:2|0:2,0:0:0:0:
463,202,74039,5,2,3:1:0:0:
483,104,74382,2,0,L|469:49,1,50,2|8,0:1|0:2,0:0:0:0:
376,21,74896,2,0,B|269:21|296:89|182:79,1,200,0|2,3:0|3:2,0:0:0:0:
97,40,75925,1,8,0:2:0:0:
91,139,76268,2,0,B|91:191|91:191|84:201|84:201|84:237,1,100,2|10,0:3|0:2,0:0:0:0:
23,316,76954,38,0,P|73:338|121:329,1,100,2|10,3:2|0:2,0:0:0:0:
209,294,77639,2,0,P|259:272|307:281,1,100,2|10,0:2|0:2,0:0:0:0:
378,344,78325,2,0,P|428:366|476:357,2,100,2|10|2,3:2|0:2|3:2,0:0:0:0:
454,154,79696,6,0,L|352:162,1,100,2|8,3:2|0:2,0:0:0:0:
290,239,80382,2,0,L|188:231,1,100,2|8,0:2|0:2,0:0:0:0:
102,182,81068,2,0,L|0:190,1,100,2|10,3:2|0:2,0:0:0:0:
33,94,81754,1,2,0:2:0:0:
214,10,82439,70,0,P|228:60|214:108,1,100,2|8,3:2|0:2,0:0:0:0:
159,188,83125,2,0,P|146:235|160:283,1,100,2|8,0:2|0:2,0:0:0:0:
207,372,83811,1,0,3:0:0:0:
107,365,84154,1,8,0:2:0:0:
7,358,84496,1,2,3:2:0:0:
18,158,85182,6,0,L|120:166,1,100,2|8,3:2|0:2,0:0:0:0:
182,243,85868,2,0,L|284:235,1,100,2|8,0:2|0:2,0:0:0:0:
370,186,86554,5,2,3:2:0:0:
469,197,86896,1,2,3:2:0:0:
457,296,87239,1,2,3:2:0:0:
251,338,87925,54,0,L|100:328,2,150,2|2|10,3:2|3:2|0:2,0:0:0:0:
318,264,89296,2,0,L|325:162,2,100,0|0|0,3:0|3:0|3:0,0:0:0:0:
230,215,90325,1,8,0:2:0:0:
130,224,90668,6,0,P|69:244|36:171,2,150,0|0|8,3:0|3:0|0:2,0:0:0:0:
166,130,92039,2,0,P|154:87|191:36,2,100,0|0|0,3:0|3:0|3:0,0:0:0:0:
258,91,93068,1,8,0:2:0:0:
349,130,93411,70,0,B|396:155|396:155|384:258,2,150,0|0|8,3:0|3:0|0:2,0:0:0:0:
263,181,94782,2,0,L|163:184,2,100,0|0|2,3:0|3:0|3:2,0:0:0:0:
239,278,95811,1,10,0:2:0:0:
298,358,96154,6,0,B|376:353|343:298|427:291,2,150,2|0|8,3:2|3:0|0:2,0:0:0:0:
198,364,97525,2,0,P|147:335|98:337,1,100,0|0,3:0|3:0,0:0:0:0:
12,371,98211,1,8,0:2:0:0:
5,270,98554,1,8,0:2:0:0:
0,171,98896,6,0,L|101:160,1,100,0|8,3:0|3:2,0:0:0:0:
197,150,99582,2,0,L|298:139,1,100,0|8,3:0|0:2,0:0:0:0:
303,239,100268,1,0,3:0:0:0:
203,249,100611,1,8,3:2:0:0:
104,260,100954,2,0,L|3:271,1,100,0|8,3:0|0:2,0:0:0:0:
31,174,101639,6,0,P|17:122|28:76,1,100,0|8,3:0|3:2,0:0:0:0:
114,29,102325,2,0,P|128:81|117:127,1,100,0|8,3:0|0:2,0:0:0:0:
31,174,103011,2,0,L|37:279,1,100,0|8,3:0|3:2,0:0:0:0:
86,360,103696,1,8,3:2:0:0:
185,356,104039,1,8,0:2:0:0:
277,318,104382,70,0,B|293:274|293:274|277:222,1,100,0|8,3:0|3:2,0:0:0:0:
207,150,105068,2,0,B|190:99|190:99|207:55,1,100,0|8,3:0|0:2,0:0:0:0:
292,3,105754,2,0,P|341:25|390:23,2,100,0|8|0,3:0|3:2|3:0,0:0:0:0:
206,55,106782,1,8,0:2:0:0:
117,9,107125,6,0,P|103:61|114:108,1,100,0|8,3:0|3:2,0:0:0:0:
150,198,107811,2,0,P|158:246|145:294,1,100,0|8,3:0|0:2,0:0:0:0:
227,352,108496,1,0,3:0:0:0:
289,273,108839,1,8,3:2:0:0:
381,310,109182,2,0,B|404:214|359:249|379:158,1,150,0|0,3:0|3:0,0:0:0:0:
394,115,109868,38,0,P|308:131|286:35,1,200,2|8,0:2|0:2,0:0:0:0:
206,224,111239,2,0,B|157:204|150:146|150:146|113:194|59:183,1,200,2|8,0:2|0:2,0:0:0:0:
114,270,112268,1,2,0:2:0:0:
194,328,112611,2,0,B|225:353|257:350|257:350|404:335,1,200,2|8,0:2|0:2,0:0:0:0:
369,137,113982,6,0,B|301:111|270:180|289:176|253:241|192:213,1,200,2|8,0:2|0:2,0:0:0:0:
139,142,115011,1,2,0:2:0:0:
49,186,115354,2,0,P|57:78|143:44,1,200,2|8,0:2|0:2,0:0:0:0:
324,95,116725,70,0,B|376:99|407:64|407:64|390:126|440:166,1,200,2|8,0:2|0:2,0:0:0:0:
453,260,117754,1,2,0:2:0:0:
396,342,118096,2,0,B|296:333|296:333|288:339|288:339|188:326,1,200,2|8,0:2|0:2,0:0:0:0:
276,146,119468,6,0,P|257:95|215:73,1,100,2|2,0:2|0:2,0:0:0:0:
120,90,120154,1,10,0:2:0:0:
130,189,120496,1,2,0:2:0:0:
140,288,120839,1,0,3:0:0:0:
