osu file format v14

[General]
AudioFilename: audio.mp3
AudioLeadIn: 0
PreviewTime: -1
Countdown: 0
SampleSet: None
StackLeniency: 0.7
Mode: 3
LetterboxInBreaks: 0
SpecialStyle: 1
WidescreenStoryboard: 0

[Editor]
DistanceSpacing: 1
BeatDivisor: 1
GridSize: 4
TimelineZoom: 1

[Metadata]
Title:Dusk Recapture
TitleUnicode:Dusk Recapture
Artist:keyc
ArtistUnicode:keyc
Creator:Peulde_
Version:[ANOTHER] Lv. 12
Source:BMS
Tags:HOUSE
BeatmapID:4511896
BeatmapSetID:2143209

[Difficulty]
HPDrainRate:8
CircleSize:7
OverallDifficulty:8
ApproachRate:0
SliderMultiplier:1
SliderTickRate:1

[Events]
//Background and Video events
0,0,"bg.png",0,0
//Break Periods
//Storyboard Layer 0 (Background)
//Storyboard Layer 1 (Fail)
//Storyboard Layer 2 (Pass)
//Storyboard Layer 3 (Foreground)
//Storyboard Layer 4 (Overlay)
//Storyboard Sound Samples
Sample,1818,0,"d_tmb01.ogg",10
Sample,1818,0,"d_ht01.ogg",10
Sample,1818,0,"introsyna01.ogg",10
Sample,1818,0,"d_rdmsyn03.ogg",100
Sample,1931,0,"d_tmb03.ogg",10
Sample,1969,0,"d_ht02.ogg",10
Sample,2045,0,"d_tmb04.ogg",10
Sample,2045,0,"d_ht03.ogg",10
Sample,2159,0,"d_tmb03.ogg",10
Sample,2196,0,"d_ht04.ogg",10
Sample,2272,0,"d_tmb04.ogg",10
Sample,2272,0,"d_ht05.ogg",10
Sample,2386,0,"d_tmb03.ogg",10
Sample,2500,0,"d_ht03.ogg",10
Sample,2500,0,"d_tmb04.ogg",10
Sample,2613,0,"d_tmb02l.ogg",10
Sample,2651,0,"d_ht07.ogg",10
Sample,2727,0,"d_ht08.ogg",10
Sample,2840,0,"d_tmb10.ogg",10
Sample,2954,0,"d_tmb04.ogg",10
Sample,2954,0,"d_ht03.ogg",10
Sample,3068,0,"d_tmb02.ogg",10
Sample,3106,0,"d_ht04.ogg",10
Sample,3181,0,"d_ht05.ogg",10
Sample,3181,0,"d_tmb03.ogg",10
Sample,3295,0,"d_tmb04.ogg",10
Sample,3333,0,"d_ht12.ogg",10
Sample,3409,0,"d_tmb02.ogg",10
Sample,3409,0,"d_ht03.ogg",10
Sample,3560,0,"d_ht12.ogg",10
Sample,3636,0,"introsyna02.ogg",10
Sample,3636,0,"d_ht01.ogg",10
Sample,3636,0,"d_tmb03.ogg",10
Sample,3749,0,"d_tmb04.ogg",10
Sample,3787,0,"d_ht02.ogg",10
Sample,3863,0,"d_ht03.ogg",10
Sample,3863,0,"d_tmb01.ogg",10
Sample,3977,0,"d_tmb03.ogg",10
Sample,4015,0,"d_ht04.ogg",10
Sample,4090,0,"d_ht05.ogg",10
Sample,4090,0,"d_tmb04.ogg",10
Sample,4204,0,"d_tmb02.ogg",10
Sample,4318,0,"d_ht03.ogg",10
Sample,4318,0,"d_tmb03.ogg",10
Sample,4431,0,"d_tmb10.ogg",10
Sample,4469,0,"d_ht07.ogg",10
Sample,4545,0,"d_tmb02l.ogg",10
Sample,4545,0,"d_ht08.ogg",10
Sample,4696,0,"d_ht12.ogg",10
Sample,4772,0,"d_tmb03.ogg",10
Sample,4772,0,"d_ht03.ogg",10
Sample,4886,0,"d_tmb04.ogg",10
Sample,4924,0,"d_ht25.ogg",10
Sample,5000,0,"d_tmb03.ogg",10
Sample,5000,0,"d_ht26.ogg",10
Sample,5113,0,"d_tmb04.ogg",10
Sample,5151,0,"d_ht27.ogg",10
Sample,5227,0,"d_tmb03.ogg",10
Sample,5227,0,"d_ht03.ogg",10
Sample,5340,0,"d_tmb10.ogg",10
Sample,5378,0,"d_ht29.ogg",10
Sample,5454,0,"d_ht01.ogg",10
Sample,5454,0,"introsyna03.ogg",10
Sample,5454,0,"d_tmb02.ogg",10
Sample,5568,0,"d_tmb03.ogg",10
Sample,5606,0,"d_ht02.ogg",10
Sample,5681,0,"d_tmb04.ogg",10
Sample,5681,0,"d_ht03.ogg",10
Sample,5795,0,"d_tmb03.ogg",10
Sample,5833,0,"d_ht04.ogg",10
Sample,5909,0,"d_tmb04.ogg",10
Sample,5909,0,"d_ht05.ogg",10
Sample,6022,0,"d_tmb03.ogg",10
Sample,6136,0,"d_tmb10.ogg",10
Sample,6136,0,"d_ht03.ogg",10
Sample,6249,0,"d_tmb02.ogg",10
Sample,6287,0,"d_ht07.ogg",10
Sample,6363,0,"d_ht08.ogg",10
Sample,6363,0,"d_tmb03.ogg",10
Sample,6477,0,"d_tmb04.ogg",10
Sample,6590,0,"d_tmb03.ogg",10
Sample,6590,0,"d_ht03.ogg",10
Sample,6704,0,"d_tmb02.ogg",10
Sample,6742,0,"d_ht04.ogg",10
Sample,6818,0,"d_ht05.ogg",10
Sample,6818,0,"d_tmb03.ogg",10
Sample,6931,0,"d_tmb04.ogg",10
Sample,6969,0,"d_ht12.ogg",10
Sample,7045,0,"d_tmb03.ogg",10
Sample,7045,0,"d_ht03.ogg",10
Sample,7159,0,"d_tmb10.ogg",10
Sample,7196,0,"d_ht12.ogg",10
Sample,7272,0,"d_tmb03.ogg",10
Sample,7272,0,"d_ht01.ogg",10
Sample,7272,0,"introsyna04.ogg",10
Sample,7386,0,"d_tmb04.ogg",10
Sample,7424,0,"d_ht02.ogg",10
Sample,7499,0,"d_ht03.ogg",10
Sample,7499,0,"d_tmb01.ogg",10
Sample,7613,0,"d_tmb04.ogg",10
Sample,7651,0,"d_ht04.ogg",10
Sample,7727,0,"d_ht05.ogg",10
Sample,7727,0,"d_tmb03.ogg",10
Sample,7840,0,"d_tmb02.ogg",10
Sample,7954,0,"d_tmb03.ogg",10
Sample,7954,0,"d_ht03.ogg",10
Sample,8068,0,"d_tmb04.ogg",10
Sample,8106,0,"d_ht07.ogg",10
Sample,8181,0,"d_ht08.ogg",10
Sample,8181,0,"d_tmb03.ogg",10
Sample,8295,0,"d_tmb04.ogg",10
Sample,8333,0,"d_ht12.ogg",10
Sample,8409,0,"d_tmb02.ogg",10
Sample,8409,0,"d_ht03.ogg",10
Sample,8522,0,"d_tmb10.ogg",10
Sample,8560,0,"d_ht25.ogg",10
Sample,8636,0,"d_ht26.ogg",10
Sample,8636,0,"d_tmb03.ogg",10
Sample,8750,0,"d_tmb01.ogg",10
Sample,8787,0,"d_ht27.ogg",10
Sample,8863,0,"d_ht03.ogg",10
Sample,8863,0,"d_tmb03.ogg",10
Sample,8977,0,"d_tmb04.ogg",10
Sample,9015,0,"d_ht29.ogg",10
Sample,9090,0,"d_tmb02.ogg",10
Sample,9090,0,"d_pc01.ogg",10
Sample,9090,0,"d_ht01.ogg",10
Sample,9090,0,"d_sh01.ogg",10
Sample,9090,0,"introsynb01.ogg",10
Sample,9204,0,"d_tmb03.ogg",10
Sample,9204,0,"d_sh02.ogg",10
Sample,9242,0,"d_ht02.ogg",10
Sample,9318,0,"d_tmb04.ogg",10
Sample,9318,0,"d_ht03.ogg",10
Sample,9318,0,"d_sh03.ogg",10
Sample,9431,0,"d_pc02.ogg",10
Sample,9431,0,"d_tmb03.ogg",10
Sample,9431,0,"d_sh02.ogg",10
Sample,9469,0,"d_ht04.ogg",10
Sample,9545,0,"d_sh03.ogg",10
Sample,9545,0,"d_ht05.ogg",10
Sample,9659,0,"d_sh06.ogg",10
Sample,9659,0,"d_tmb04.ogg",10
Sample,9772,0,"d_ht03.ogg",10
Sample,9772,0,"d_sh01.ogg",10
Sample,9772,0,"d_tmb03.ogg",10
Sample,9772,0,"d_pc03.ogg",10
Sample,9886,0,"d_tmb02l.ogg",10
Sample,9886,0,"d_sh02.ogg",10
Sample,9924,0,"d_ht07.ogg",10
Sample,10000,0,"d_ht08.ogg",10
Sample,10000,0,"d_sh03.ogg",10
Sample,10113,0,"d_pc04.ogg",10
Sample,10113,0,"d_sh02.ogg",10
Sample,10113,0,"d_tmb10.ogg",10
Sample,10227,0,"d_ht03.ogg",10
Sample,10227,0,"d_sh01.ogg",10
Sample,10227,0,"d_tmb04.ogg",10
Sample,10340,0,"d_tmb02.ogg",10
Sample,10340,0,"d_pc05.ogg",10
Sample,10340,0,"d_sh12.ogg",10
Sample,10378,0,"d_ht04.ogg",10
Sample,10454,0,"d_tmb03.ogg",10
Sample,10454,0,"d_ht05.ogg",10
Sample,10454,0,"d_sh13.ogg",10
Sample,10454,0,"d_pc06.ogg",10
Sample,10568,0,"d_sh14.ogg",10
Sample,10568,0,"d_tmb04.ogg",10
Sample,10606,0,"d_ht12.ogg",10
Sample,10681,0,"d_tmb02.ogg",10
Sample,10681,0,"d_ht03.ogg",10
Sample,10681,0,"d_pc07.ogg",10
Sample,10681,0,"d_sh01.ogg",10
Sample,10795,0,"d_sh02.ogg",10
Sample,10833,0,"d_ht12.ogg",10
Sample,10909,0,"introsynb02.ogg",10
Sample,10909,0,"d_ht01.ogg",10
Sample,10909,0,"d_pc08.ogg",10
Sample,10909,0,"d_tmb03.ogg",10
Sample,10909,0,"d_sh17.ogg",10
Sample,11022,0,"d_sh12.ogg",10
Sample,11022,0,"d_tmb04.ogg",10
Sample,11060,0,"d_ht02.ogg",10
Sample,11136,0,"d_sh13.ogg",10
Sample,11136,0,"d_ht03.ogg",10
Sample,11136,0,"d_tmb02.ogg",10
Sample,11249,0,"d_sh14.ogg",10
Sample,11249,0,"d_pc09.ogg",10
Sample,11249,0,"d_tmb03.ogg",10
Sample,11287,0,"d_ht04.ogg",10
Sample,11363,0,"d_tmb10.ogg",10
Sample,11363,0,"d_sh03.ogg",10
Sample,11363,0,"d_ht05.ogg",10
Sample,11477,0,"d_sh02.ogg",10
Sample,11477,0,"d_tmb01.ogg",10
Sample,11590,0,"d_pc10.ogg",10
Sample,11590,0,"d_ht03.ogg",10
Sample,11590,0,"d_sh01.ogg",10
Sample,11590,0,"d_tmb03.ogg",10
Sample,11704,0,"d_sh12.ogg",10
Sample,11704,0,"d_tmb04.ogg",10
Sample,11742,0,"d_ht07.ogg",10
Sample,11818,0,"d_sh13.ogg",10
Sample,11818,0,"d_pc11.ogg",10
Sample,11818,0,"d_tmb02l.ogg",10
Sample,11818,0,"d_ht08.ogg",10
Sample,11931,0,"d_sh14.ogg",10
Sample,11969,0,"d_ht12.ogg",10
Sample,12045,0,"d_ht03.ogg",10
Sample,12045,0,"d_tmb03.ogg",10
Sample,12045,0,"d_sh17.ogg",10
Sample,12159,0,"d_pc12.ogg",10
Sample,12159,0,"d_tmb10.ogg",10
Sample,12159,0,"d_sh12.ogg",10
Sample,12196,0,"d_ht25.ogg",10
Sample,12272,0,"d_sh13.ogg",10
Sample,12272,0,"d_ht26.ogg",10
Sample,12272,0,"d_tmb03.ogg",10
Sample,12386,0,"d_sh14.ogg",10
Sample,12386,0,"d_tmb04.ogg",10
Sample,12424,0,"d_ht27.ogg",10
Sample,12499,0,"d_sh17.ogg",10
Sample,12499,0,"d_tmb03.ogg",10
Sample,12499,0,"d_pc13.ogg",10
Sample,12499,0,"d_ht03.ogg",10
Sample,12613,0,"d_tmb04.ogg",10
Sample,12613,0,"d_sh14.ogg",10
Sample,12651,0,"d_ht29.ogg",10
Sample,12727,0,"d_tmb01.ogg",10
Sample,12727,0,"d_pc01.ogg",10
Sample,12727,0,"d_ht01.ogg",10
Sample,12727,0,"d_sh01.ogg",10
Sample,12727,0,"introsynb03.ogg",10
Sample,12840,0,"d_sh02.ogg",10
Sample,12878,0,"d_ht02.ogg",10
Sample,12954,0,"d_sh03.ogg",10
Sample,12954,0,"d_ht03.ogg",10
Sample,12954,0,"d_tmb02.ogg",10
Sample,13068,0,"d_sh02.ogg",10
Sample,13068,0,"d_pc02.ogg",10
Sample,13068,0,"d_tmb03.ogg",10
Sample,13106,0,"d_ht04.ogg",10
Sample,13181,0,"d_tmb10.ogg",10
Sample,13181,0,"d_ht05.ogg",10
Sample,13181,0,"d_sh03.ogg",10
Sample,13295,0,"d_tmb03.ogg",10
Sample,13295,0,"d_sh06.ogg",10
Sample,13409,0,"d_ht03.ogg",10
Sample,13409,0,"d_sh01.ogg",10
Sample,13409,0,"d_tmb04.ogg",10
Sample,13409,0,"d_pc03.ogg",10
Sample,13522,0,"d_sh02.ogg",10
Sample,13522,0,"d_tmb03.ogg",10
Sample,13560,0,"d_ht07.ogg",10
Sample,13636,0,"d_tmb04.ogg",10
Sample,13636,0,"d_sh03.ogg",10
Sample,13636,0,"d_ht08.ogg",10
Sample,13749,0,"d_sh02.ogg",10
Sample,13749,0,"d_pc04.ogg",10
Sample,13749,0,"d_tmb01.ogg",10
Sample,13863,0,"d_ht03.ogg",10
Sample,13863,0,"d_sh01.ogg",10
Sample,13863,0,"d_tmb10.ogg",10
Sample,13977,0,"d_pc05.ogg",10
Sample,13977,0,"d_sh12.ogg",10
Sample,13977,0,"d_tmb04.ogg",10
Sample,14015,0,"d_ht04.ogg",10
Sample,14090,0,"d_ht05.ogg",10
Sample,14090,0,"d_sh13.ogg",10
Sample,14090,0,"d_tmb03.ogg",10
Sample,14090,0,"d_pc06.ogg",10
Sample,14204,0,"d_tmb02.ogg",10
Sample,14204,0,"d_sh14.ogg",10
Sample,14242,0,"d_ht12.ogg",10
Sample,14318,0,"d_pc07.ogg",10
Sample,14318,0,"d_sh01.ogg",10
Sample,14318,0,"d_tmb03.ogg",10
Sample,14318,0,"d_ht03.ogg",10
Sample,14431,0,"d_tmb04.ogg",10
Sample,14431,0,"d_sh02.ogg",10
Sample,14469,0,"d_ht12.ogg",10
Sample,14545,0,"d_ht01.ogg",10
Sample,14545,0,"d_sh17.ogg",10
Sample,14545,0,"fx01a.ogg",100
Sample,14545,0,"introsynb04.ogg",10
Sample,14545,0,"d_tmb02.ogg",10
Sample,14545,0,"d_pc08.ogg",10
Sample,14659,0,"d_tmb03.ogg",10
Sample,14659,0,"d_sh12.ogg",10
Sample,14696,0,"d_ht02.ogg",10
Sample,14772,0,"d_sh13.ogg",10
Sample,14772,0,"d_ht03.ogg",10
Sample,14772,0,"d_tmb04.ogg",10
Sample,14886,0,"d_sh14.ogg",10
Sample,14886,0,"d_tmb02.ogg",10
Sample,14886,0,"d_pc09.ogg",10
Sample,14924,0,"d_ht04.ogg",10
Sample,14999,0,"d_tmb03.ogg",10
Sample,14999,0,"d_ht05.ogg",10
Sample,14999,0,"d_sh03.ogg",10
Sample,15113,0,"d_tmb10.ogg",10
Sample,15113,0,"d_sh02.ogg",10
Sample,15227,0,"d_pc10.ogg",10
Sample,15227,0,"d_tmb01.ogg",10
Sample,15227,0,"d_sh01.ogg",10
Sample,15227,0,"d_ht03.ogg",10
Sample,15340,0,"d_sh12.ogg",10
Sample,15340,0,"d_tmb03.ogg",10
Sample,15378,0,"d_bd05.ogg",10
Sample,15378,0,"d_ht07.ogg",10
Sample,15454,0,"d_sh13.ogg",10
Sample,15454,0,"d_pc11.ogg",10
Sample,15454,0,"d_ht08.ogg",10
Sample,15454,0,"d_tmb04.ogg",10
Sample,15568,0,"d_tmb02.ogg",10
Sample,15568,0,"d_sh14.ogg",10
Sample,15606,0,"d_ht12.ogg",10
Sample,15681,0,"d_ht03.ogg",10
Sample,15681,0,"d_tmb03.ogg",10
Sample,15681,0,"d_sh17.ogg",10
Sample,15795,0,"d_sh12.ogg",10
Sample,15795,0,"d_pc12.ogg",10
Sample,15795,0,"d_tmb02.ogg",10
Sample,15833,0,"d_ht25.ogg",10
Sample,15909,0,"bassb2C+.ogg",10
Sample,15909,0,"d_ht02.ogg",10
Sample,15909,0,"d_efxc05.ogg",100
Sample,15909,0,"fx01b.ogg",10
Sample,15909,0,"d_tmb02s.ogg",10
Sample,15909,0,"d_sh29.ogg",10
Sample,16022,0,"fx01c.ogg",10
Sample,16022,0,"d_efxc06.ogg",100
Sample,16022,0,"d_ht02.ogg",10
Sample,16022,0,"d_tmb02s.ogg",10
Sample,16022,0,"d_sh29.ogg",10
Sample,16136,0,"d_ht02.ogg",10
Sample,16136,0,"fx01d.ogg",10
Sample,16136,0,"d_sh29.ogg",10
Sample,16136,0,"d_tmb02s.ogg",10
Sample,16136,0,"bassb3C+.ogg",10
Sample,16136,0,"d_efxc07.ogg",100
Sample,16249,0,"d_sh29.ogg",10
Sample,16249,0,"d_efxc08.ogg",100
Sample,16249,0,"fx01e.ogg",10
Sample,16249,0,"d_tmb02s.ogg",10
Sample,16249,0,"d_ht02.ogg",10
Sample,16363,0,"fx01f.ogg",10
Sample,16363,0,"d_pc01.ogg",10
Sample,16363,0,"tb_2C+.ogg",10
Sample,16363,0,"bassb2C+.ogg",10
Sample,16363,0,"d_sh01.ogg",10
Sample,16363,0,"d_tmb01.ogg",10
Sample,16363,0,"d_ht01.ogg",10
Sample,16363,0,"bgstr01.ogg",10
Sample,16363,0,"d_rdmsyn01.ogg",100
Sample,16477,0,"d_tmb03.ogg",10
Sample,16477,0,"d_sh02.ogg",10
Sample,16515,0,"d_ht02.ogg",10
Sample,16590,0,"bassa2C+.ogg",10
Sample,16590,0,"d_tmb04.ogg",10
Sample,16590,0,"d_ht03.ogg",10
Sample,16590,0,"d_sh03.ogg",10
Sample,16704,0,"bassb2F+.ogg",10
Sample,16704,0,"d_tmb03.ogg",10
Sample,16704,0,"d_sh02.ogg",10
Sample,16704,0,"d_pc02.ogg",10
Sample,16742,0,"d_ht04.ogg",10
Sample,16818,0,"d_sh03.ogg",10
Sample,16818,0,"d_ht05.ogg",10
Sample,16818,0,"d_tmb04.ogg",10
Sample,16931,0,"d_sh06.ogg",10
Sample,16931,0,"d_tmb03.ogg",10
Sample,17045,0,"d_sh01.ogg",10
Sample,17045,0,"d_pc03.ogg",10
Sample,17045,0,"d_tmb04.ogg",10
Sample,17045,0,"d_ht03.ogg",10
Sample,17159,0,"d_tmb02l.ogg",10
Sample,17159,0,"d_sh02.ogg",10
Sample,17196,0,"d_ht07.ogg",10
Sample,17196,0,"d_bd05.ogg",10
Sample,17272,0,"d_sh03.ogg",10
Sample,17272,0,"d_ht08.ogg",10
Sample,17386,0,"d_tmb10.ogg",10
Sample,17386,0,"d_sh02.ogg",10
Sample,17386,0,"d_pc04.ogg",10
Sample,17500,0,"d_ht03.ogg",10
Sample,17500,0,"d_sh01.ogg",10
Sample,17500,0,"d_tmb04.ogg",10
Sample,17500,0,"bassa2C+.ogg",10
Sample,17613,0,"d_tmb02.ogg",10
Sample,17613,0,"d_pc05.ogg",10
Sample,17613,0,"d_sh12.ogg",10
Sample,17651,0,"d_ht04.ogg",10
Sample,17727,0,"d_pc06.ogg",10
Sample,17727,0,"d_tmb03.ogg",10
Sample,17727,0,"d_sh13.ogg",10
Sample,17727,0,"d_ht05.ogg",10
Sample,17840,0,"d_tmb04.ogg",10
Sample,17840,0,"bassb2C+.ogg",10
Sample,17840,0,"d_sh14.ogg",10
Sample,17878,0,"d_ht12.ogg",10
Sample,17954,0,"d_pc07.ogg",10
Sample,17954,0,"d_sh01.ogg",10
Sample,17954,0,"d_tmb02.ogg",10
Sample,17954,0,"d_ht03.ogg",10
Sample,18068,0,"d_sh02.ogg",10
Sample,18106,0,"d_ht12.ogg",10
Sample,18181,0,"d_ht01.ogg",10
Sample,18181,0,"bassb2C+.ogg",10
Sample,18181,0,"tb_2C+.ogg",10
Sample,18181,0,"d_tmb03.ogg",10
Sample,18181,0,"d_sh17.ogg",10
Sample,18181,0,"d_pc08.ogg",10
Sample,18295,0,"d_sh12.ogg",10
Sample,18295,0,"d_tmb04.ogg",10
Sample,18333,0,"d_ht02.ogg",10
Sample,18409,0,"bassa2C+.ogg",10
Sample,18409,0,"d_tmb01.ogg",10
Sample,18409,0,"d_sh13.ogg",10
Sample,18409,0,"d_ht03.ogg",10
Sample,18522,0,"d_tmb03.ogg",10
Sample,18522,0,"d_sh14.ogg",10
Sample,18522,0,"d_pc09.ogg",10
Sample,18522,0,"bassb2F+.ogg",10
Sample,18560,0,"d_ht04.ogg",10
Sample,18636,0,"d_tmb04.ogg",10
Sample,18636,0,"d_sh03.ogg",10
Sample,18636,0,"d_ht05.ogg",10
Sample,18750,0,"d_sh02.ogg",10
Sample,18750,0,"d_tmb02.ogg",10
Sample,18863,0,"bassa2C+.ogg",10
Sample,18863,0,"d_tmb03.ogg",10
Sample,18863,0,"d_sh01.ogg",10
Sample,18863,0,"d_pc10.ogg",10
Sample,18863,0,"d_ht03.ogg",10
Sample,18977,0,"d_sh12.ogg",10
Sample,18977,0,"d_tmb10.ogg",10
Sample,18977,0,"bassa2C+.ogg",10
Sample,19015,0,"d_bd05.ogg",10
Sample,19015,0,"d_ht07.ogg",10
Sample,19090,0,"d_ht08.ogg",10
Sample,19090,0,"d_tmb02l.ogg",10
Sample,19090,0,"bassb2E.ogg",10
Sample,19090,0,"d_pc11.ogg",10
Sample,19090,0,"d_sh13.ogg",10
Sample,19204,0,"d_sh14.ogg",10
Sample,19242,0,"d_ht12.ogg",10
Sample,19318,0,"d_ht03.ogg",10
Sample,19318,0,"bassa2C+.ogg",10
Sample,19318,0,"d_tmb03.ogg",10
Sample,19318,0,"d_sh17.ogg",10
Sample,19431,0,"d_tmb04.ogg",10
Sample,19431,0,"bassb2D+.ogg",10
Sample,19431,0,"d_pc12.ogg",10
Sample,19431,0,"d_sh12.ogg",10
Sample,19469,0,"d_ht25.ogg",10
Sample,19545,0,"d_tmb03.ogg",10
Sample,19545,0,"d_sh13.ogg",10
Sample,19545,0,"d_ht26.ogg",10
Sample,19659,0,"d_tmb04.ogg",10
Sample,19659,0,"bassa2D.ogg",10
Sample,19659,0,"d_sh14.ogg",10
Sample,19696,0,"d_ht27.ogg",10
Sample,19772,0,"d_tmb03.ogg",10
Sample,19772,0,"d_sh17.ogg",10
Sample,19772,0,"bassb2C+.ogg",10
Sample,19772,0,"d_pc13.ogg",10
Sample,19772,0,"d_ht03.ogg",10
Sample,19886,0,"d_sh14.ogg",10
Sample,19886,0,"d_tmb10.ogg",10
Sample,19924,0,"d_ht29.ogg",10
Sample,20000,0,"d_ht01.ogg",10
Sample,20000,0,"tb_2C+.ogg",10
Sample,20000,0,"d_pc01.ogg",10
Sample,20000,0,"bassb2C+.ogg",10
Sample,20000,0,"d_sh01.ogg",10
Sample,20000,0,"d_tmb02.ogg",10
Sample,20113,0,"d_sh02.ogg",10
Sample,20113,0,"d_tmb03.ogg",10
Sample,20151,0,"d_ht02.ogg",10
Sample,20227,0,"d_ht03.ogg",10
Sample,20227,0,"bassa2C+.ogg",10
Sample,20227,0,"d_tmb04.ogg",10
Sample,20227,0,"d_sh03.ogg",10
Sample,20340,0,"bassb2F+.ogg",10
Sample,20340,0,"d_tmb03.ogg",10
Sample,20340,0,"d_pc02.ogg",10
Sample,20340,0,"d_sh02.ogg",10
Sample,20378,0,"d_ht04.ogg",10
Sample,20454,0,"d_ht05.ogg",10
Sample,20454,0,"d_tmb04.ogg",10
Sample,20454,0,"d_sh03.ogg",10
Sample,20568,0,"d_sh06.ogg",10
Sample,20568,0,"d_tmb03.ogg",10
Sample,20681,0,"d_ht03.ogg",10
Sample,20681,0,"d_tmb10.ogg",10
Sample,20681,0,"d_pc03.ogg",10
Sample,20681,0,"d_sh01.ogg",10
Sample,20795,0,"d_tmb02.ogg",10
Sample,20795,0,"d_sh02.ogg",10
Sample,20833,0,"d_bd05.ogg",10
Sample,20833,0,"d_ht07.ogg",10
Sample,20909,0,"d_tmb03.ogg",10
Sample,20909,0,"d_ht08.ogg",10
Sample,20909,0,"d_sh03.ogg",10
Sample,21022,0,"d_sh02.ogg",10
Sample,21022,0,"d_pc04.ogg",10
Sample,21022,0,"d_tmb04.ogg",10
Sample,21136,0,"bassa2C+.ogg",10
Sample,21136,0,"d_sh01.ogg",10
Sample,21136,0,"d_ht03.ogg",10
Sample,21136,0,"d_tmb03.ogg",10
Sample,21250,0,"d_pc05.ogg",10
Sample,21250,0,"d_sh12.ogg",10
Sample,21250,0,"d_tmb02.ogg",10
Sample,21287,0,"d_ht04.ogg",10
Sample,21363,0,"d_sh13.ogg",10
Sample,21363,0,"d_pc06.ogg",10
Sample,21363,0,"d_tmb03.ogg",10
Sample,21363,0,"d_ht05.ogg",10
Sample,21477,0,"bassb2C+.ogg",10
Sample,21477,0,"d_tmb04.ogg",10
Sample,21477,0,"d_sh14.ogg",10
Sample,21515,0,"d_ht12.ogg",10
Sample,21590,0,"d_ht03.ogg",10
Sample,21590,0,"d_tmb03.ogg",10
Sample,21590,0,"d_pc07.ogg",10
Sample,21590,0,"d_sh01.ogg",10
Sample,21704,0,"d_tmb10.ogg",10
Sample,21704,0,"d_sh02.ogg",10
Sample,21742,0,"d_ht12.ogg",10
Sample,21818,0,"d_pc08.ogg",10
Sample,21818,0,"tb_2C+.ogg",10
Sample,21818,0,"d_tmb03.ogg",10
Sample,21818,0,"bassb2C+.ogg",10
Sample,21818,0,"d_sh17.ogg",10
Sample,21818,0,"d_ht01.ogg",10
Sample,21931,0,"d_tmb04.ogg",10
Sample,21931,0,"d_sh12.ogg",10
Sample,21969,0,"d_ht02.ogg",10
Sample,22045,0,"bassa2C+.ogg",10
Sample,22045,0,"d_sh13.ogg",10
Sample,22045,0,"d_tmb01.ogg",10
Sample,22045,0,"d_ht03.ogg",10
Sample,22159,0,"d_tmb04.ogg",10
Sample,22159,0,"d_pc09.ogg",10
Sample,22159,0,"bassb2F+.ogg",10
Sample,22159,0,"d_sh14.ogg",10
Sample,22196,0,"d_ht04.ogg",10
Sample,22272,0,"d_ht05.ogg",10
Sample,22272,0,"d_tmb03.ogg",10
Sample,22272,0,"d_sh03.ogg",10
Sample,22386,0,"d_tmb02.ogg",10
Sample,22386,0,"d_sh02.ogg",10
Sample,22499,0,"d_pc10.ogg",10
Sample,22499,0,"d_ht03.ogg",10
Sample,22499,0,"d_tmb03.ogg",10
Sample,22499,0,"bassa1F+.ogg",10
Sample,22499,0,"d_sh01.ogg",10
Sample,22613,0,"d_tmb04.ogg",10
Sample,22613,0,"bassa1F+.ogg",10
Sample,22613,0,"d_sh12.ogg",10
Sample,22651,0,"d_ht07.ogg",10
Sample,22651,0,"d_bd05.ogg",10
Sample,22727,0,"bassb2E.ogg",10
Sample,22727,0,"d_pc11.ogg",10
Sample,22727,0,"d_sh13.ogg",10
Sample,22727,0,"d_tmb03.ogg",10
Sample,22727,0,"d_ht08.ogg",10
Sample,22840,0,"d_sh14.ogg",10
Sample,22840,0,"d_tmb04.ogg",10
Sample,22878,0,"d_ht12.ogg",10
Sample,22954,0,"d_tmb02.ogg",10
Sample,22954,0,"bassa1F+.ogg",10
Sample,22954,0,"d_sh17.ogg",10
Sample,22954,0,"d_ht03.ogg",10
Sample,23068,0,"d_sh12.ogg",10
Sample,23068,0,"d_tmb10.ogg",10
Sample,23068,0,"d_pc12.ogg",10
Sample,23068,0,"bassb2D+.ogg",10
Sample,23106,0,"d_ht25.ogg",10
Sample,23181,0,"d_sh13.ogg",10
Sample,23181,0,"d_ht26.ogg",10
Sample,23181,0,"d_tmb03.ogg",10
Sample,23295,0,"d_sh14.ogg",10
Sample,23295,0,"bassa2D.ogg",10
Sample,23295,0,"d_tmb01.ogg",10
Sample,23333,0,"d_ht27.ogg",10
Sample,23409,0,"d_pc13.ogg",10
Sample,23409,0,"d_tmb03.ogg",10
Sample,23409,0,"d_ht03.ogg",10
Sample,23409,0,"d_sh17.ogg",10
Sample,23409,0,"bassb2C+.ogg",10
Sample,23409,0,"brs_1C.ogg",100
Sample,23522,0,"d_tmb04.ogg",10
Sample,23522,0,"d_sh14.ogg",10
Sample,23560,0,"d_ht29.ogg",10
Sample,23636,0,"d_tmb02.ogg",10
Sample,23636,0,"d_sh01.ogg",10
Sample,23636,0,"d_ht01.ogg",10
Sample,23636,0,"bassb1A.ogg",10
Sample,23636,0,"d_pc01.ogg",10
Sample,23636,0,"bgstr02.ogg",10
Sample,23636,0,"d_rdmsyn03.ogg",10
Sample,23636,0,"p2-01.ogg",10
Sample,23636,0,"tb_1A.ogg",10
Sample,23636,0,"brs_2C+.ogg",100
Sample,23749,0,"d_tmb03.ogg",10
Sample,23749,0,"d_sh02.ogg",10
Sample,23787,0,"d_ht02.ogg",10
Sample,23863,0,"d_ht03.ogg",10
Sample,23863,0,"d_tmb04.ogg",10
Sample,23863,0,"d_sh03.ogg",10
Sample,23863,0,"bassa1A.ogg",10
Sample,23977,0,"d_tmb03.ogg",10
Sample,23977,0,"bassb2A.ogg",10
Sample,23977,0,"d_pc02.ogg",10
Sample,23977,0,"d_sh02.ogg",10
Sample,24015,0,"d_ht04.ogg",10
Sample,24090,0,"d_ht05.ogg",10
Sample,24090,0,"d_sh03.ogg",10
Sample,24204,0,"d_sh06.ogg",10
Sample,24204,0,"d_tmb04.ogg",10
Sample,24318,0,"d_tmb03.ogg",10
Sample,24318,0,"d_sh01.ogg",10
Sample,24318,0,"d_pc03.ogg",10
Sample,24318,0,"d_ht03.ogg",10
Sample,24431,0,"d_sh02.ogg",10
Sample,24431,0,"d_tmb02l.ogg",10
Sample,24469,0,"d_ht07.ogg",10
Sample,24469,0,"d_bd05.ogg",10
Sample,24545,0,"d_sh03.ogg",10
Sample,24545,0,"d_ht08.ogg",10
Sample,24659,0,"d_pc04.ogg",10
Sample,24659,0,"d_tmb10.ogg",10
Sample,24659,0,"d_sh02.ogg",10
Sample,24772,0,"d_ht03.ogg",10
Sample,24772,0,"d_sh01.ogg",10
Sample,24772,0,"d_tmb04.ogg",10
Sample,24772,0,"bassa2G+.ogg",10
Sample,24886,0,"d_sh12.ogg",10
Sample,24886,0,"d_tmb02.ogg",10
Sample,24886,0,"d_pc05.ogg",10
Sample,24924,0,"d_ht04.ogg",10
Sample,24999,0,"d_sh13.ogg",10
Sample,24999,0,"d_pc06.ogg",10
Sample,24999,0,"d_ht05.ogg",10
Sample,24999,0,"d_tmb03.ogg",10
Sample,25113,0,"d_sh14.ogg",10
Sample,25113,0,"bassb2G+.ogg",10
Sample,25113,0,"d_tmb04.ogg",10
Sample,25151,0,"d_ht12.ogg",10
Sample,25227,0,"d_pc07.ogg",10
Sample,25227,0,"d_ht03.ogg",10
Sample,25227,0,"d_tmb02.ogg",10
Sample,25227,0,"d_sh01.ogg",10
Sample,25340,0,"d_sh02.ogg",10
Sample,25378,0,"d_ht12.ogg",10
Sample,25454,0,"d_sh17.ogg",10
Sample,25454,0,"tb_1A.ogg",10
Sample,25454,0,"d_ht01.ogg",10
Sample,25454,0,"d_tmb03.ogg",10
Sample,25454,0,"bassb1A.ogg",10
Sample,25454,0,"d_pc08.ogg",10
Sample,25568,0,"d_sh12.ogg",10
Sample,25568,0,"d_tmb04.ogg",10
Sample,25606,0,"d_ht02.ogg",10
Sample,25681,0,"bassa1A.ogg",10
Sample,25681,0,"d_ht03.ogg",10
Sample,25681,0,"d_sh13.ogg",10
Sample,25681,0,"d_tmb02.ogg",10
Sample,25795,0,"bassb2A.ogg",10
Sample,25795,0,"d_sh14.ogg",10
Sample,25795,0,"d_pc09.ogg",10
Sample,25795,0,"d_tmb03.ogg",10
Sample,25833,0,"d_ht04.ogg",10
Sample,25909,0,"d_sh03.ogg",10
Sample,25909,0,"d_tmb10.ogg",10
Sample,25909,0,"d_ht05.ogg",10
Sample,26022,0,"d_tmb01.ogg",10
Sample,26022,0,"d_sh02.ogg",10
Sample,26136,0,"d_pc10.ogg",10
Sample,26136,0,"d_tmb03.ogg",10
Sample,26136,0,"d_sh01.ogg",10
Sample,26136,0,"d_ht03.ogg",10
Sample,26136,0,"bassa1A.ogg",10
Sample,26249,0,"d_sh12.ogg",10
Sample,26249,0,"d_tmb04.ogg",10
Sample,26249,0,"bassa1A.ogg",10
Sample,26287,0,"d_bd05.ogg",10
Sample,26287,0,"d_ht07.ogg",10
Sample,26363,0,"d_tmb02l.ogg",10
Sample,26363,0,"bassb2G+.ogg",10
Sample,26363,0,"d_sh13.ogg",10
Sample,26363,0,"d_pc11.ogg",10
Sample,26363,0,"d_ht08.ogg",10
Sample,26477,0,"d_sh14.ogg",10
Sample,26515,0,"d_ht12.ogg",10
Sample,26590,0,"d_ht03.ogg",10
Sample,26590,0,"d_sh17.ogg",10
Sample,26590,0,"bassa1A.ogg",10
Sample,26590,0,"d_tmb03.ogg",10
Sample,26704,0,"d_tmb10.ogg",10
Sample,26704,0,"d_sh12.ogg",10
Sample,26704,0,"d_pc12.ogg",10
Sample,26704,0,"bassb2G.ogg",10
Sample,26742,0,"d_ht25.ogg",10
Sample,26818,0,"d_tmb03.ogg",10
Sample,26818,0,"d_sh13.ogg",10
Sample,26818,0,"d_ht26.ogg",10
Sample,26931,0,"bassa1A.ogg",10
Sample,26931,0,"d_sh14.ogg",10
Sample,26931,0,"d_tmb04.ogg",10
Sample,26969,0,"d_ht27.ogg",10
Sample,27045,0,"bassb2F.ogg",10
Sample,27045,0,"d_ht03.ogg",10
Sample,27045,0,"d_tmb03.ogg",10
Sample,27045,0,"d_sh17.ogg",10
Sample,27045,0,"d_pc13.ogg",10
Sample,27045,0,"p2-02.ogg",10
Sample,27159,0,"d_sh14.ogg",10
Sample,27159,0,"p2-03.ogg",10
Sample,27159,0,"d_tmb04.ogg",10
Sample,27196,0,"d_ht29.ogg",10
Sample,27272,0,"d_ht01.ogg",10
Sample,27272,0,"d_sh01.ogg",10
Sample,27272,0,"d_tmb01.ogg",10
Sample,27272,0,"tb_1A.ogg",10
Sample,27272,0,"p2-04.ogg",10
Sample,27272,0,"d_pc01.ogg",10
Sample,27272,0,"bassb1A.ogg",10
Sample,27386,0,"d_sh02.ogg",10
Sample,27424,0,"d_ht02.ogg",10
Sample,27499,0,"d_ht03.ogg",10
Sample,27499,0,"bassa1A.ogg",10
Sample,27499,0,"d_sh03.ogg",10
Sample,27499,0,"d_tmb02.ogg",10
Sample,27613,0,"d_pc02.ogg",10
Sample,27613,0,"bassb2E.ogg",10
Sample,27613,0,"d_sh02.ogg",10
Sample,27613,0,"d_tmb03.ogg",10
Sample,27651,0,"d_ht04.ogg",10
Sample,27727,0,"d_ht05.ogg",10
Sample,27727,0,"d_sh03.ogg",10
Sample,27727,0,"d_tmb10.ogg",10
Sample,27840,0,"d_sh06.ogg",10
Sample,27840,0,"d_tmb03.ogg",10
Sample,27954,0,"d_sh01.ogg",10
Sample,27954,0,"d_tmb04.ogg",10
Sample,27954,0,"d_ht03.ogg",10
Sample,27954,0,"d_pc03.ogg",10
Sample,28068,0,"d_tmb03.ogg",10
Sample,28068,0,"d_sh02.ogg",10
Sample,28106,0,"d_ht07.ogg",10
Sample,28106,0,"d_bd05.ogg",10
Sample,28181,0,"d_tmb04.ogg",10
Sample,28181,0,"d_ht08.ogg",10
Sample,28181,0,"d_sh03.ogg",10
Sample,28295,0,"d_pc04.ogg",10
Sample,28295,0,"bassa2E.ogg",10
Sample,28295,0,"d_tmb01.ogg",10
Sample,28295,0,"d_sh02.ogg",10
Sample,28409,0,"d_tmb10.ogg",10
Sample,28409,0,"d_ht03.ogg",10
Sample,28409,0,"d_sh01.ogg",10
Sample,28522,0,"d_tmb04.ogg",10
Sample,28522,0,"d_sh12.ogg",10
Sample,28522,0,"d_pc05.ogg",10
Sample,28560,0,"d_ht04.ogg",10
Sample,28636,0,"bassb2D+.ogg",10
Sample,28636,0,"d_sh13.ogg",10
Sample,28636,0,"d_tmb03.ogg",10
Sample,28636,0,"d_ht05.ogg",10
Sample,28636,0,"d_pc06.ogg",10
Sample,28749,0,"d_tmb02.ogg",10
Sample,28749,0,"d_sh14.ogg",10
Sample,28787,0,"d_ht12.ogg",10
Sample,28863,0,"d_pc07.ogg",10
Sample,28863,0,"d_ht03.ogg",10
Sample,28863,0,"d_tmb03.ogg",10
Sample,28863,0,"bassb2D.ogg",10
Sample,28863,0,"d_sh01.ogg",10
Sample,28977,0,"d_sh02.ogg",10
Sample,28977,0,"d_tmb04.ogg",10
Sample,29015,0,"d_ht12.ogg",10
Sample,29090,0,"d_tmb02.ogg",10
Sample,29090,0,"d_pc08.ogg",10
Sample,29090,0,"p2-05.ogg",10
Sample,29090,0,"d_ht01.ogg",10
Sample,29090,0,"tb_1A.ogg",10
Sample,29090,0,"d_sh17.ogg",10
Sample,29090,0,"bassb2C+.ogg",10
Sample,29204,0,"d_tmb03.ogg",10
Sample,29204,0,"d_sh12.ogg",10
Sample,29242,0,"d_ht02.ogg",10
Sample,29318,0,"bassa2C+.ogg",10
Sample,29318,0,"d_ht03.ogg",10
Sample,29318,0,"d_tmb04.ogg",10
Sample,29318,0,"d_sh13.ogg",10
Sample,29431,0,"d_tmb02.ogg",10
Sample,29431,0,"bassb2F+.ogg",10
Sample,29431,0,"d_sh14.ogg",10
Sample,29431,0,"d_pc09.ogg",10
Sample,29469,0,"d_ht04.ogg",10
Sample,29545,0,"d_tmb03.ogg",10
Sample,29545,0,"d_sh03.ogg",10
Sample,29545,0,"d_ht05.ogg",10
Sample,29659,0,"d_sh02.ogg",10
Sample,29659,0,"d_tmb10.ogg",10
Sample,29772,0,"bassb1A.ogg",10
Sample,29772,0,"d_sh01.ogg",10
Sample,29772,0,"d_tmb01.ogg",10
Sample,29772,0,"d_pc10.ogg",10
Sample,29772,0,"d_ht03.ogg",10
Sample,29772,0,"pb02.ogg",10
Sample,29886,0,"d_tmb03.ogg",10
Sample,29886,0,"d_sh12.ogg",10
Sample,29924,0,"d_ht07.ogg",10
Sample,29924,0,"d_bd05.ogg",10
Sample,29999,0,"d_sh13.ogg",10
Sample,29999,0,"bassb1G+.ogg",10
Sample,29999,0,"d_tmb04.ogg",10
Sample,29999,0,"d_ht08.ogg",10
Sample,29999,0,"d_pc11.ogg",10
Sample,30113,0,"d_tmb03.ogg",10
Sample,30113,0,"d_sh14.ogg",10
Sample,30151,0,"d_ht12.ogg",10
Sample,30227,0,"d_ht03.ogg",10
Sample,30227,0,"bassb2G.ogg",10
Sample,30227,0,"d_tmb10.ogg",10
Sample,30227,0,"d_sh17.ogg",10
Sample,30340,0,"d_pc12.ogg",10
Sample,30340,0,"d_sh12.ogg",10
Sample,30340,0,"d_tmb03.ogg",10
Sample,30378,0,"d_ht25.ogg",10
Sample,30454,0,"bassb1G+.ogg",10
Sample,30454,0,"p2-06.ogg",10
Sample,30454,0,"d_tmb10.ogg",10
Sample,30454,0,"d_sh13.ogg",10
Sample,30454,0,"d_ht26.ogg",10
Sample,30568,0,"d_tmb03.ogg",10
Sample,30568,0,"d_sh14.ogg",10
Sample,30568,0,"pb02.ogg",10
Sample,30606,0,"d_ht27.ogg",10
Sample,30681,0,"d_tmb01.ogg",10
Sample,30681,0,"bassb2G+.ogg",10
Sample,30681,0,"d_pc13.ogg",10
Sample,30681,0,"d_sh17.ogg",10
Sample,30681,0,"d_ht03.ogg",10
Sample,30681,0,"brs_1D+.ogg",100
Sample,30795,0,"d_sh14.ogg",10
Sample,30833,0,"d_ht29.ogg",10
Sample,30909,0,"d_tmb01.ogg",10
Sample,30909,0,"bassb1A.ogg",10
Sample,30909,0,"d_ht01.ogg",10
Sample,30909,0,"tb_2C+.ogg",10
Sample,30909,0,"ogp01.ogg",10
Sample,30909,0,"d_pc01.ogg",10
Sample,30909,0,"brs_2E.ogg",100
Sample,30909,0,"alpl2C+.ogg",10
Sample,30909,0,"d_bd01.ogg",10
Sample,30909,0,"d_sh01.ogg",10
Sample,31022,0,"d_sh02.ogg",10
Sample,31022,0,"d_tmb03.ogg",10
Sample,31022,0,"alpl3C+.ogg",10
Sample,31060,0,"d_ht02.ogg",10
Sample,31136,0,"alpl1C+.ogg",10
Sample,31136,0,"d_sh03.ogg",10
Sample,31136,0,"bassa1A.ogg",10
Sample,31136,0,"d_tmb04.ogg",10
Sample,31136,0,"d_bd02.ogg",10
Sample,31136,0,"d_ht03.ogg",10
Sample,31249,0,"alpl1F+.ogg",10
Sample,31249,0,"d_sh02.ogg",10
Sample,31249,0,"d_tmb03.ogg",10
Sample,31249,0,"bassb2A.ogg",10
Sample,31249,0,"d_pc02.ogg",10
Sample,31287,0,"d_ht04.ogg",10
Sample,31363,0,"d_ht05.ogg",10
Sample,31363,0,"d_tmb04.ogg",10
Sample,31363,0,"d_sh03.ogg",10
Sample,31363,0,"alpl2F+.ogg",10
Sample,31363,0,"d_rdmclp.ogg",10
Sample,31363,0,"d_bd01.ogg",10
Sample,31477,0,"d_sh06.ogg",10
Sample,31477,0,"d_tmb03.ogg",10
Sample,31477,0,"alpl2C+.ogg",10
Sample,31590,0,"d_bd04.ogg",10
Sample,31590,0,"d_sh01.ogg",10
Sample,31590,0,"d_ht03.ogg",10
Sample,31590,0,"alpl1C+.ogg",10
Sample,31590,0,"d_pc03.ogg",10
Sample,31590,0,"d_tmb04.ogg",10
Sample,31704,0,"d_sh02.ogg",10
Sample,31704,0,"alpl2C+.ogg",10
Sample,31704,0,"d_tmb02l.ogg",10
Sample,31742,0,"d_bd05.ogg",10
Sample,31742,0,"d_ht07.ogg",10
Sample,31818,0,"alpl1C+.ogg",10
Sample,31818,0,"d_ht08.ogg",10
Sample,31818,0,"d_bd06.ogg",10
Sample,31818,0,"d_sh03.ogg",10
Sample,31931,0,"d_pc04.ogg",10
Sample,31931,0,"d_sh02.ogg",10
Sample,31931,0,"alpl2E.ogg",10
Sample,31931,0,"d_tmb10.ogg",10
Sample,32045,0,"d_tmb04.ogg",10
Sample,32045,0,"bassa1A.ogg",10
Sample,32045,0,"d_ht03.ogg",10
Sample,32045,0,"d_sh01.ogg",10
Sample,32045,0,"d_bd07.ogg",10
Sample,32045,0,"alpl2C+.ogg",10
Sample,32159,0,"d_pc05.ogg",10
Sample,32159,0,"alpl2E.ogg",10
Sample,32159,0,"d_tmb02.ogg",10
Sample,32159,0,"d_sh12.ogg",10
Sample,32196,0,"d_ht04.ogg",10
Sample,32272,0,"d_pc06.ogg",10
Sample,32272,0,"alpl1C+.ogg",10
Sample,32272,0,"d_bd06.ogg",10
Sample,32272,0,"d_sh13.ogg",10
Sample,32272,0,"d_tmb03.ogg",10
Sample,32272,0,"d_rdmclp.ogg",10
Sample,32272,0,"d_ht05.ogg",10
Sample,32386,0,"d_tmb04.ogg",10
Sample,32386,0,"alpl2C+.ogg",10
Sample,32386,0,"bassb1A.ogg",10
Sample,32386,0,"d_sh14.ogg",10
Sample,32424,0,"d_ht12.ogg",10
Sample,32499,0,"d_bd09.ogg",10
Sample,32499,0,"alpl2F+.ogg",10
Sample,32499,0,"d_sh01.ogg",10
Sample,32499,0,"d_ht03.ogg",10
Sample,32499,0,"d_tmb02.ogg",10
Sample,32499,0,"d_pc07.ogg",10
Sample,32613,0,"d_sh02.ogg",10
Sample,32613,0,"alpl3C+.ogg",10
Sample,32651,0,"d_ht12.ogg",10
Sample,32727,0,"bassb1A.ogg",10
Sample,32727,0,"tb_2C+.ogg",10
Sample,32727,0,"d_tmb03.ogg",10
Sample,32727,0,"d_ht01.ogg",10
Sample,32727,0,"ogp02.ogg",10
Sample,32727,0,"alpl2C+.ogg",10
Sample,32727,0,"d_bd01.ogg",10
Sample,32727,0,"d_sh17.ogg",10
Sample,32727,0,"d_pc08.ogg",10
Sample,32840,0,"d_tmb04.ogg",10
Sample,32840,0,"d_sh12.ogg",10
Sample,32840,0,"alpl3C+.ogg",10
Sample,32878,0,"d_ht02.ogg",10
Sample,32954,0,"bassa1A.ogg",10
Sample,32954,0,"d_tmb01.ogg",10
Sample,32954,0,"d_ht03.ogg",10
Sample,32954,0,"d_bd02.ogg",10
Sample,32954,0,"d_sh13.ogg",10
Sample,32954,0,"alpl1C+.ogg",10
Sample,33068,0,"bassb2A.ogg",10
Sample,33068,0,"alpl1F+.ogg",10
Sample,33068,0,"d_tmb03.ogg",10
Sample,33068,0,"d_sh14.ogg",10
Sample,33068,0,"d_pc09.ogg",10
Sample,33106,0,"d_ht04.ogg",10
Sample,33181,0,"d_tmb04.ogg",10
Sample,33181,0,"d_ht05.ogg",10
Sample,33181,0,"d_sh03.ogg",10
Sample,33181,0,"d_bd01.ogg",10
Sample,33181,0,"d_rdmclp.ogg",10
Sample,33181,0,"alpl2F+.ogg",10
Sample,33295,0,"d_sh02.ogg",10
Sample,33295,0,"alpl2C+.ogg",10
Sample,33295,0,"d_tmb02.ogg",10
Sample,33409,0,"d_ht03.ogg",10
Sample,33409,0,"d_sh01.ogg",10
Sample,33409,0,"d_tmb03.ogg",10
Sample,33409,0,"bassa1A.ogg",10
Sample,33409,0,"d_pc10.ogg",10
Sample,33409,0,"alpl1C+.ogg",10
Sample,33409,0,"d_bd04.ogg",10
Sample,33522,0,"alpl2C+.ogg",10
Sample,33522,0,"bassa1A.ogg",10
Sample,33522,0,"d_sh12.ogg",10
Sample,33522,0,"d_tmb10.ogg",10
Sample,33560,0,"d_ht07.ogg",10
Sample,33560,0,"d_bd05.ogg",10
Sample,33636,0,"alpl1C+.ogg",10
Sample,33636,0,"bassb2G.ogg",10
Sample,33636,0,"d_sh13.ogg",10
Sample,33636,0,"d_tmb02l.ogg",10
Sample,33636,0,"d_pc11.ogg",10
Sample,33636,0,"d_bd06.ogg",10
Sample,33636,0,"d_ht08.ogg",10
Sample,33749,0,"d_sh14.ogg",10
Sample,33749,0,"alpl2E.ogg",10
Sample,33787,0,"d_ht12.ogg",10
Sample,33863,0,"d_tmb03.ogg",10
Sample,33863,0,"d_bd07.ogg",10
Sample,33863,0,"alpl2C+.ogg",10
Sample,33863,0,"d_sh17.ogg",10
Sample,33863,0,"d_ht03.ogg",10
Sample,33863,0,"bassa1A.ogg",10
Sample,33977,0,"d_sh12.ogg",10
Sample,33977,0,"d_pc12.ogg",10
Sample,33977,0,"d_tmb04.ogg",10
Sample,33977,0,"bassb2F+.ogg",10
Sample,33977,0,"alpl2E.ogg",10
Sample,34015,0,"d_ht25.ogg",10
Sample,34090,0,"d_rdmclp.ogg",10
Sample,34090,0,"alpl1C+.ogg",10
Sample,34090,0,"d_sh13.ogg",10
Sample,34090,0,"d_bd06.ogg",10
Sample,34090,0,"d_tmb03.ogg",10
Sample,34090,0,"d_ht26.ogg",10
Sample,34204,0,"alpl2C+.ogg",10
Sample,34204,0,"bassa1A.ogg",10
Sample,34204,0,"d_sh14.ogg",10
Sample,34204,0,"d_tmb04.ogg",10
Sample,34242,0,"d_ht27.ogg",10
Sample,34318,0,"d_bd09.ogg",10
Sample,34318,0,"d_sh17.ogg",10
Sample,34318,0,"alpl2F+.ogg",10
Sample,34318,0,"d_ht03.ogg",10
Sample,34318,0,"bassb2E.ogg",10
Sample,34318,0,"d_tmb03.ogg",10
Sample,34318,0,"d_pc13.ogg",10
Sample,34431,0,"d_tmb10.ogg",10
Sample,34431,0,"alpl3C+.ogg",10
Sample,34431,0,"d_sh14.ogg",10
Sample,34469,0,"d_ht29.ogg",10
Sample,34545,0,"alpl2C+.ogg",10
Sample,34545,0,"d_bd01.ogg",10
Sample,34545,0,"bassb1A.ogg",10
Sample,34545,0,"d_pc01.ogg",10
Sample,34545,0,"ogp03.ogg",10
Sample,34545,0,"d_tmb02.ogg",10
Sample,34545,0,"d_ht01.ogg",10
Sample,34545,0,"tb_2C+.ogg",10
Sample,34545,0,"d_sh01.ogg",10
Sample,34659,0,"alpl3C+.ogg",10
Sample,34659,0,"d_sh02.ogg",10
Sample,34659,0,"d_tmb03.ogg",10
Sample,34696,0,"d_ht02.ogg",10
Sample,34772,0,"d_ht03.ogg",10
Sample,34772,0,"bassa1A.ogg",10
Sample,34772,0,"d_sh03.ogg",10
Sample,34772,0,"d_tmb04.ogg",10
Sample,34772,0,"d_bd02.ogg",10
Sample,34772,0,"alpl1C+.ogg",10
Sample,34886,0,"alpl1F+.ogg",10
Sample,34886,0,"d_pc02.ogg",10
Sample,34886,0,"d_sh02.ogg",10
Sample,34886,0,"d_tmb03.ogg",10
Sample,34886,0,"bassb2A.ogg",10
Sample,34924,0,"d_ht04.ogg",10
Sample,34999,0,"d_ht05.ogg",10
Sample,34999,0,"d_sh03.ogg",10
Sample,34999,0,"d_tmb04.ogg",10
Sample,34999,0,"d_rdmclp.ogg",10
Sample,34999,0,"alpl2F+.ogg",10
Sample,34999,0,"d_bd01.ogg",10
Sample,35113,0,"d_tmb03.ogg",10
Sample,35113,0,"d_sh06.ogg",10
Sample,35113,0,"alpl2C+.ogg",10
Sample,35227,0,"d_pc03.ogg",10
Sample,35227,0,"d_bd04.ogg",10
Sample,35227,0,"d_sh01.ogg",10
Sample,35227,0,"d_tmb10.ogg",10
Sample,35227,0,"d_ht03.ogg",10
Sample,35227,0,"alpl1C+.ogg",10
Sample,35340,0,"d_tmb02.ogg",10
Sample,35340,0,"d_sh02.ogg",10
Sample,35340,0,"alpl2C+.ogg",10
Sample,35378,0,"d_bd05.ogg",10
Sample,35378,0,"d_ht07.ogg",10
Sample,35454,0,"alpl1C+.ogg",10
Sample,35454,0,"d_tmb03.ogg",10
Sample,35454,0,"d_bd06.ogg",10
Sample,35454,0,"d_sh03.ogg",10
Sample,35454,0,"d_ht08.ogg",10
Sample,35568,0,"d_pc04.ogg",10
Sample,35568,0,"alpl2E.ogg",10
Sample,35568,0,"d_tmb04.ogg",10
Sample,35568,0,"d_sh02.ogg",10
Sample,35681,0,"d_bd07.ogg",10
Sample,35681,0,"d_sh01.ogg",10
Sample,35681,0,"alpl2C+.ogg",10
Sample,35681,0,"d_ht03.ogg",10
Sample,35681,0,"bassa1A.ogg",10
Sample,35681,0,"d_tmb03.ogg",10
Sample,35795,0,"d_tmb02.ogg",10
Sample,35795,0,"d_sh12.ogg",10
Sample,35795,0,"d_pc05.ogg",10
Sample,35795,0,"alpl2E.ogg",10
Sample,35833,0,"d_ht04.ogg",10
Sample,35909,0,"d_sh13.ogg",10
Sample,35909,0,"d_rdmclp.ogg",10
Sample,35909,0,"d_ht05.ogg",10
Sample,35909,0,"d_tmb03.ogg",10
Sample,35909,0,"d_bd06.ogg",10
Sample,35909,0,"alpl1C+.ogg",10
Sample,35909,0,"d_pc06.ogg",10
Sample,36022,0,"alpl2C+.ogg",10
Sample,36022,0,"d_sh14.ogg",10
Sample,36022,0,"bassb1A.ogg",10
Sample,36022,0,"d_tmb04.ogg",10
Sample,36060,0,"d_ht12.ogg",10
Sample,36136,0,"d_sh01.ogg",10
Sample,36136,0,"d_tmb03.ogg",10
Sample,36136,0,"d_pc07.ogg",10
Sample,36136,0,"alpl2F+.ogg",10
Sample,36136,0,"d_ht03.ogg",10
Sample,36136,0,"d_bd09.ogg",10
Sample,36249,0,"d_sh02.ogg",10
Sample,36249,0,"alpl3C+.ogg",10
Sample,36249,0,"d_tmb10.ogg",10
Sample,36287,0,"d_ht12.ogg",10
Sample,36363,0,"d_sh17.ogg",10
Sample,36363,0,"ogp04.ogg",10
Sample,36363,0,"d_ht01.ogg",10
Sample,36363,0,"d_pc08.ogg",10
Sample,36363,0,"d_bd01.ogg",10
Sample,36363,0,"d_tmb03.ogg",10
Sample,36363,0,"tb_2C+.ogg",10
Sample,36363,0,"alpl2C+.ogg",10
Sample,36363,0,"bassb1A.ogg",10
Sample,36477,0,"d_tmb04.ogg",10
Sample,36477,0,"d_sh12.ogg",10
Sample,36477,0,"alpl3C+.ogg",10
Sample,36515,0,"d_ht02.ogg",10
Sample,36590,0,"bassa1A.ogg",10
Sample,36590,0,"d_tmb01.ogg",10
Sample,36590,0,"d_ht03.ogg",10
Sample,36590,0,"d_bd02.ogg",10
Sample,36590,0,"d_sh13.ogg",10
Sample,36590,0,"alpl1C+.ogg",10
Sample,36704,0,"d_pc09.ogg",10
Sample,36704,0,"d_sh14.ogg",10
Sample,36704,0,"alpl1F+.ogg",10
Sample,36704,0,"bassb2A.ogg",10
Sample,36704,0,"d_tmb04.ogg",10
Sample,36742,0,"d_ht04.ogg",10
Sample,36818,0,"d_tmb03.ogg",10
Sample,36818,0,"d_bd01.ogg",10
Sample,36818,0,"alpl2F+.ogg",10
Sample,36818,0,"d_ht05.ogg",10
Sample,36818,0,"d_rdmclp.ogg",10
Sample,36818,0,"d_sh03.ogg",10
Sample,36931,0,"d_tmb02.ogg",10
Sample,36931,0,"alpl2C+.ogg",10
Sample,36931,0,"d_sh02.ogg",10
Sample,37045,0,"d_ht03.ogg",10
Sample,37045,0,"d_bd04.ogg",10
Sample,37045,0,"d_tmb03.ogg",10
Sample,37045,0,"alpl1C+.ogg",10
Sample,37045,0,"bassa1A.ogg",10
Sample,37045,0,"d_sh01.ogg",10
Sample,37045,0,"d_pc10.ogg",10
Sample,37159,0,"d_tmb04.ogg",10
Sample,37159,0,"alpl2C+.ogg",10
Sample,37159,0,"bassa1A.ogg",10
Sample,37159,0,"d_sh12.ogg",10
Sample,37196,0,"d_bd05.ogg",10
Sample,37196,0,"d_ht07.ogg",10
Sample,37272,0,"bassb2G.ogg",10
Sample,37272,0,"d_pc11.ogg",10
Sample,37272,0,"d_sh13.ogg",10
Sample,37272,0,"d_bd06.ogg",10
Sample,37272,0,"alpl1C+.ogg",10
Sample,37272,0,"d_tmb03.ogg",10
Sample,37272,0,"d_ht08.ogg",10
Sample,37386,0,"alpl2E.ogg",10
Sample,37386,0,"d_tmb04.ogg",10
Sample,37386,0,"d_sh14.ogg",10
Sample,37424,0,"d_ht12.ogg",10
Sample,37499,0,"d_sh17.ogg",10
Sample,37499,0,"bassa1A.ogg",10
Sample,37499,0,"d_ht03.ogg",10
Sample,37499,0,"d_bd07.ogg",10
Sample,37499,0,"d_tmb02.ogg",10
Sample,37499,0,"alpl2C+.ogg",10
Sample,37613,0,"d_sh12.ogg",10
Sample,37613,0,"bassb2F+.ogg",10
Sample,37613,0,"alpl2E.ogg",10
Sample,37613,0,"d_tmb10.ogg",10
Sample,37613,0,"d_pc12.ogg",10
Sample,37651,0,"d_ht25.ogg",10
Sample,37727,0,"d_sh13.ogg",10
Sample,37727,0,"d_rdmclp.ogg",10
Sample,37727,0,"d_tmb03.ogg",10
Sample,37727,0,"d_bd06.ogg",10
Sample,37727,0,"alpl1C+.ogg",10
Sample,37727,0,"d_ht26.ogg",10
Sample,37840,0,"d_sh14.ogg",10
Sample,37840,0,"bassa1A.ogg",10
Sample,37840,0,"d_tmb01.ogg",10
Sample,37840,0,"alpl2G+.ogg",10
Sample,37878,0,"d_ht27.ogg",10
Sample,37954,0,"d_tmb03.ogg",10
Sample,37954,0,"bassb2E.ogg",10
Sample,37954,0,"d_pc13.ogg",10
Sample,37954,0,"d_ht03.ogg",10
Sample,37954,0,"alpl2C+.ogg",10
Sample,37954,0,"d_bd09.ogg",10
Sample,37954,0,"d_sh17.ogg",10
Sample,38068,0,"d_tmb04.ogg",10
Sample,38068,0,"alpl1C+.ogg",10
Sample,38068,0,"d_sh14.ogg",10
Sample,38106,0,"d_ht29.ogg",10
Sample,38181,0,"alprD4.ogg",10
Sample,38181,0,"d_bd01.ogg",10
Sample,38181,0,"d_sh01.ogg",10
Sample,38181,0,"alpl1A.ogg",10
Sample,38181,0,"tb_1A.ogg",10
Sample,38181,0,"d_ht01.ogg",10
Sample,38181,0,"d_tmb02.ogg",10
Sample,38181,0,"bassb2C+.ogg",10
Sample,38181,0,"d_pc01.ogg",10
Sample,38257,0,"alprA3.ogg",10
Sample,38295,0,"d_sh02.ogg",10
Sample,38295,0,"alpl2A.ogg",10
Sample,38295,0,"d_tmb03.ogg",10
Sample,38333,0,"d_ht02.ogg",10
Sample,38333,0,"alprF3+.ogg",10
Sample,38409,0,"alpl0A.ogg",10
Sample,38409,0,"alprD3.ogg",10
Sample,38409,0,"d_ht03.ogg",10
Sample,38409,0,"d_sh03.ogg",10
Sample,38409,0,"d_bd02.ogg",10
Sample,38409,0,"bassa2C+.ogg",10
Sample,38409,0,"d_tmb04.ogg",10
Sample,38484,0,"alprA2.ogg",10
Sample,38522,0,"alpl1E.ogg",10
Sample,38522,0,"d_tmb03.ogg",10
Sample,38522,0,"d_pc02.ogg",10
Sample,38522,0,"bassb2F+.ogg",10
Sample,38522,0,"d_sh02.ogg",10
Sample,38560,0,"d_ht04.ogg",10
Sample,38560,0,"alprF2+.ogg",10
Sample,38636,0,"d_ht05.ogg",10
Sample,38636,0,"d_bd01.ogg",10
Sample,38636,0,"alprD2.ogg",10
Sample,38636,0,"d_rdmclp.ogg",10
Sample,38636,0,"alpl1B.ogg",10
Sample,38636,0,"d_sh03.ogg",10
Sample,38712,0,"alprF2+.ogg",10
Sample,38749,0,"d_sh06.ogg",10
Sample,38749,0,"alpl1A.ogg",10
Sample,38749,0,"d_tmb04.ogg",10
Sample,38787,0,"alprA2.ogg",10
Sample,38863,0,"d_pc03.ogg",10
Sample,38863,0,"d_ht03.ogg",10
Sample,38863,0,"d_sh01.ogg",10
Sample,38863,0,"alpl0A.ogg",10
Sample,38863,0,"d_tmb03.ogg",10
Sample,38863,0,"d_bd04.ogg",10
Sample,38863,0,"alprD3.ogg",10
Sample,38939,0,"alprF3+.ogg",10
Sample,38977,0,"d_sh02.ogg",10
Sample,38977,0,"d_tmb02l.ogg",10
Sample,38977,0,"alpl1A.ogg",10
Sample,39015,0,"d_ht07.ogg",10
Sample,39015,0,"alprA3.ogg",10
Sample,39015,0,"d_bd05.ogg",10
Sample,39090,0,"alprD4.ogg",10
Sample,39090,0,"d_sh03.ogg",10
Sample,39090,0,"alpl0A.ogg",10
Sample,39090,0,"d_bd06.ogg",10
Sample,39090,0,"d_ht08.ogg",10
Sample,39166,0,"alprF4+.ogg",10
Sample,39204,0,"d_sh02.ogg",10
Sample,39204,0,"d_pc04.ogg",10
Sample,39204,0,"alpl1B.ogg",10
Sample,39204,0,"d_tmb10.ogg",10
Sample,39242,0,"alprA4.ogg",10
Sample,39318,0,"d_ht03.ogg",10
Sample,39318,0,"d_tmb04.ogg",10
Sample,39318,0,"alprD5.ogg",10
Sample,39318,0,"alpl1A.ogg",10
Sample,39318,0,"bassa1A.ogg",10
Sample,39318,0,"d_sh01.ogg",10
Sample,39318,0,"d_bd07.ogg",10
Sample,39393,0,"alprF5+.ogg",10
Sample,39431,0,"d_pc05.ogg",10
Sample,39431,0,"alpl2C+.ogg",10
Sample,39431,0,"d_tmb02.ogg",10
Sample,39431,0,"d_sh12.ogg",10
Sample,39469,0,"alprA5.ogg",10
Sample,39469,0,"d_ht04.ogg",10
Sample,39545,0,"d_pc06.ogg",10
Sample,39545,0,"d_rdmclp.ogg",10
Sample,39545,0,"d_sh13.ogg",10
Sample,39545,0,"d_bd06.ogg",10
Sample,39545,0,"alprD6.ogg",10
Sample,39545,0,"d_ht05.ogg",10
Sample,39545,0,"d_tmb03.ogg",10
Sample,39545,0,"alpl0A.ogg",10
Sample,39621,0,"alprA5.ogg",10
Sample,39659,0,"bassb1A.ogg",10
Sample,39659,0,"alpl1B.ogg",10
Sample,39659,0,"d_sh14.ogg",10
Sample,39659,0,"d_tmb04.ogg",10
Sample,39696,0,"alprF5+.ogg",10
Sample,39696,0,"d_ht12.ogg",10
Sample,39772,0,"d_ht03.ogg",10
Sample,39772,0,"alprD5.ogg",10
Sample,39772,0,"alpl2E.ogg",10
Sample,39772,0,"d_tmb02.ogg",10
Sample,39772,0,"d_pc07.ogg",10
Sample,39772,0,"d_bd09.ogg",10
Sample,39772,0,"d_sh01.ogg",10
Sample,39848,0,"alprA4.ogg",10
Sample,39886,0,"alpl2A.ogg",10
Sample,39886,0,"d_sh02.ogg",10
Sample,39924,0,"alprF4+.ogg",10
Sample,39924,0,"d_ht12.ogg",10
Sample,39999,0,"d_roll012.ogg",10
Sample,39999,0,"d_pc08.ogg",10
Sample,39999,0,"tb_1A.ogg",10
Sample,39999,0,"alpl1A.ogg",10
Sample,39999,0,"alprC4+.ogg",10
Sample,39999,0,"d_ht01.ogg",10
Sample,39999,0,"d_bd01.ogg",10
Sample,39999,0,"d_sh17.ogg",10
Sample,39999,0,"bassb1A.ogg",10
Sample,39999,0,"d_tmb03.ogg",10
Sample,40075,0,"alprA3.ogg",10
Sample,40113,0,"d_tmb04.ogg",10
Sample,40113,0,"alpl2A.ogg",10
Sample,40113,0,"d_sh12.ogg",10
Sample,40113,0,"d_roll012.ogg",10
Sample,40151,0,"alprF3+.ogg",10
Sample,40151,0,"d_ht02.ogg",10
Sample,40227,0,"d_roll012.ogg",10
Sample,40227,0,"d_bd02.ogg",10
Sample,40227,0,"d_sh13.ogg",10
Sample,40227,0,"bassa1A.ogg",10
Sample,40227,0,"alprC3+.ogg",10
Sample,40227,0,"d_ht03.ogg",10
Sample,40227,0,"d_tmb02.ogg",10
Sample,40227,0,"alpl0A.ogg",10
Sample,40303,0,"alprA2.ogg",10
Sample,40340,0,"d_roll012.ogg",10
Sample,40340,0,"d_pc09.ogg",10
Sample,40340,0,"alpl1E.ogg",10
Sample,40340,0,"bassb2F+.ogg",10
Sample,40340,0,"d_tmb03.ogg",10
Sample,40340,0,"d_sh14.ogg",10
Sample,40378,0,"alprF2+.ogg",10
Sample,40378,0,"d_ht04.ogg",10
Sample,40454,0,"alpl1B.ogg",10
Sample,40454,0,"d_rdmclp.ogg",10
Sample,40454,0,"alprC2+.ogg",10
Sample,40454,0,"d_roll024.ogg",10
Sample,40454,0,"d_tmb10.ogg",10
Sample,40454,0,"d_sh03.ogg",10
Sample,40454,0,"d_ht05.ogg",10
Sample,40454,0,"d_bd01.ogg",10
Sample,40530,0,"alprF2+.ogg",10
Sample,40568,0,"d_sh02.ogg",10
Sample,40568,0,"d_roll024.ogg",10
Sample,40568,0,"d_tmb01.ogg",10
Sample,40568,0,"alpl1A.ogg",10
Sample,40606,0,"alprA2.ogg",10
Sample,40681,0,"alprC3+.ogg",10
Sample,40681,0,"d_sh01.ogg",10
Sample,40681,0,"bassa2C+.ogg",10
Sample,40681,0,"d_tmb03.ogg",10
Sample,40681,0,"d_ht03.ogg",10
Sample,40681,0,"alpl0A.ogg",10
Sample,40681,0,"d_pc10.ogg",10
Sample,40681,0,"d_bd04.ogg",10
Sample,40681,0,"d_roll024.ogg",10
Sample,40757,0,"alprF3+.ogg",10
Sample,40795,0,"d_roll024.ogg",10
Sample,40795,0,"d_sh12.ogg",10
Sample,40795,0,"alpl1A.ogg",10
Sample,40795,0,"d_tmb04.ogg",10
Sample,40795,0,"bassa2C+.ogg",10
Sample,40833,0,"alprA3.ogg",10
Sample,40833,0,"d_bd05.ogg",10
Sample,40833,0,"d_ht07.ogg",10
Sample,40909,0,"bassb2E.ogg",10
Sample,40909,0,"alprA1.ogg",10
Sample,40909,0,"d_roll036.ogg",10
Sample,40909,0,"d_bd06.ogg",10
Sample,40909,0,"d_ht08.ogg",10
Sample,40909,0,"d_tmb02l.ogg",10
Sample,40909,0,"d_sh13.ogg",10
Sample,40909,0,"alpl0A.ogg",10
Sample,40909,0,"d_pc11.ogg",10
Sample,40984,0,"alprC2+.ogg",10
Sample,41022,0,"alpl1B.ogg",10
Sample,41022,0,"d_sh14.ogg",10
Sample,41022,0,"d_roll036.ogg",10
Sample,41060,0,"d_ht12.ogg",10
Sample,41060,0,"alprF2+.ogg",10
Sample,41136,0,"d_bd07.ogg",10
Sample,41136,0,"d_ht03.ogg",10
Sample,41136,0,"bassa2C+.ogg",10
Sample,41136,0,"d_roll036.ogg",10
Sample,41136,0,"d_tmb03.ogg",10
Sample,41136,0,"alprA2.ogg",10
Sample,41136,0,"d_sh17.ogg",10
Sample,41136,0,"alpl1A.ogg",10
Sample,41212,0,"alprC3+.ogg",10
Sample,41249,0,"d_pc12.ogg",10
Sample,41249,0,"d_sh12.ogg",10
Sample,41249,0,"alpl2C+.ogg",10
Sample,41249,0,"d_tmb10.ogg",10
Sample,41249,0,"bassb2D+.ogg",10
Sample,41249,0,"d_roll036.ogg",10
Sample,41287,0,"d_ht25.ogg",10
Sample,41287,0,"alprF3+.ogg",10
Sample,41363,0,"alprA3.ogg",10
Sample,41363,0,"d_rdmclp.ogg",10
Sample,41363,0,"d_sh13.ogg",10
Sample,41363,0,"alpl0A.ogg",10
Sample,41363,0,"d_tmb03.ogg",10
Sample,41363,0,"d_bd06.ogg",10
Sample,41363,0,"d_roll048.ogg",10
Sample,41363,0,"d_ht26.ogg",10
Sample,41439,0,"alprC4+.ogg",10
Sample,41477,0,"bassa2D.ogg",10
Sample,41477,0,"d_roll048.ogg",10
Sample,41477,0,"alpl1B.ogg",10
Sample,41477,0,"d_sh14.ogg",10
Sample,41477,0,"d_tmb04.ogg",10
Sample,41515,0,"alprF4+.ogg",10
Sample,41515,0,"d_ht27.ogg",10
Sample,41590,0,"d_roll048.ogg",10
Sample,41590,0,"d_pc13.ogg",10
Sample,41590,0,"d_bd09.ogg",10
Sample,41590,0,"d_ht03.ogg",10
Sample,41590,0,"bassb2C+.ogg",10
Sample,41590,0,"d_sh17.ogg",10
Sample,41590,0,"alpl2E.ogg",10
Sample,41590,0,"d_tmb03.ogg",10
Sample,41590,0,"alprA4.ogg",10
Sample,41666,0,"alprC5+.ogg",10
Sample,41704,0,"d_sh14.ogg",10
Sample,41704,0,"d_tmb04.ogg",10
Sample,41704,0,"d_roll048.ogg",10
Sample,41704,0,"alpl2A.ogg",10
Sample,41742,0,"alprF5+.ogg",10
Sample,41742,0,"d_ht29.ogg",10
Sample,41818,0,"bassb1B.ogg",10
Sample,41818,0,"d_sh01.ogg",10
Sample,41818,0,"d_bd01.ogg",10
Sample,41818,0,"d_tmb01.ogg",10
Sample,41818,0,"d_ht01.ogg",10
Sample,41818,0,"alpl1A.ogg",10
Sample,41818,0,"d_pc01.ogg",10
Sample,41818,0,"tb_1A.ogg",10
Sample,41818,0,"d_roll060.ogg",10
Sample,41818,0,"alprE5.ogg",10
Sample,41893,0,"alprB4.ogg",10
Sample,41931,0,"alpl2A.ogg",10
Sample,41931,0,"d_sh02.ogg",10
Sample,41931,0,"d_roll060.ogg",10
Sample,41969,0,"d_ht02.ogg",10
Sample,41969,0,"alprA4.ogg",10
Sample,42045,0,"bassa1B.ogg",10
Sample,42045,0,"d_tmb02.ogg",10
Sample,42045,0,"d_roll060.ogg",10
Sample,42045,0,"alprE4.ogg",10
Sample,42045,0,"d_bd02.ogg",10
Sample,42045,0,"fxp01.ogg",100
Sample,42045,0,"alpl0A.ogg",10
Sample,42045,0,"d_ht03.ogg",10
Sample,42045,0,"d_sh03.ogg",10
Sample,42121,0,"alprB3.ogg",10
Sample,42159,0,"alpl1E.ogg",10
Sample,42159,0,"d_tmb03.ogg",10
Sample,42159,0,"d_roll060.ogg",10
Sample,42159,0,"d_sh02.ogg",10
Sample,42159,0,"d_pc02.ogg",10
Sample,42159,0,"bassb2A.ogg",10
Sample,42196,0,"d_ht04.ogg",10
Sample,42196,0,"alprA3.ogg",10
Sample,42272,0,"alprE3.ogg",10
Sample,42272,0,"d_rdmclp.ogg",10
Sample,42272,0,"alpl1B.ogg",10
Sample,42272,0,"d_tmb10.ogg",10
Sample,42272,0,"d_roll072.ogg",10
Sample,42272,0,"d_bd01.ogg",10
Sample,42272,0,"d_ht05.ogg",10
Sample,42272,0,"d_sh03.ogg",10
Sample,42348,0,"alprB2.ogg",10
Sample,42386,0,"d_sh06.ogg",10
Sample,42386,0,"alpl1A.ogg",10
Sample,42386,0,"d_tmb03.ogg",10
Sample,42386,0,"d_roll072.ogg",10
Sample,42424,0,"alprA2.ogg",10
Sample,42499,0,"alpl0A.ogg",10
Sample,42499,0,"alprE2.ogg",10
Sample,42499,0,"d_tmb04.ogg",10
Sample,42499,0,"d_pc03.ogg",10
Sample,42499,0,"d_sh01.ogg",10
Sample,42499,0,"d_bd04.ogg",10
Sample,42499,0,"d_roll072.ogg",10
Sample,42499,0,"d_ht03.ogg",10
Sample,42575,0,"alprA2.ogg",10
Sample,42613,0,"d_roll072.ogg",10
Sample,42613,0,"d_tmb03.ogg",10
Sample,42613,0,"alpl1A.ogg",10
Sample,42613,0,"d_sh02.ogg",10
Sample,42651,0,"alprB2.ogg",10
Sample,42651,0,"d_bd05.ogg",10
Sample,42651,0,"d_ht07.ogg",10
Sample,42727,0,"d_bd06.ogg",10
Sample,42727,0,"alprE3.ogg",10
Sample,42727,0,"d_rollb084.ogg",10
Sample,42727,0,"d_ht08.ogg",10
Sample,42727,0,"d_tmb04.ogg",10
Sample,42727,0,"alpl0A.ogg",10
Sample,42727,0,"d_sh03.ogg",10
Sample,42803,0,"alprA3.ogg",10
Sample,42803,0,"d_rollb084.ogg",10
Sample,42840,0,"d_pc04.ogg",10
Sample,42840,0,"d_sh02.ogg",10
Sample,42840,0,"d_tmb01.ogg",10
Sample,42840,0,"alpl1B.ogg",10
Sample,42878,0,"alprB3.ogg",10
Sample,42878,0,"d_rollb084.ogg",10
Sample,42954,0,"d_ht03.ogg",10
Sample,42954,0,"d_bd07.ogg",10
Sample,42954,0,"bassa1B.ogg",10
Sample,42954,0,"alpl1A.ogg",10
Sample,42954,0,"d_tmb10.ogg",10
Sample,42954,0,"d_sh01.ogg",10
Sample,42954,0,"alprE4.ogg",10
Sample,42954,0,"d_roll084.ogg",10
Sample,43030,0,"alprA4.ogg",10
Sample,43068,0,"d_tmb04.ogg",10
Sample,43068,0,"d_pc05.ogg",10
Sample,43068,0,"d_roll084.ogg",10
Sample,43068,0,"d_sh12.ogg",10
Sample,43068,0,"alpl2C+.ogg",10
Sample,43106,0,"d_ht04.ogg",10
Sample,43106,0,"alprB4.ogg",10
Sample,43181,0,"d_sh13.ogg",10
Sample,43181,0,"d_rdmclp.ogg",10
Sample,43181,0,"alpl0A.ogg",10
Sample,43181,0,"alprE5.ogg",10
Sample,43181,0,"d_roll084.ogg",10
Sample,43181,0,"d_bd06.ogg",10
Sample,43181,0,"d_ht05.ogg",10
Sample,43181,0,"d_pc06.ogg",10
Sample,43181,0,"d_tmb03.ogg",10
Sample,43257,0,"alprA5.ogg",10
Sample,43295,0,"d_tmb02.ogg",10
Sample,43295,0,"d_roll084.ogg",10
Sample,43295,0,"d_sh14.ogg",10
Sample,43295,0,"alpl1B.ogg",10
Sample,43295,0,"bassb1B.ogg",10
Sample,43333,0,"d_ht12.ogg",10
Sample,43333,0,"alprB5.ogg",10
Sample,43409,0,"d_pc07.ogg",10
Sample,43409,0,"d_roll096.ogg",10
Sample,43409,0,"alprE6.ogg",10
Sample,43409,0,"d_bd09.ogg",10
Sample,43409,0,"d_ht03.ogg",10
Sample,43409,0,"d_sh01.ogg",10
Sample,43409,0,"d_tmb03.ogg",10
Sample,43409,0,"alpl2E.ogg",10
Sample,43484,0,"alprA6.ogg",10
Sample,43522,0,"d_sh02.ogg",10
Sample,43522,0,"d_roll096.ogg",10
Sample,43522,0,"d_tmb04.ogg",10
Sample,43522,0,"alpl2A.ogg",10
Sample,43560,0,"d_ht12.ogg",10
Sample,43560,0,"alprE7.ogg",10
Sample,43636,0,"bassb1B.ogg",10
Sample,43636,0,"d_sh17.ogg",10
Sample,43636,0,"d_rollb096.ogg",10
Sample,43636,0,"alpl1A.ogg",10
Sample,43636,0,"d_pc08.ogg",10
Sample,43636,0,"tb_1G+.ogg",10
Sample,43636,0,"d_bd01.ogg",10
Sample,43636,0,"d_tmb02.ogg",10
Sample,43636,0,"d_ht01.ogg",10
Sample,43636,0,"alprB6.ogg",10
Sample,43712,0,"alprG6+.ogg",10
Sample,43712,0,"d_rollb096.ogg",10
Sample,43749,0,"alpl2A.ogg",10
Sample,43749,0,"d_sh12.ogg",10
Sample,43749,0,"d_tmb03.ogg",10
Sample,43787,0,"alprE6.ogg",10
Sample,43787,0,"d_ht02.ogg",10
Sample,43787,0,"d_rollb096.ogg",10
Sample,43863,0,"bassa1B.ogg",10
Sample,43863,0,"d_bd02.ogg",10
Sample,43863,0,"d_sh13.ogg",10
Sample,43863,0,"alpl0A.ogg",10
Sample,43863,0,"d_ht03.ogg",10
Sample,43863,0,"alprB5.ogg",10
Sample,43863,0,"d_roll096.ogg",10
Sample,43863,0,"d_tmb04.ogg",10
Sample,43939,0,"alprG5+.ogg",10
Sample,43977,0,"d_roll096.ogg",10
Sample,43977,0,"alpl1E.ogg",10
Sample,43977,0,"d_sh14.ogg",10
Sample,43977,0,"bassb2G+.ogg",10
Sample,43977,0,"d_tmb02.ogg",10
Sample,43977,0,"d_pc09.ogg",10
Sample,44015,0,"d_ht04.ogg",10
Sample,44015,0,"alprE5.ogg",10
Sample,44090,0,"d_roll096.ogg",10
Sample,44090,0,"d_ht05.ogg",10
Sample,44090,0,"d_sh03.ogg",10
Sample,44090,0,"d_tmb03.ogg",10
Sample,44090,0,"alprB5.ogg",10
Sample,44090,0,"d_rdmclp.ogg",10
Sample,44090,0,"alpl1B.ogg",10
Sample,44090,0,"d_bd01.ogg",10
Sample,44166,0,"alprG5+.ogg",10
Sample,44204,0,"d_sh02.ogg",10
Sample,44204,0,"d_roll096.ogg",10
Sample,44204,0,"d_tmb10.ogg",10
Sample,44204,0,"alpl1A.ogg",10
Sample,44242,0,"alprE5.ogg",10
Sample,44318,0,"d_tmb01.ogg",10
Sample,44318,0,"bassb1B.ogg",10
Sample,44318,0,"d_sh01.ogg",10
Sample,44318,0,"alpl0A.ogg",10
Sample,44318,0,"d_bd04.ogg",10
Sample,44318,0,"alprB4.ogg",10
Sample,44318,0,"d_roll096.ogg",10
Sample,44318,0,"d_ht03.ogg",10
Sample,44318,0,"d_pc10.ogg",10
Sample,44393,0,"alprG4+.ogg",10
Sample,44431,0,"alpl1A.ogg",10
Sample,44431,0,"d_sh12.ogg",10
Sample,44431,0,"d_roll096.ogg",10
Sample,44431,0,"d_tmb03.ogg",10
Sample,44469,0,"d_bd05.ogg",10
Sample,44469,0,"d_ht07.ogg",10
Sample,44469,0,"alprE4.ogg",10
Sample,44545,0,"alpl0A.ogg",10
Sample,44545,0,"d_pc11.ogg",10
Sample,44545,0,"d_bd06.ogg",10
Sample,44545,0,"d_sh13.ogg",10
Sample,44545,0,"d_ht08.ogg",10
Sample,44545,0,"d_rollb096.ogg",10
Sample,44545,0,"alprG4+.ogg",10
Sample,44545,0,"d_tmb04.ogg",10
Sample,44621,0,"d_rollb096.ogg",10
Sample,44621,0,"alprE4.ogg",10
Sample,44659,0,"alpl1A.ogg",10
Sample,44659,0,"d_tmb03.ogg",10
Sample,44659,0,"d_sh14.ogg",10
Sample,44696,0,"d_ht12.ogg",10
Sample,44696,0,"alprB3.ogg",10
Sample,44696,0,"d_rollb096.ogg",10
Sample,44772,0,"alpl2C+.ogg",10
Sample,44772,0,"d_tmb10.ogg",10
Sample,44772,0,"d_ht03.ogg",10
Sample,44772,0,"alprG3+.ogg",10
Sample,44772,0,"d_sh17.ogg",10
Sample,44772,0,"d_rollb096.ogg",10
Sample,44772,0,"d_bd07.ogg",10
Sample,44848,0,"d_rollb096.ogg",10
Sample,44848,0,"alprE3.ogg",10
Sample,44886,0,"alpl2E.ogg",10
Sample,44886,0,"d_pc12.ogg",10
Sample,44886,0,"d_sh12.ogg",10
Sample,44886,0,"d_tmb03.ogg",10
Sample,44886,0,"d_bd01s.ogg",10
Sample,44924,0,"d_rollb096.ogg",10
Sample,44924,0,"alprB2.ogg",10
Sample,44924,0,"d_ht25.ogg",10
Sample,44999,0,"d_tmb02s.ogg",10
Sample,44999,0,"d_ht26.ogg",10
Sample,44999,0,"d_sh13.ogg",10
Sample,44999,0,"d_rollb096.ogg",10
Sample,44999,0,"alprB3.ogg",10
Sample,44999,0,"d_rdmclp.ogg",10
Sample,44999,0,"alpl2A.ogg",10
Sample,44999,0,"d_bd01.ogg",10
Sample,45075,0,"alprG3+.ogg",10
Sample,45075,0,"d_rollb096.ogg",10
Sample,45113,0,"d_sh14.ogg",10
Sample,45113,0,"alpl3C+.ogg",10
Sample,45113,0,"d_tmb02s.ogg",10
Sample,45113,0,"pb04.ogg",10
Sample,45151,0,"d_ht27.ogg",10
Sample,45151,0,"alprE3.ogg",10
Sample,45151,0,"d_rollb096.ogg",10
Sample,45227,0,"d_tmb02s.ogg",10
Sample,45227,0,"d_rollb096.ogg",10
Sample,45227,0,"d_bd01.ogg",10
Sample,45227,0,"d_ht03.ogg",10
Sample,45227,0,"alpl3E.ogg",10
Sample,45227,0,"d_pc13.ogg",10
Sample,45227,0,"alprB2.ogg",10
Sample,45227,0,"d_sh17.ogg",10
Sample,45303,0,"alprG2+.ogg",10
Sample,45303,0,"d_rollb096.ogg",10
Sample,45340,0,"alpl3A.ogg",10
Sample,45340,0,"d_sh14.ogg",10
Sample,45340,0,"d_tmb02s.ogg",10
Sample,45378,0,"d_ht29.ogg",10
Sample,45378,0,"alprE2.ogg",10
Sample,45378,0,"d_rollb096.ogg",10
Sample,45454,0,"psbF+.ogg",10
Sample,45454,0,"d_rvb01.ogg",10
Sample,45454,0,"bgm01.ogg",10
Sample,45454,0,"d_rdmsyn01.ogg",100
Sample,52727,0,"bgm02.ogg",10
Sample,55227,0,"pxex-4D+E.ogg",100
Sample,59621,0,"d_rvb02.ogg",10
Sample,59999,0,"d_roll012.ogg",10
Sample,59999,0,"ogp06.ogg",10
Sample,59999,0,"bgm03.ogg",10
Sample,60113,0,"d_roll012.ogg",10
Sample,60227,0,"d_roll012.ogg",10
Sample,60340,0,"d_roll012.ogg",10
Sample,60454,0,"d_roll012.ogg",10
Sample,60568,0,"d_roll012.ogg",10
Sample,60681,0,"d_roll012.ogg",10
Sample,60795,0,"d_roll012.ogg",10
Sample,60909,0,"d_roll012.ogg",10
Sample,61022,0,"d_roll012.ogg",10
Sample,61136,0,"d_roll012.ogg",10
Sample,61249,0,"d_roll012.ogg",10
Sample,61363,0,"d_roll012.ogg",10
Sample,61477,0,"d_roll012.ogg",10
Sample,61590,0,"d_roll012.ogg",10
Sample,61704,0,"d_roll012.ogg",10
Sample,61818,0,"d_roll024.ogg",10
Sample,61931,0,"d_roll024.ogg",10
Sample,62045,0,"d_roll024.ogg",10
Sample,62159,0,"d_roll024.ogg",10
Sample,62272,0,"d_roll024.ogg",10
Sample,62386,0,"d_roll024.ogg",10
Sample,62499,0,"d_roll024.ogg",10
Sample,62613,0,"d_roll024.ogg",10
Sample,62727,0,"d_roll024.ogg",10
Sample,62840,0,"d_roll024.ogg",10
Sample,62954,0,"d_roll036.ogg",10
Sample,63068,0,"d_roll036.ogg",10
Sample,63181,0,"d_roll036.ogg",10
Sample,63295,0,"d_roll036.ogg",10
Sample,63409,0,"d_roll036.ogg",10
Sample,63522,0,"d_roll036.ogg",10
Sample,63636,0,"ogp07.ogg",10
Sample,63636,0,"d_roll036.ogg",10
Sample,63749,0,"d_roll036.ogg",10
Sample,63863,0,"d_roll036.ogg",10
Sample,63977,0,"d_roll036.ogg",10
Sample,64090,0,"d_roll036.ogg",10
Sample,64204,0,"d_roll036.ogg",10
Sample,64318,0,"d_roll036.ogg",10
Sample,64431,0,"d_roll036.ogg",10
Sample,64545,0,"d_roll048.ogg",10
Sample,64659,0,"d_roll048.ogg",10
Sample,64772,0,"fxp01.ogg",100
Sample,64772,0,"d_roll048.ogg",10
Sample,64886,0,"d_roll048.ogg",10
Sample,64999,0,"d_roll048.ogg",10
Sample,65113,0,"d_roll048.ogg",10
Sample,65227,0,"d_roll048.ogg",10
Sample,65340,0,"d_roll048.ogg",10
Sample,65454,0,"d_roll048.ogg",10
Sample,65568,0,"d_roll048.ogg",10
Sample,65681,0,"d_roll048.ogg",10
Sample,65795,0,"d_roll048.ogg",10
Sample,65909,0,"d_roll048.ogg",10
Sample,66022,0,"d_roll048.ogg",10
Sample,66136,0,"d_roll060.ogg",10
Sample,66249,0,"d_roll060.ogg",10
Sample,66363,0,"d_roll060.ogg",10
Sample,66477,0,"d_roll060.ogg",10
Sample,66590,0,"d_roll060.ogg",10
Sample,66704,0,"d_roll060.ogg",10
Sample,66818,0,"d_roll060.ogg",10
Sample,66931,0,"vif08.ogg",10
Sample,66931,0,"d_roll060.ogg",10
Sample,66931,0,"gtr07.ogg",10
Sample,67045,0,"d_roll060.ogg",10
Sample,67045,0,"vif02.ogg",10
Sample,67045,0,"gtr02.ogg",10
Sample,67159,0,"d_roll060.ogg",10
Sample,67159,0,"gtr03.ogg",10
Sample,67159,0,"vif03.ogg",10
Sample,67272,0,"d_roll060.ogg",10
Sample,67272,0,"ogp08.ogg",10
Sample,67272,0,"vif09.ogg",10
Sample,67272,0,"bgm04.ogg",10
Sample,67272,0,"gtr05.ogg",10
Sample,67386,0,"d_roll060.ogg",10
Sample,67499,0,"d_roll060.ogg",10
Sample,67613,0,"d_roll060.ogg",10
Sample,67727,0,"d_roll072.ogg",10
Sample,67840,0,"d_roll072.ogg",10
Sample,67954,0,"d_roll072.ogg",10
Sample,68068,0,"d_roll072.ogg",10
Sample,68181,0,"d_roll072.ogg",10
Sample,68295,0,"d_roll072.ogg",10
Sample,68409,0,"d_roll072.ogg",10
Sample,68522,0,"d_roll072.ogg",10
Sample,68636,0,"d_roll072.ogg",10
Sample,68636,0,"px10-3A.ogg",10
Sample,68636,0,"px10-4A.ogg",10
Sample,68749,0,"d_roll072.ogg",10
Sample,68863,0,"d_roll072.ogg",10
Sample,68977,0,"d_roll072.ogg",10
Sample,69090,0,"d_roll072.ogg",10
Sample,69090,0,"px10-4G+.ogg",10
Sample,69090,0,"px10-3G+.ogg",10
Sample,69204,0,"d_roll072.ogg",10
Sample,69318,0,"d_roll084.ogg",10
Sample,69431,0,"d_roll084.ogg",10
Sample,69545,0,"d_roll084.ogg",10
Sample,69659,0,"d_roll084.ogg",10
Sample,69772,0,"d_roll084.ogg",10
Sample,69772,0,"pxex-4D+E.ogg",10
Sample,69886,0,"d_roll084.ogg",10
Sample,69999,0,"d_roll084.ogg",10
Sample,70113,0,"d_roll084.ogg",10
Sample,70227,0,"px10-3G+.ogg",10
Sample,70227,0,"d_roll084.ogg",10
Sample,70227,0,"px10-4G+.ogg",10
Sample,70340,0,"d_roll084.ogg",10
Sample,70454,0,"px10-3A.ogg",10
Sample,70454,0,"px10-4A.ogg",10
Sample,70454,0,"d_roll084.ogg",10
Sample,70568,0,"d_roll084.ogg",10
Sample,70681,0,"d_roll096.ogg",10
Sample,70681,0,"px10-3B.ogg",10
Sample,70681,0,"px10-4B.ogg",10
Sample,70795,0,"d_roll096.ogg",10
Sample,70909,0,"psbC+.ogg",10
Sample,70909,0,"d_roll096.ogg",10
Sample,70909,0,"ogp09.ogg",10
Sample,71022,0,"d_roll096.ogg",10
Sample,71136,0,"d_roll096.ogg",10
Sample,71249,0,"d_roll096.ogg",10
Sample,71363,0,"d_roll096.ogg",10
Sample,71477,0,"d_roll096.ogg",10
Sample,71590,0,"d_roll096.ogg",10
Sample,71704,0,"d_roll096.ogg",10
Sample,71818,0,"d_rollb096.ogg",10
Sample,71893,0,"d_rollb096.ogg",10
Sample,71969,0,"d_rollb096.ogg",10
Sample,72045,0,"d_roll096.ogg",10
Sample,72159,0,"d_roll096.ogg",10
Sample,72272,0,"d_roll096.ogg",10
Sample,72386,0,"d_roll096.ogg",10
Sample,72499,0,"d_roll096.ogg",10
Sample,72613,0,"d_roll096.ogg",10
Sample,72727,0,"fx01a.ogg",100
Sample,72727,0,"d_rollb096.ogg",10
Sample,72803,0,"d_rollb096.ogg",10
Sample,72878,0,"d_rollb096.ogg",10
Sample,72954,0,"d_roll096.ogg",10
Sample,73068,0,"d_roll096.ogg",10
Sample,73181,0,"d_roll096.ogg",10
Sample,73295,0,"d_roll096.ogg",10
Sample,73409,0,"d_roll096.ogg",10
Sample,73522,0,"d_roll096.ogg",10
Sample,73636,0,"d_rollb096.ogg",10
Sample,73712,0,"d_rollb096.ogg",10
Sample,73787,0,"d_rollb096.ogg",10
Sample,73863,0,"d_rollb096.ogg",10
Sample,73939,0,"d_rollb096.ogg",10
Sample,74015,0,"d_rollb096.ogg",10
Sample,74090,0,"d_rollb096.ogg",10
Sample,74090,0,"fx01b.ogg",100
Sample,74166,0,"d_rollb096.ogg",10
Sample,74204,0,"fx01c.ogg",100
Sample,74242,0,"d_rollb096.ogg",10
Sample,74318,0,"fx01d.ogg",100
Sample,74318,0,"d_rollb096.ogg",10
Sample,74393,0,"d_rollb096.ogg",10
Sample,74431,0,"fx01e.ogg",100
Sample,74469,0,"d_rollb096.ogg",10
Sample,74545,0,"d_sh01.ogg",10
Sample,74545,0,"bgm05.ogg",10
Sample,74545,0,"d_pc01.ogg",10
Sample,74545,0,"d_tmb01.ogg",10
Sample,74545,0,"psbG.ogg",10
Sample,74545,0,"ps03.ogg",10
Sample,74545,0,"fx01f.ogg",10
Sample,74545,0,"d_ht01.ogg",10
Sample,74545,0,"vif18.ogg",10
Sample,74545,0,"tb_2D.ogg",10
Sample,74545,0,"alpl2D.ogg",10
Sample,74545,0,"d_rdmsyn01.ogg",100
Sample,74659,0,"d_tmb03.ogg",10
Sample,74659,0,"alpl3D.ogg",10
Sample,74659,0,"d_sh02.ogg",10
Sample,74696,0,"d_ht02.ogg",10
Sample,74772,0,"d_tmb04.ogg",10
Sample,74772,0,"alpl1D.ogg",10
Sample,74772,0,"d_ht03.ogg",10
Sample,74772,0,"d_sh03.ogg",10
Sample,74886,0,"d_pc02.ogg",10
Sample,74886,0,"d_tmb03.ogg",10
Sample,74886,0,"d_sh02.ogg",10
Sample,74886,0,"alpl1A.ogg",10
Sample,74924,0,"d_ht04.ogg",10
Sample,74999,0,"alpl2D+.ogg",10
Sample,74999,0,"d_sh03.ogg",10
Sample,74999,0,"d_tmb04.ogg",10
Sample,74999,0,"d_ht05.ogg",10
Sample,75113,0,"d_sh06.ogg",10
Sample,75113,0,"d_tmb03.ogg",10
Sample,75113,0,"alpl2D.ogg",10
Sample,75227,0,"d_tmb04.ogg",10
Sample,75227,0,"d_sh01.ogg",10
Sample,75227,0,"d_pc03.ogg",10
Sample,75227,0,"d_ht03.ogg",10
Sample,75227,0,"alpl1D.ogg",10
Sample,75340,0,"alpl2D.ogg",10
Sample,75340,0,"d_sh02.ogg",10
Sample,75340,0,"d_tmb02l.ogg",10
Sample,75378,0,"d_ht07.ogg",10
Sample,75454,0,"d_sh03.ogg",10
Sample,75454,0,"alpl1D.ogg",10
Sample,75454,0,"d_ht08.ogg",10
Sample,75568,0,"d_sh02.ogg",10
Sample,75568,0,"d_tmb10.ogg",10
Sample,75568,0,"alpl2D+.ogg",10
Sample,75568,0,"d_pc04.ogg",10
Sample,75681,0,"d_ht03.ogg",10
Sample,75681,0,"d_tmb04.ogg",10
Sample,75681,0,"alpl2D.ogg",10
Sample,75681,0,"d_sh01.ogg",10
Sample,75795,0,"d_tmb02.ogg",10
Sample,75795,0,"d_sh12.ogg",10
Sample,75795,0,"d_pc05.ogg",10
Sample,75795,0,"alpl2F.ogg",10
Sample,75833,0,"d_ht04.ogg",10
Sample,75909,0,"d_ht05.ogg",10
Sample,75909,0,"d_sh13.ogg",10
Sample,75909,0,"alpl1D.ogg",10
Sample,75909,0,"d_pc06.ogg",10
Sample,75909,0,"d_tmb03.ogg",10
Sample,76022,0,"alpl2D+.ogg",10
Sample,76022,0,"d_sh14.ogg",10
Sample,76022,0,"d_tmb04.ogg",10
Sample,76060,0,"d_ht12.ogg",10
Sample,76136,0,"d_sh01.ogg",10
Sample,76136,0,"d_pc07.ogg",10
Sample,76136,0,"d_tmb02.ogg",10
Sample,76136,0,"d_ht03.ogg",10
Sample,76136,0,"alpl2A.ogg",10
Sample,76249,0,"d_sh02.ogg",10
Sample,76287,0,"d_ht12.ogg",10
Sample,76363,0,"d_ht01.ogg",10
Sample,76363,0,"d_sh17.ogg",10
Sample,76363,0,"d_tmb03.ogg",10
Sample,76363,0,"d_pc08.ogg",10
Sample,76363,0,"alpl2D.ogg",10
Sample,76363,0,"tb_2D.ogg",10
Sample,76477,0,"d_sh12.ogg",10
Sample,76477,0,"d_tmb04.ogg",10
Sample,76515,0,"d_ht02.ogg",10
Sample,76590,0,"d_ht03.ogg",10
Sample,76590,0,"d_sh13.ogg",10
Sample,76590,0,"d_tmb01.ogg",10
Sample,76590,0,"alpl1D.ogg",10
Sample,76704,0,"d_sh14.ogg",10
Sample,76704,0,"d_pc09.ogg",10
Sample,76704,0,"d_tmb03.ogg",10
Sample,76704,0,"alpl1A.ogg",10
Sample,76742,0,"d_ht04.ogg",10
Sample,76818,0,"d_ht05.ogg",10
Sample,76818,0,"d_sh03.ogg",10
Sample,76818,0,"d_tmb04.ogg",10
Sample,76818,0,"alpl2D+.ogg",10
Sample,76931,0,"d_tmb02.ogg",10
Sample,76931,0,"d_sh02.ogg",10
Sample,76931,0,"alpl2D.ogg",10
Sample,77045,0,"d_pc10.ogg",10
Sample,77045,0,"d_sh01.ogg",10
Sample,77045,0,"d_ht03.ogg",10
Sample,77045,0,"px02-3G.ogg",10
Sample,77045,0,"alpl1D.ogg",10
Sample,77045,0,"d_tmb03.ogg",10
Sample,77159,0,"d_tmb10.ogg",10
Sample,77159,0,"alpl2D.ogg",10
Sample,77159,0,"d_sh12.ogg",10
Sample,77159,0,"px02-3A.ogg",10
Sample,77196,0,"d_ht07.ogg",10
Sample,77272,0,"d_tmb02l.ogg",10
Sample,77272,0,"alpl1D.ogg",10
Sample,77272,0,"d_sh13.ogg",10
Sample,77272,0,"d_pc11.ogg",10
Sample,77272,0,"d_ht08.ogg",10
Sample,77272,0,"px02-3A+.ogg",10
Sample,77386,0,"alpl2D+.ogg",10
Sample,77386,0,"d_sh14.ogg",10
Sample,77424,0,"d_ht12.ogg",10
Sample,77499,0,"alpl2D.ogg",10
Sample,77499,0,"d_tmb03.ogg",10
Sample,77499,0,"d_ht03.ogg",10
Sample,77499,0,"px02-3A.ogg",10
Sample,77499,0,"d_sh17.ogg",10
Sample,77613,0,"alpl2F.ogg",10
Sample,77613,0,"d_sh12.ogg",10
Sample,77613,0,"d_tmb04.ogg",10
Sample,77613,0,"d_pc12.ogg",10
Sample,77651,0,"d_ht25.ogg",10
Sample,77727,0,"px02-3G.ogg",10
Sample,77727,0,"alpl1D.ogg",10
Sample,77727,0,"d_tmb03.ogg",10
Sample,77727,0,"d_ht26.ogg",10
Sample,77727,0,"d_sh13.ogg",10
Sample,77840,0,"d_sh14.ogg",10
Sample,77840,0,"alpl2D+.ogg",10
Sample,77840,0,"d_tmb04.ogg",10
Sample,77878,0,"d_ht27.ogg",10
Sample,77954,0,"d_ht03.ogg",10
Sample,77954,0,"alpl2A.ogg",10
Sample,77954,0,"d_sh17.ogg",10
Sample,77954,0,"d_tmb03.ogg",10
Sample,77954,0,"d_pc13.ogg",10
Sample,77954,0,"px02-4F.ogg",10
Sample,78068,0,"d_sh14.ogg",10
Sample,78068,0,"d_tmb10.ogg",10
Sample,78106,0,"d_ht29.ogg",10
Sample,78181,0,"tb_2D.ogg",10
Sample,78181,0,"psbF.ogg",10
Sample,78181,0,"d_tmb02.ogg",10
Sample,78181,0,"d_sh01.ogg",10
Sample,78181,0,"d_ht01.ogg",10
Sample,78181,0,"alpl2D.ogg",10
Sample,78181,0,"px10-3A.ogg",10
Sample,78181,0,"d_pc01.ogg",10
Sample,78238,0,"px10-4C.ogg",10
Sample,78295,0,"d_sh02.ogg",10
Sample,78295,0,"px10-4F.ogg",10
Sample,78295,0,"d_tmb03.ogg",10
Sample,78333,0,"d_ht02.ogg",10
Sample,78409,0,"alpl1D.ogg",10
Sample,78409,0,"d_sh03.ogg",10
Sample,78409,0,"d_ht03.ogg",10
Sample,78409,0,"d_tmb04.ogg",10
Sample,78522,0,"d_sh02.ogg",10
Sample,78522,0,"alpl1A.ogg",10
Sample,78522,0,"d_tmb03.ogg",10
Sample,78522,0,"d_pc02.ogg",10
Sample,78560,0,"d_ht04.ogg",10
Sample,78636,0,"alpl2D+.ogg",10
Sample,78636,0,"d_ht05.ogg",10
Sample,78636,0,"d_sh03.ogg",10
Sample,78636,0,"d_tmb04.ogg",10
Sample,78749,0,"d_sh06.ogg",10
Sample,78749,0,"alpl2D.ogg",10
Sample,78749,0,"d_tmb03.ogg",10
Sample,78863,0,"d_ht03.ogg",10
Sample,78863,0,"alpl1D.ogg",10
Sample,78863,0,"d_pc03.ogg",10
Sample,78863,0,"d_sh01.ogg",10
Sample,78863,0,"d_tmb10.ogg",10
Sample,78977,0,"d_tmb02.ogg",10
Sample,78977,0,"d_sh02.ogg",10
Sample,78977,0,"alpl2D.ogg",10
Sample,79015,0,"d_ht07.ogg",10
Sample,79090,0,"d_ht08.ogg",10
Sample,79090,0,"d_sh03.ogg",10
Sample,79090,0,"alpl1D.ogg",10
Sample,79090,0,"d_tmb03.ogg",10
Sample,79204,0,"d_tmb04.ogg",10
Sample,79204,0,"d_pc04.ogg",10
Sample,79204,0,"d_sh02.ogg",10
Sample,79204,0,"alpl2D+.ogg",10
Sample,79318,0,"d_sh01.ogg",10
Sample,79318,0,"d_tmb03.ogg",10
Sample,79318,0,"d_ht03.ogg",10
Sample,79318,0,"alpl2D.ogg",10
Sample,79431,0,"alpl2F.ogg",10
Sample,79431,0,"d_pc05.ogg",10
Sample,79431,0,"d_sh12.ogg",10
Sample,79431,0,"d_tmb02.ogg",10
Sample,79469,0,"d_ht04.ogg",10
Sample,79545,0,"d_tmb03.ogg",10
Sample,79545,0,"d_ht05.ogg",10
Sample,79545,0,"d_sh13.ogg",10
Sample,79545,0,"alpl1D.ogg",10
Sample,79545,0,"d_pc06.ogg",10
Sample,79659,0,"d_sh14.ogg",10
Sample,79659,0,"d_tmb04.ogg",10
Sample,79659,0,"alpl2D+.ogg",10
Sample,79696,0,"d_ht12.ogg",10
Sample,79772,0,"d_sh01.ogg",10
Sample,79772,0,"d_pc07.ogg",10
Sample,79772,0,"fxmelo01.ogg",100
Sample,79772,0,"alpl2A.ogg",10
Sample,79772,0,"d_ht03.ogg",10
Sample,79772,0,"d_tmb03.ogg",10
Sample,79886,0,"d_tmb10.ogg",10
Sample,79886,0,"d_sh02.ogg",10
Sample,79924,0,"d_ht12.ogg",10
Sample,79999,0,"tb_2D.ogg",10
Sample,79999,0,"d_ht01.ogg",10
Sample,79999,0,"d_sh17.ogg",10
Sample,79999,0,"d_pc08.ogg",10
Sample,79999,0,"alpl2D.ogg",10
Sample,79999,0,"d_tmb03.ogg",10
Sample,80113,0,"d_sh12.ogg",10
Sample,80113,0,"d_tmb04.ogg",10
Sample,80151,0,"d_ht02.ogg",10
Sample,80227,0,"alpl1D.ogg",10
Sample,80227,0,"d_tmb01.ogg",10
Sample,80227,0,"d_ht03.ogg",10
Sample,80227,0,"d_sh13.ogg",10
Sample,80340,0,"alpl1A.ogg",10
Sample,80340,0,"d_sh14.ogg",10
Sample,80340,0,"d_tmb04.ogg",10
Sample,80340,0,"d_pc09.ogg",10
Sample,80378,0,"d_ht04.ogg",10
Sample,80454,0,"d_tmb03.ogg",10
Sample,80454,0,"d_sh03.ogg",10
Sample,80454,0,"d_ht05.ogg",10
Sample,80454,0,"alpl2D+.ogg",10
Sample,80568,0,"d_tmb02.ogg",10
Sample,80568,0,"alpl2D.ogg",10
Sample,80568,0,"d_sh02.ogg",10
Sample,80681,0,"d_ht03.ogg",10
Sample,80681,0,"alpl1D.ogg",10
Sample,80681,0,"d_sh01.ogg",10
Sample,80681,0,"d_pc10.ogg",10
Sample,80681,0,"d_tmb03.ogg",10
Sample,80795,0,"alpl2D.ogg",10
Sample,80795,0,"d_sh12.ogg",10
Sample,80795,0,"d_tmb04.ogg",10
Sample,80833,0,"d_ht07.ogg",10
Sample,80909,0,"d_pc11.ogg",10
Sample,80909,0,"d_ht08.ogg",10
Sample,80909,0,"d_sh13.ogg",10
Sample,80909,0,"d_tmb03.ogg",10
Sample,80909,0,"alpl1D.ogg",10
Sample,81022,0,"alpl2D+.ogg",10
Sample,81022,0,"d_sh14.ogg",10
Sample,81022,0,"d_tmb04.ogg",10
Sample,81060,0,"d_ht12.ogg",10
Sample,81136,0,"alpl2D.ogg",10
Sample,81136,0,"px02-3A+.ogg",10
Sample,81136,0,"d_tmb02.ogg",10
Sample,81136,0,"d_ht03.ogg",10
Sample,81136,0,"d_sh17.ogg",10
Sample,81249,0,"d_tmb10.ogg",10
Sample,81249,0,"d_sh12.ogg",10
Sample,81249,0,"alpl2F.ogg",10
Sample,81249,0,"d_pc12.ogg",10
Sample,81287,0,"d_ht25.ogg",10
Sample,81363,0,"alpl3D.ogg",10
Sample,81363,0,"d_ht26.ogg",10
Sample,81363,0,"px02-4C.ogg",10
Sample,81363,0,"d_sh13.ogg",10
Sample,81363,0,"d_tmb03.ogg",10
Sample,81477,0,"d_tmb01.ogg",10
Sample,81477,0,"d_sh14.ogg",10
Sample,81477,0,"alpl2A.ogg",10
Sample,81515,0,"d_ht27.ogg",10
Sample,81590,0,"d_sh17.ogg",10
Sample,81590,0,"d_tmb03.ogg",10
Sample,81590,0,"d_pc13.ogg",10
Sample,81590,0,"alpl2D+.ogg",10
Sample,81590,0,"d_ht03.ogg",10
Sample,81590,0,"px02-4D.ogg",10
Sample,81704,0,"alpl1D.ogg",10
Sample,81704,0,"d_sh14.ogg",10
Sample,81704,0,"d_tmb04.ogg",10
Sample,81742,0,"d_ht29.ogg",10
Sample,81818,0,"px10-3A+.ogg",10
Sample,81818,0,"px10-4D.ogg",10
Sample,81818,0,"d_ht01.ogg",10
Sample,81818,0,"d_sh01.ogg",10
Sample,81818,0,"px10-3G.ogg",10
Sample,81818,0,"psbD+.ogg",10
Sample,81818,0,"bgm06.ogg",10
Sample,81818,0,"alpl1A+.ogg",10
Sample,81818,0,"tb_1A+.ogg",10
Sample,81818,0,"d_pc01.ogg",10
Sample,81818,0,"d_tmb02.ogg",10
Sample,81931,0,"d_sh02.ogg",10
Sample,81931,0,"d_tmb03.ogg",10
Sample,81969,0,"d_ht02.ogg",10
Sample,82045,0,"d_tmb04.ogg",10
Sample,82045,0,"d_ht03.ogg",10
Sample,82045,0,"d_sh03.ogg",10
Sample,82045,0,"alpl0A+.ogg",10
Sample,82045,0,"fxp02.ogg",100
Sample,82159,0,"d_tmb03.ogg",10
Sample,82159,0,"d_pc02.ogg",10
Sample,82159,0,"alpl1F.ogg",10
Sample,82159,0,"d_sh02.ogg",10
Sample,82196,0,"d_ht04.ogg",10
Sample,82272,0,"alpl2C.ogg",10
Sample,82272,0,"d_ht05.ogg",10
Sample,82272,0,"d_sh03.ogg",10
Sample,82386,0,"d_tmb04.ogg",10
Sample,82386,0,"d_sh06.ogg",10
Sample,82386,0,"alpl1A+.ogg",10
Sample,82499,0,"alpl0A+.ogg",10
Sample,82499,0,"d_ht03.ogg",10
Sample,82499,0,"d_sh01.ogg",10
Sample,82499,0,"d_pc03.ogg",10
Sample,82499,0,"d_tmb03.ogg",10
Sample,82613,0,"alpl1A+.ogg",10
Sample,82613,0,"d_sh02.ogg",10
Sample,82613,0,"d_tmb02l.ogg",10
Sample,82651,0,"d_ht07.ogg",10
Sample,82727,0,"d_sh03.ogg",10
Sample,82727,0,"d_ht08.ogg",10
Sample,82727,0,"alpl0A+.ogg",10
Sample,82840,0,"alpl2C.ogg",10
Sample,82840,0,"d_tmb10.ogg",10
Sample,82840,0,"d_sh02.ogg",10
Sample,82840,0,"d_pc04.ogg",10
Sample,82954,0,"alpl1A+.ogg",10
Sample,82954,0,"d_tmb04.ogg",10
Sample,82954,0,"d_sh01.ogg",10
Sample,82954,0,"d_ht03.ogg",10
Sample,83068,0,"d_tmb02.ogg",10
Sample,83068,0,"d_pc05.ogg",10
Sample,83068,0,"alpl2D.ogg",10
Sample,83068,0,"d_sh12.ogg",10
Sample,83106,0,"d_ht04.ogg",10
Sample,83181,0,"d_sh13.ogg",10
Sample,83181,0,"d_ht05.ogg",10
Sample,83181,0,"d_tmb03.ogg",10
Sample,83181,0,"px04-3A+.ogg",10
Sample,83181,0,"alpl0A+.ogg",10
Sample,83181,0,"d_pc06.ogg",10
Sample,83295,0,"d_tmb04.ogg",10
Sample,83295,0,"d_sh14.ogg",10
Sample,83295,0,"alpl2C.ogg",10
Sample,83333,0,"d_ht12.ogg",10
Sample,83409,0,"d_sh01.ogg",10
Sample,83409,0,"d_ht03.ogg",10
Sample,83409,0,"d_pc07.ogg",10
Sample,83409,0,"alpl2F.ogg",10
Sample,83409,0,"d_tmb02.ogg",10
Sample,83522,0,"d_sh02.ogg",10
Sample,83560,0,"d_ht12.ogg",10
Sample,83636,0,"px10-3A.ogg",10
Sample,83636,0,"tb_1A+.ogg",10
Sample,83636,0,"d_sh17.ogg",10
Sample,83636,0,"d_ht01.ogg",10
Sample,83636,0,"alpl1A+.ogg",10
Sample,83636,0,"d_pc08.ogg",10
Sample,83636,0,"d_tmb03.ogg",10
Sample,83750,0,"d_sh12.ogg",10
Sample,83750,0,"d_tmb04.ogg",10
Sample,83787,0,"d_ht02.ogg",10
Sample,83863,0,"alpl0A+.ogg",10
Sample,83863,0,"d_sh13.ogg",10
Sample,83863,0,"d_ht03.ogg",10
Sample,83863,0,"d_tmb02.ogg",10
Sample,83977,0,"d_sh14.ogg",10
Sample,83977,0,"d_tmb03.ogg",10
Sample,83977,0,"d_pc09.ogg",10
Sample,83977,0,"alpl1F.ogg",10
Sample,84015,0,"d_ht04.ogg",10
Sample,84090,0,"d_ht05.ogg",10
Sample,84090,0,"d_sh03.ogg",10
Sample,84090,0,"alpl2C.ogg",10
Sample,84090,0,"d_tmb10.ogg",10
Sample,84204,0,"d_tmb01.ogg",10
Sample,84204,0,"d_sh02.ogg",10
Sample,84204,0,"alpl1A+.ogg",10
Sample,84318,0,"d_tmb03.ogg",10
Sample,84318,0,"pxex-4EF.ogg",10
Sample,84318,0,"d_sh01.ogg",10
Sample,84318,0,"alpl0A+.ogg",10
Sample,84318,0,"d_ht03.ogg",10
Sample,84318,0,"d_pc10.ogg",10
Sample,84431,0,"d_sh12.ogg",10
Sample,84431,0,"alpl1A+.ogg",10
Sample,84431,0,"d_tmb04.ogg",10
Sample,84469,0,"d_ht07.ogg",10
Sample,84545,0,"d_pc11.ogg",10
Sample,84545,0,"d_tmb02l.ogg",10
Sample,84545,0,"alpl0A+.ogg",10
Sample,84545,0,"d_ht08.ogg",10
Sample,84545,0,"d_sh13.ogg",10
Sample,84659,0,"d_sh14.ogg",10
Sample,84659,0,"alpl2C.ogg",10
Sample,84696,0,"d_ht12.ogg",10
Sample,84772,0,"d_tmb03.ogg",10
Sample,84772,0,"d_ht03.ogg",10
Sample,84772,0,"px02-3A.ogg",10
Sample,84772,0,"d_sh17.ogg",10
Sample,84772,0,"alpl1A+.ogg",10
Sample,84886,0,"d_sh12.ogg",10
Sample,84886,0,"alpl2D.ogg",10
Sample,84886,0,"d_pc12.ogg",10
Sample,84886,0,"d_tmb10.ogg",10
Sample,84924,0,"d_ht25.ogg",10
Sample,85000,0,"alpl0A+.ogg",10
Sample,85000,0,"d_sh13.ogg",10
Sample,85000,0,"d_ht26.ogg",10
Sample,85000,0,"px02-3A+.ogg",10
Sample,85000,0,"d_tmb03.ogg",10
Sample,85113,0,"d_tmb04.ogg",10
Sample,85113,0,"d_sh14.ogg",10
Sample,85113,0,"alpl2C.ogg",10
Sample,85151,0,"d_ht27.ogg",10
Sample,85227,0,"d_ht03.ogg",10
Sample,85227,0,"px02-4C.ogg",10
Sample,85227,0,"alpl2F.ogg",10
Sample,85227,0,"d_sh17.ogg",10
Sample,85227,0,"d_tmb03.ogg",10
Sample,85227,0,"d_pc13.ogg",10
Sample,85340,0,"d_sh14.ogg",10
Sample,85340,0,"d_tmb04.ogg",10
Sample,85378,0,"d_ht29.ogg",10
Sample,85454,0,"tb_1A+.ogg",10
Sample,85454,0,"px10-3D.ogg",10
Sample,85454,0,"alpl1A+.ogg",10
Sample,85454,0,"d_sh01.ogg",10
Sample,85454,0,"psbD.ogg",10
Sample,85454,0,"d_ht01.ogg",10
Sample,85454,0,"d_tmb01.ogg",10
Sample,85454,0,"d_pc01.ogg",10
Sample,85511,0,"px10-3A.ogg",10
Sample,85568,0,"d_sh02.ogg",10
Sample,85568,0,"px04-4C.ogg",10
Sample,85606,0,"d_ht02.ogg",10
Sample,85681,0,"d_sh03.ogg",10
Sample,85681,0,"d_tmb02.ogg",10
Sample,85681,0,"alpl0A+.ogg",10
Sample,85681,0,"d_ht03.ogg",10
Sample,85795,0,"d_pc02.ogg",10
Sample,85795,0,"alpl1F.ogg",10
Sample,85795,0,"d_tmb03.ogg",10
Sample,85795,0,"d_sh02.ogg",10
Sample,85833,0,"d_ht04.ogg",10
Sample,85909,0,"d_ht05.ogg",10
Sample,85909,0,"alpl2C.ogg",10
Sample,85909,0,"d_tmb10.ogg",10
Sample,85909,0,"d_sh03.ogg",10
Sample,86022,0,"d_tmb03.ogg",10
Sample,86022,0,"alpl1A+.ogg",10
Sample,86022,0,"d_sh06.ogg",10
Sample,86136,0,"d_pc03.ogg",10
Sample,86136,0,"alpl0A+.ogg",10
Sample,86136,0,"d_ht03.ogg",10
Sample,86136,0,"d_sh01.ogg",10
Sample,86136,0,"d_tmb04.ogg",10
Sample,86136,0,"px04-4D.ogg",10
Sample,86250,0,"d_tmb03.ogg",10
Sample,86250,0,"alpl1A+.ogg",10
Sample,86250,0,"d_sh02.ogg",10
Sample,86287,0,"d_ht07.ogg",10
Sample,86363,0,"alpl0A+.ogg",10
Sample,86363,0,"d_tmb04.ogg",10
Sample,86363,0,"d_sh03.ogg",10
Sample,86363,0,"d_ht08.ogg",10
Sample,86477,0,"d_tmb01.ogg",10
Sample,86477,0,"d_sh02.ogg",10
Sample,86477,0,"d_pc04.ogg",10
Sample,86477,0,"alpl2C.ogg",10
Sample,86590,0,"alpl1A+.ogg",10
Sample,86590,0,"d_sh01.ogg",10
Sample,86590,0,"d_tmb10.ogg",10
Sample,86590,0,"d_ht03.ogg",10
Sample,86704,0,"alpl2D.ogg",10
Sample,86704,0,"d_sh12.ogg",10
Sample,86704,0,"d_tmb04.ogg",10
Sample,86704,0,"d_pc05.ogg",10
Sample,86742,0,"d_ht04.ogg",10
Sample,86818,0,"d_ht05.ogg",10
Sample,86818,0,"alpl0A+.ogg",10
Sample,86818,0,"px04-3A+.ogg",10
Sample,86818,0,"d_pc06.ogg",10
Sample,86818,0,"d_sh13.ogg",10
Sample,86818,0,"d_tmb03.ogg",10
Sample,86931,0,"d_sh14.ogg",10
Sample,86931,0,"d_tmb02.ogg",10
Sample,86931,0,"alpl2C.ogg",10
Sample,86969,0,"d_ht12.ogg",10
Sample,87045,0,"alpl2F.ogg",10
Sample,87045,0,"d_tmb03.ogg",10
Sample,87045,0,"d_sh01.ogg",10
Sample,87045,0,"d_ht03.ogg",10
Sample,87045,0,"d_pc07.ogg",10
Sample,87159,0,"d_tmb04.ogg",10
Sample,87159,0,"d_sh02.ogg",10
Sample,87196,0,"d_ht12.ogg",10
Sample,87272,0,"d_tmb02.ogg",10
Sample,87272,0,"px04-3A.ogg",10
Sample,87272,0,"d_pc08.ogg",10
Sample,87272,0,"alpl1A+.ogg",10
Sample,87272,0,"d_sh17.ogg",10
Sample,87272,0,"tb_1A+.ogg",10
Sample,87272,0,"d_ht01.ogg",10
Sample,87386,0,"d_sh12.ogg",10
Sample,87386,0,"d_tmb03.ogg",10
Sample,87424,0,"d_ht02.ogg",10
Sample,87500,0,"alpl0A+.ogg",10
Sample,87500,0,"d_ht03.ogg",10
Sample,87500,0,"d_sh13.ogg",10
Sample,87500,0,"d_tmb04.ogg",10
Sample,87613,0,"alpl1F.ogg",10
Sample,87613,0,"d_tmb02.ogg",10
Sample,87613,0,"d_pc09.ogg",10
Sample,87613,0,"d_sh14.ogg",10
Sample,87651,0,"d_ht04.ogg",10
Sample,87727,0,"d_ht05.ogg",10
Sample,87727,0,"d_tmb03.ogg",10
Sample,87727,0,"d_sh03.ogg",10
Sample,87727,0,"alpl2C.ogg",10
Sample,87840,0,"d_tmb10.ogg",10
Sample,87840,0,"d_sh02.ogg",10
Sample,87840,0,"alpl1A+.ogg",10
Sample,87954,0,"d_ht03.ogg",10
Sample,87954,0,"px04-4D.ogg",10
Sample,87954,0,"d_tmb01.ogg",10
Sample,87954,0,"d_sh01.ogg",10
Sample,87954,0,"d_pc10.ogg",10
Sample,87954,0,"alpl0A+.ogg",10
Sample,88068,0,"d_sh12.ogg",10
Sample,88068,0,"d_tmb03.ogg",10
Sample,88068,0,"alpl1A+.ogg",10
Sample,88106,0,"d_ht07.ogg",10
Sample,88181,0,"d_sh13.ogg",10
Sample,88181,0,"alpl0A+.ogg",10
Sample,88181,0,"d_tmb04.ogg",10
Sample,88181,0,"d_ht08.ogg",10
Sample,88181,0,"d_pc11.ogg",10
Sample,88295,0,"d_tmb03.ogg",10
Sample,88295,0,"alpl1A+.ogg",10
Sample,88295,0,"d_sh14.ogg",10
Sample,88333,0,"d_ht12.ogg",10
Sample,88409,0,"d_sh17.ogg",10
Sample,88409,0,"px04-4F+.ogg",10
Sample,88409,0,"d_ht03.ogg",10
Sample,88409,0,"d_tmb10.ogg",10
Sample,88409,0,"alpl2D.ogg",10
Sample,88522,0,"d_sh12.ogg",10
Sample,88522,0,"d_pc12.ogg",10
Sample,88522,0,"d_tmb03.ogg",10
Sample,88522,0,"alpl2F.ogg",10
Sample,88560,0,"d_ht25.ogg",10
Sample,88636,0,"alpl2A+.ogg",10
Sample,88636,0,"d_sh13.ogg",10
Sample,88636,0,"d_ht26.ogg",10
Sample,88636,0,"d_tmb10.ogg",10
Sample,88750,0,"d_tmb03.ogg",10
Sample,88750,0,"alpl3D.ogg",10
Sample,88750,0,"d_sh14.ogg",10
Sample,88787,0,"d_ht27.ogg",10
Sample,88863,0,"d_tmb01.ogg",10
Sample,88863,0,"d_pc13.ogg",10
Sample,88863,0,"alpl3F.ogg",10
Sample,88863,0,"d_ht03.ogg",10
Sample,88863,0,"d_sh17.ogg",10
Sample,88863,0,"brs_1F+.ogg",100
Sample,88977,0,"d_sh14.ogg",10
Sample,88977,0,"alpl3A+.ogg",10
Sample,89015,0,"d_ht29.ogg",10
Sample,89090,0,"d_pc01.ogg",10
Sample,89090,0,"brs_2G.ogg",100
Sample,89090,0,"d_tmb01.ogg",10
Sample,89090,0,"psbG.ogg",10
Sample,89090,0,"d_roll012.ogg",10
Sample,89090,0,"bassb2D.ogg",10
Sample,89090,0,"tb_2D.ogg",10
Sample,89090,0,"alpl3D.ogg",10
Sample,89090,0,"d_bd01.ogg",10
Sample,89090,0,"d_sh01.ogg",10
Sample,89090,0,"bgm07.ogg",10
Sample,89090,0,"d_ht01.ogg",10
Sample,89090,0,"ps03.ogg",10
Sample,89204,0,"d_sh02.ogg",10
Sample,89204,0,"d_tmb03.ogg",10
Sample,89204,0,"d_roll012.ogg",10
Sample,89242,0,"d_ht02.ogg",10
Sample,89318,0,"alpl2D.ogg",10
Sample,89318,0,"d_tmb04.ogg",10
Sample,89318,0,"bassa2D.ogg",10
Sample,89318,0,"d_roll012.ogg",10
Sample,89318,0,"d_sh03.ogg",10
Sample,89318,0,"d_bd02.ogg",10
Sample,89318,0,"d_ht03.ogg",10
Sample,89431,0,"d_sh02.ogg",10
Sample,89431,0,"bassb2G.ogg",10
Sample,89431,0,"d_roll012.ogg",10
Sample,89431,0,"d_tmb03.ogg",10
Sample,89431,0,"alpl2A.ogg",10
Sample,89431,0,"d_pc02.ogg",10
Sample,89469,0,"d_ht04.ogg",10
Sample,89545,0,"d_rdmclp.ogg",10
Sample,89545,0,"d_roll012.ogg",10
Sample,89545,0,"alpl3D+.ogg",10
Sample,89545,0,"d_sh03.ogg",10
Sample,89545,0,"d_tmb04.ogg",10
Sample,89545,0,"d_bd01.ogg",10
Sample,89545,0,"d_ht05.ogg",10
Sample,89659,0,"d_roll012.ogg",10
Sample,89659,0,"d_sh06.ogg",10
Sample,89659,0,"d_tmb03.ogg",10
Sample,89659,0,"alpl3D.ogg",10
Sample,89772,0,"d_tmb04.ogg",10
Sample,89772,0,"alpl2D.ogg",10
Sample,89772,0,"d_bd04.ogg",10
Sample,89772,0,"d_roll012.ogg",10
Sample,89772,0,"d_sh01.ogg",10
Sample,89772,0,"d_pc03.ogg",10
Sample,89772,0,"d_ht03.ogg",10
Sample,89886,0,"d_tmb02l.ogg",10
Sample,89886,0,"alpl3D.ogg",10
Sample,89886,0,"d_roll012.ogg",10
Sample,89886,0,"d_sh02.ogg",10
Sample,89924,0,"d_bd05.ogg",10
Sample,89924,0,"d_ht07.ogg",10
Sample,90000,0,"alpl2D.ogg",10
Sample,90000,0,"d_roll012.ogg",10
Sample,90000,0,"d_bd06.ogg",10
Sample,90000,0,"d_ht08.ogg",10
Sample,90000,0,"d_sh03.ogg",10
Sample,90113,0,"d_tmb10.ogg",10
Sample,90113,0,"alpl3D+.ogg",10
Sample,90113,0,"d_pc04.ogg",10
Sample,90113,0,"d_sh02.ogg",10
Sample,90113,0,"d_roll012.ogg",10
Sample,90227,0,"d_sh01.ogg",10
Sample,90227,0,"d_tmb04.ogg",10
Sample,90227,0,"bassa2D.ogg",10
Sample,90227,0,"d_ht03.ogg",10
Sample,90227,0,"d_bd07.ogg",10
Sample,90227,0,"alpl3D.ogg",10
Sample,90227,0,"d_roll012.ogg",10
Sample,90340,0,"d_roll012.ogg",10
Sample,90340,0,"alpl3F.ogg",10
Sample,90340,0,"d_pc05.ogg",10
Sample,90340,0,"d_sh12.ogg",10
Sample,90340,0,"d_tmb02.ogg",10
Sample,90378,0,"d_ht04.ogg",10
Sample,90454,0,"d_sh13.ogg",10
Sample,90454,0,"d_tmb03.ogg",10
Sample,90454,0,"d_bd06.ogg",10
Sample,90454,0,"alpl2D.ogg",10
Sample,90454,0,"d_ht05.ogg",10
Sample,90454,0,"d_roll012.ogg",10
Sample,90454,0,"d_rdmclp.ogg",10
Sample,90454,0,"d_pc06.ogg",10
Sample,90568,0,"d_sh14.ogg",10
Sample,90568,0,"d_tmb04.ogg",10
Sample,90568,0,"bassb2D.ogg",10
Sample,90568,0,"alpl3D+.ogg",10
Sample,90568,0,"d_roll012.ogg",10
Sample,90606,0,"d_ht12.ogg",10
Sample,90681,0,"d_ht03.ogg",10
Sample,90681,0,"d_sh01.ogg",10
Sample,90681,0,"d_pc07.ogg",10
Sample,90681,0,"alpl3A.ogg",10
Sample,90681,0,"d_roll012.ogg",10
Sample,90681,0,"d_bd09.ogg",10
Sample,90681,0,"d_tmb02.ogg",10
Sample,90795,0,"d_roll012.ogg",10
Sample,90795,0,"d_sh02.ogg",10
Sample,90833,0,"d_ht12.ogg",10
Sample,90909,0,"tb_2D.ogg",10
Sample,90909,0,"bassb2D.ogg",10
Sample,90909,0,"d_bd01.ogg",10
Sample,90909,0,"alpl3D.ogg",10
Sample,90909,0,"d_roll024.ogg",10
Sample,90909,0,"d_tmb03.ogg",10
Sample,90909,0,"d_ht01.ogg",10
Sample,90909,0,"d_sh17.ogg",10
Sample,90909,0,"d_pc08.ogg",10
Sample,91022,0,"d_tmb04.ogg",10
Sample,91022,0,"d_roll024.ogg",10
Sample,91022,0,"d_sh12.ogg",10
Sample,91060,0,"d_ht02.ogg",10
Sample,91136,0,"bassa2D.ogg",10
Sample,91136,0,"alpl2D.ogg",10
Sample,91136,0,"d_tmb01.ogg",10
Sample,91136,0,"d_bd02.ogg",10
Sample,91136,0,"d_ht03.ogg",10
Sample,91136,0,"d_roll024.ogg",10
Sample,91136,0,"d_sh13.ogg",10
Sample,91250,0,"d_pc09.ogg",10
Sample,91250,0,"bassb2G.ogg",10
Sample,91250,0,"d_tmb03.ogg",10
Sample,91250,0,"d_roll024.ogg",10
Sample,91250,0,"d_sh14.ogg",10
Sample,91250,0,"alpl2A.ogg",10
Sample,91287,0,"d_ht04.ogg",10
Sample,91363,0,"d_ht05.ogg",10
Sample,91363,0,"d_rdmclp.ogg",10
Sample,91363,0,"d_sh03.ogg",10
Sample,91363,0,"alpl3D+.ogg",10
Sample,91363,0,"d_bd01.ogg",10
Sample,91363,0,"d_tmb04.ogg",10
Sample,91363,0,"d_roll024.ogg",10
Sample,91477,0,"d_tmb02.ogg",10
Sample,91477,0,"alpl3D.ogg",10
Sample,91477,0,"d_sh02.ogg",10
Sample,91477,0,"d_roll024.ogg",10
Sample,91590,0,"d_sh01.ogg",10
Sample,91590,0,"px02-3G.ogg",10
Sample,91590,0,"d_ht03.ogg",10
Sample,91590,0,"bassa2D.ogg",10
Sample,91590,0,"d_tmb03.ogg",10
Sample,91590,0,"d_roll024.ogg",10
Sample,91590,0,"d_bd04.ogg",10
Sample,91590,0,"d_pc10.ogg",10
Sample,91590,0,"alpl2D.ogg",10
Sample,91704,0,"d_tmb10.ogg",10
Sample,91704,0,"bassa2D.ogg",10
Sample,91704,0,"alpl3D.ogg",10
Sample,91704,0,"d_roll024.ogg",10
Sample,91704,0,"px02-3A.ogg",10
Sample,91704,0,"d_sh12.ogg",10
Sample,91742,0,"d_ht07.ogg",10
Sample,91742,0,"d_bd05.ogg",10
Sample,91818,0,"d_bd06.ogg",10
Sample,91818,0,"px02-3A+.ogg",10
Sample,91818,0,"d_ht08.ogg",10
Sample,91818,0,"alpl2D.ogg",10
Sample,91818,0,"d_sh13.ogg",10
Sample,91818,0,"d_roll024.ogg",10
Sample,91818,0,"bassb2F.ogg",10
Sample,91818,0,"d_tmb02l.ogg",10
Sample,91818,0,"d_pc11.ogg",10
Sample,91931,0,"alpl3D+.ogg",10
Sample,91931,0,"d_sh14.ogg",10
Sample,91931,0,"d_roll024.ogg",10
Sample,91969,0,"d_ht12.ogg",10
Sample,92045,0,"bassa2D.ogg",10
Sample,92045,0,"d_bd07.ogg",10
Sample,92045,0,"d_ht03.ogg",10
Sample,92045,0,"d_roll036.ogg",10
Sample,92045,0,"px02-3A.ogg",10
Sample,92045,0,"d_sh17.ogg",10
Sample,92045,0,"alpl3D.ogg",10
Sample,92045,0,"d_tmb03.ogg",10
Sample,92159,0,"d_sh12.ogg",10
Sample,92159,0,"alpl3F.ogg",10
Sample,92159,0,"d_tmb04.ogg",10
Sample,92159,0,"bassb2E.ogg",10
Sample,92159,0,"d_pc12.ogg",10
Sample,92159,0,"d_roll036.ogg",10
Sample,92196,0,"d_ht25.ogg",10
Sample,92272,0,"d_rdmclp.ogg",10
Sample,92272,0,"px02-3G.ogg",10
Sample,92272,0,"alpl2D.ogg",10
Sample,92272,0,"d_roll036.ogg",10
Sample,92272,0,"d_sh13.ogg",10
Sample,92272,0,"d_ht26.ogg",10
Sample,92272,0,"d_tmb03.ogg",10
Sample,92272,0,"d_bd06.ogg",10
Sample,92386,0,"bassa2D+.ogg",10
Sample,92386,0,"alpl3D+.ogg",10
Sample,92386,0,"d_tmb04.ogg",10
Sample,92386,0,"d_sh14.ogg",10
Sample,92386,0,"d_roll036.ogg",10
Sample,92424,0,"d_ht27.ogg",10
Sample,92500,0,"d_roll036.ogg",10
Sample,92500,0,"px02-4F.ogg",10
Sample,92500,0,"bassb2D.ogg",10
Sample,92500,0,"d_ht03.ogg",10
Sample,92500,0,"d_pc13.ogg",10
Sample,92500,0,"d_bd09.ogg",10
Sample,92500,0,"d_sh17.ogg",10
Sample,92500,0,"alpl3A.ogg",10
Sample,92500,0,"d_tmb03.ogg",10
Sample,92613,0,"d_sh14.ogg",10
Sample,92613,0,"d_roll036.ogg",10
Sample,92613,0,"d_tmb10.ogg",10
Sample,92651,0,"d_ht29.ogg",10
Sample,92727,0,"d_sh01.ogg",10
Sample,92727,0,"px10-4A.ogg",10
Sample,92727,0,"bassb2D.ogg",10
Sample,92727,0,"d_ht01.ogg",10
Sample,92727,0,"px10-3A.ogg",10
Sample,92727,0,"d_roll036.ogg",10
Sample,92727,0,"tb_2D.ogg",10
Sample,92727,0,"d_tmb02.ogg",10
Sample,92727,0,"d_pc01.ogg",10
Sample,92727,0,"alpl3D.ogg",10
Sample,92727,0,"d_bd01.ogg",10
Sample,92727,0,"psbF.ogg",10
Sample,92840,0,"d_roll036.ogg",10
Sample,92840,0,"d_tmb03.ogg",10
Sample,92840,0,"d_sh02.ogg",10
Sample,92878,0,"d_ht02.ogg",10
Sample,92954,0,"bassa2D.ogg",10
Sample,92954,0,"alpl2D.ogg",10
Sample,92954,0,"d_bd02.ogg",10
Sample,92954,0,"d_ht03.ogg",10
Sample,92954,0,"d_roll036.ogg",10
Sample,92954,0,"d_sh03.ogg",10
Sample,92954,0,"d_tmb04.ogg",10
Sample,93068,0,"d_sh02.ogg",10
Sample,93068,0,"alpl2A.ogg",10
Sample,93068,0,"d_tmb03.ogg",10
Sample,93068,0,"d_roll036.ogg",10
Sample,93068,0,"d_pc02.ogg",10
Sample,93068,0,"bassb2G.ogg",10
Sample,93106,0,"d_ht04.ogg",10
Sample,93181,0,"alpl3D+.ogg",10
Sample,93181,0,"d_sh03.ogg",10
Sample,93181,0,"d_rdmclp.ogg",10
Sample,93181,0,"d_roll036.ogg",10
Sample,93181,0,"d_bd01.ogg",10
Sample,93181,0,"d_tmb04.ogg",10
Sample,93181,0,"d_ht05.ogg",10
Sample,93295,0,"d_sh06.ogg",10
Sample,93295,0,"d_tmb03.ogg",10
Sample,93295,0,"alpl3D.ogg",10
Sample,93295,0,"d_roll036.ogg",10
Sample,93409,0,"alpl2D.ogg",10
Sample,93409,0,"d_pc03.ogg",10
Sample,93409,0,"d_sh01.ogg",10
Sample,93409,0,"d_ht03.ogg",10
Sample,93409,0,"d_bd04.ogg",10
Sample,93409,0,"d_tmb10.ogg",10
Sample,93409,0,"d_roll036.ogg",10
Sample,93522,0,"d_sh02.ogg",10
Sample,93522,0,"d_roll036.ogg",10
Sample,93522,0,"alpl3D.ogg",10
Sample,93522,0,"d_tmb02.ogg",10
Sample,93560,0,"d_bd05.ogg",10
Sample,93560,0,"d_ht07.ogg",10
Sample,93636,0,"d_roll048.ogg",10
Sample,93636,0,"d_bd06.ogg",10
Sample,93636,0,"alpl2D.ogg",10
Sample,93636,0,"d_ht08.ogg",10
Sample,93636,0,"d_sh03.ogg",10
Sample,93636,0,"d_tmb03.ogg",10
Sample,93750,0,"alpl3D+.ogg",10
Sample,93750,0,"d_roll048.ogg",10
Sample,93750,0,"d_tmb04.ogg",10
Sample,93750,0,"d_sh02.ogg",10
Sample,93750,0,"d_pc04.ogg",10
Sample,93863,0,"d_roll048.ogg",10
Sample,93863,0,"alpl3D.ogg",10
Sample,93863,0,"d_tmb03.ogg",10
Sample,93863,0,"fx02.ogg",100
Sample,93863,0,"d_ht03.ogg",10
Sample,93863,0,"d_bd07.ogg",10
Sample,93863,0,"d_sh01.ogg",10
Sample,93863,0,"bassa2D.ogg",10
Sample,93977,0,"alpl3F.ogg",10
Sample,93977,0,"d_roll048.ogg",10
Sample,93977,0,"d_pc05.ogg",10
Sample,93977,0,"d_tmb02.ogg",10
Sample,93977,0,"d_sh12.ogg",10
Sample,94015,0,"d_ht04.ogg",10
Sample,94090,0,"d_tmb03.ogg",10
Sample,94090,0,"alpl2D.ogg",10
Sample,94090,0,"d_roll048.ogg",10
Sample,94090,0,"d_bd06.ogg",10
Sample,94090,0,"d_pc06.ogg",10
Sample,94090,0,"d_rdmclp.ogg",10
Sample,94090,0,"d_ht05.ogg",10
Sample,94090,0,"d_sh13.ogg",10
Sample,94204,0,"d_sh14.ogg",10
Sample,94204,0,"d_tmb04.ogg",10
Sample,94204,0,"d_roll048.ogg",10
Sample,94204,0,"alpl3D+.ogg",10
Sample,94204,0,"bassb2D.ogg",10
Sample,94242,0,"d_ht12.ogg",10
Sample,94318,0,"d_bd09.ogg",10
Sample,94318,0,"d_sh01.ogg",10
Sample,94318,0,"d_tmb03.ogg",10
Sample,94318,0,"alpl3A.ogg",10
Sample,94318,0,"px02-4G.ogg",10
Sample,94318,0,"d_ht03.ogg",10
Sample,94318,0,"d_pc07.ogg",10
Sample,94318,0,"d_roll048.ogg",10
Sample,94431,0,"d_tmb10.ogg",10
Sample,94431,0,"d_roll048.ogg",10
Sample,94431,0,"d_sh02.ogg",10
Sample,94469,0,"d_ht12.ogg",10
Sample,94545,0,"tb_2D.ogg",10
Sample,94545,0,"alpl3D.ogg",10
Sample,94545,0,"d_bd01.ogg",10
Sample,94545,0,"px10-4D.ogg",10
Sample,94545,0,"d_tmb03.ogg",10
Sample,94545,0,"d_ht01.ogg",10
Sample,94545,0,"d_pc08.ogg",10
Sample,94545,0,"d_sh17.ogg",10
Sample,94545,0,"bassb2D.ogg",10
Sample,94545,0,"d_roll048.ogg",10
Sample,94659,0,"d_tmb04.ogg",10
Sample,94659,0,"d_roll048.ogg",10
Sample,94659,0,"d_sh12.ogg",10
Sample,94696,0,"d_ht02.ogg",10
Sample,94772,0,"d_bd02.ogg",10
Sample,94772,0,"d_tmb01.ogg",10
Sample,94772,0,"d_roll048.ogg",10
Sample,94772,0,"d_ht03.ogg",10
Sample,94772,0,"bassa2D.ogg",10
Sample,94772,0,"d_sh13.ogg",10
Sample,94772,0,"alpl2D.ogg",10
Sample,94886,0,"d_pc09.ogg",10
Sample,94886,0,"d_tmb04.ogg",10
Sample,94886,0,"bassb2G.ogg",10
Sample,94886,0,"d_sh14.ogg",10
Sample,94886,0,"alpl2A.ogg",10
Sample,94886,0,"d_roll048.ogg",10
Sample,94924,0,"d_ht04.ogg",10
Sample,95000,0,"d_roll048.ogg",10
Sample,95000,0,"d_tmb03.ogg",10
Sample,95000,0,"d_ht05.ogg",10
Sample,95000,0,"d_rdmclp.ogg",10
Sample,95000,0,"d_sh03.ogg",10
Sample,95000,0,"d_bd01.ogg",10
Sample,95000,0,"alpl3D+.ogg",10
Sample,95113,0,"alpl3D.ogg",10
Sample,95113,0,"d_sh02.ogg",10
Sample,95113,0,"d_roll048.ogg",10
Sample,95113,0,"d_tmb02.ogg",10
Sample,95227,0,"d_bd04.ogg",10
Sample,95227,0,"d_sh01.ogg",10
Sample,95227,0,"d_pc10.ogg",10
Sample,95227,0,"d_tmb03.ogg",10
Sample,95227,0,"d_ht03.ogg",10
Sample,95227,0,"bassa2D.ogg",10
Sample,95227,0,"d_roll060.ogg",10
Sample,95227,0,"alpl2D.ogg",10
Sample,95340,0,"alpl3D.ogg",10
Sample,95340,0,"d_roll060.ogg",10
Sample,95340,0,"d_tmb04.ogg",10
Sample,95340,0,"bassa2D.ogg",10
Sample,95340,0,"d_sh12.ogg",10
Sample,95378,0,"d_ht07.ogg",10
Sample,95378,0,"d_bd05.ogg",10
Sample,95454,0,"bassb2F.ogg",10
Sample,95454,0,"d_bd06.ogg",10
Sample,95454,0,"d_tmb03.ogg",10
Sample,95454,0,"alpl2D.ogg",10
Sample,95454,0,"d_pc11.ogg",10
Sample,95454,0,"d_sh13.ogg",10
Sample,95454,0,"d_ht08.ogg",10
Sample,95454,0,"d_roll060.ogg",10
Sample,95568,0,"alpl3D+.ogg",10
Sample,95568,0,"d_roll060.ogg",10
Sample,95568,0,"d_sh14.ogg",10
Sample,95568,0,"d_tmb04.ogg",10
Sample,95606,0,"d_ht12.ogg",10
Sample,95681,0,"d_ht03.ogg",10
Sample,95681,0,"px02-4A+.ogg",10
Sample,95681,0,"d_roll060.ogg",10
Sample,95681,0,"d_sh17.ogg",10
Sample,95681,0,"d_tmb02.ogg",10
Sample,95681,0,"bassa2D.ogg",10
Sample,95681,0,"d_bd07.ogg",10
Sample,95681,0,"alpl3D.ogg",10
Sample,95795,0,"d_tmb10.ogg",10
Sample,95795,0,"bassb2E.ogg",10
Sample,95795,0,"d_pc12.ogg",10
Sample,95795,0,"d_roll060.ogg",10
Sample,95795,0,"alpl3F.ogg",10
Sample,95795,0,"d_sh12.ogg",10
Sample,95833,0,"d_ht25.ogg",10
Sample,95909,0,"d_ht26.ogg",10
Sample,95909,0,"px02-4A.ogg",10
Sample,95909,0,"d_bd06.ogg",10
Sample,95909,0,"d_rdmclp.ogg",10
Sample,95909,0,"alpl4D.ogg",10
Sample,95909,0,"d_tmb03.ogg",10
Sample,95909,0,"d_roll060.ogg",10
Sample,95909,0,"d_sh13.ogg",10
Sample,96022,0,"d_tmb01.ogg",10
Sample,96022,0,"bassa2D+.ogg",10
Sample,96022,0,"d_sh14.ogg",10
Sample,96022,0,"alpl3A.ogg",10
Sample,96022,0,"d_roll060.ogg",10
Sample,96060,0,"d_ht27.ogg",10
Sample,96136,0,"bassb2D.ogg",10
Sample,96136,0,"d_roll060.ogg",10
Sample,96136,0,"d_ht03.ogg",10
Sample,96136,0,"alpl3D+.ogg",10
Sample,96136,0,"d_sh17.ogg",10
Sample,96136,0,"d_bd09.ogg",10
Sample,96136,0,"brs_1C+.ogg",100
Sample,96136,0,"px02-4G.ogg",10
Sample,96136,0,"d_pc13.ogg",10
Sample,96136,0,"d_tmb03.ogg",10
Sample,96250,0,"alpl2D.ogg",10
Sample,96250,0,"d_tmb04.ogg",10
Sample,96250,0,"d_roll060.ogg",10
Sample,96250,0,"d_sh14.ogg",10
Sample,96287,0,"d_ht29.ogg",10
Sample,96363,0,"px10-5D.ogg",10
Sample,96363,0,"d_roll060.ogg",10
Sample,96363,0,"d_sh01.ogg",10
Sample,96363,0,"bgm08.ogg",10
Sample,96363,0,"d_pc01.ogg",10
Sample,96363,0,"tb_1A+.ogg",10
Sample,96363,0,"d_tmb02.ogg",10
Sample,96363,0,"psbD+.ogg",10
Sample,96363,0,"alpl2A+.ogg",10
Sample,96363,0,"d_bd01.ogg",10
Sample,96363,0,"brs_2D.ogg",100
Sample,96363,0,"px10-4G.ogg",10
Sample,96363,0,"px10-4A+.ogg",10
Sample,96363,0,"px10-3G.ogg",10
Sample,96363,0,"d_ht01.ogg",10
Sample,96363,0,"bassb1A+.ogg",10
Sample,96477,0,"d_tmb03.ogg",10
Sample,96477,0,"d_sh02.ogg",10
Sample,96477,0,"alpl3A+.ogg",10
Sample,96477,0,"d_roll060.ogg",10
Sample,96515,0,"d_ht02.ogg",10
Sample,96590,0,"alpl1A+.ogg",10
Sample,96590,0,"d_tmb04.ogg",10
Sample,96590,0,"d_ht03.ogg",10
Sample,96590,0,"d_roll060.ogg",10
Sample,96590,0,"d_sh03.ogg",10
Sample,96590,0,"bassa1A+.ogg",10
Sample,96590,0,"d_bd02.ogg",10
Sample,96704,0,"alpl2F.ogg",10
Sample,96704,0,"d_roll060.ogg",10
Sample,96704,0,"bassb2A+.ogg",10
Sample,96704,0,"d_sh02.ogg",10
Sample,96704,0,"d_tmb03.ogg",10
Sample,96704,0,"d_pc02.ogg",10
Sample,96742,0,"d_ht04.ogg",10
Sample,96818,0,"alpl3C.ogg",10
Sample,96818,0,"d_bd01.ogg",10
Sample,96818,0,"d_sh03.ogg",10
Sample,96818,0,"d_rdmclp.ogg",10
Sample,96818,0,"d_ht05.ogg",10
Sample,96818,0,"d_roll072.ogg",10
Sample,96931,0,"d_tmb04.ogg",10
Sample,96931,0,"d_roll072.ogg",10
Sample,96931,0,"alpl2A+.ogg",10
Sample,96931,0,"d_sh06.ogg",10
Sample,97045,0,"d_pc03.ogg",10
Sample,97045,0,"d_tmb03.ogg",10
Sample,97045,0,"d_bd04.ogg",10
Sample,97045,0,"alpl1A+.ogg",10
Sample,97045,0,"d_roll072.ogg",10
Sample,97045,0,"d_sh01.ogg",10
Sample,97045,0,"d_ht03.ogg",10
Sample,97159,0,"d_tmb02l.ogg",10
Sample,97159,0,"d_sh02.ogg",10
Sample,97159,0,"d_roll072.ogg",10
Sample,97159,0,"alpl2A+.ogg",10
Sample,97196,0,"d_bd05.ogg",10
Sample,97196,0,"d_ht07.ogg",10
Sample,97272,0,"d_roll072.ogg",10
Sample,97272,0,"d_sh03.ogg",10
Sample,97272,0,"d_ht08.ogg",10
Sample,97272,0,"alpl1A+.ogg",10
Sample,97272,0,"d_bd06.ogg",10
Sample,97386,0,"d_sh02.ogg",10
Sample,97386,0,"alpl3C.ogg",10
Sample,97386,0,"d_pc04.ogg",10
Sample,97386,0,"d_tmb10.ogg",10
Sample,97386,0,"d_roll072.ogg",10
Sample,97500,0,"d_roll072.ogg",10
Sample,97500,0,"d_sh01.ogg",10
Sample,97500,0,"d_bd07.ogg",10
Sample,97500,0,"alpl2A+.ogg",10
Sample,97500,0,"d_tmb04.ogg",10
Sample,97500,0,"d_ht03.ogg",10
Sample,97500,0,"bassa2A.ogg",10
Sample,97613,0,"d_sh12.ogg",10
Sample,97613,0,"d_roll072.ogg",10
Sample,97613,0,"alpl3D.ogg",10
Sample,97613,0,"d_tmb02.ogg",10
Sample,97613,0,"d_pc05.ogg",10
Sample,97651,0,"d_ht04.ogg",10
Sample,97727,0,"px04-3A+.ogg",10
Sample,97727,0,"d_rdmclp.ogg",10
Sample,97727,0,"d_bd06.ogg",10
Sample,97727,0,"d_ht05.ogg",10
Sample,97727,0,"d_sh13.ogg",10
Sample,97727,0,"d_roll072.ogg",10
Sample,97727,0,"d_tmb03.ogg",10
Sample,97727,0,"d_pc06.ogg",10
Sample,97727,0,"alpl1A+.ogg",10
Sample,97840,0,"d_sh14.ogg",10
Sample,97840,0,"d_roll072.ogg",10
Sample,97840,0,"bassb2A.ogg",10
Sample,97840,0,"d_tmb04.ogg",10
Sample,97840,0,"alpl3C.ogg",10
Sample,97878,0,"d_ht12.ogg",10
Sample,97954,0,"d_ht03.ogg",10
Sample,97954,0,"d_tmb02.ogg",10
Sample,97954,0,"d_bd09.ogg",10
Sample,97954,0,"d_sh01.ogg",10
Sample,97954,0,"alpl3F.ogg",10
Sample,97954,0,"d_roll072.ogg",10
Sample,97954,0,"d_pc07.ogg",10
Sample,98068,0,"d_sh02.ogg",10
Sample,98068,0,"d_roll072.ogg",10
Sample,98106,0,"d_ht12.ogg",10
Sample,98181,0,"px10-3A.ogg",10
Sample,98181,0,"d_bd01.ogg",10
Sample,98181,0,"alpl2A+.ogg",10
Sample,98181,0,"bassb1A+.ogg",10
Sample,98181,0,"d_pc08.ogg",10
Sample,98181,0,"tb_1A+.ogg",10
Sample,98181,0,"d_sh17.ogg",10
Sample,98181,0,"d_ht01.ogg",10
Sample,98181,0,"d_tmb03.ogg",10
Sample,98181,0,"d_roll072.ogg",10
Sample,98295,0,"d_sh12.ogg",10
Sample,98295,0,"d_tmb04.ogg",10
Sample,98295,0,"d_roll072.ogg",10
Sample,98333,0,"d_ht02.ogg",10
Sample,98409,0,"bassa1A+.ogg",10
Sample,98409,0,"d_bd02.ogg",10
Sample,98409,0,"d_sh13.ogg",10
Sample,98409,0,"d_roll084.ogg",10
Sample,98409,0,"alpl1A+.ogg",10
Sample,98409,0,"d_ht03.ogg",10
Sample,98409,0,"d_tmb02.ogg",10
Sample,98409,0,"fxp03.ogg",10
Sample,98522,0,"bassb2A+.ogg",10
Sample,98522,0,"d_sh14.ogg",10
Sample,98522,0,"alpl2F.ogg",10
Sample,98522,0,"d_roll084.ogg",10
Sample,98522,0,"d_pc09.ogg",10
Sample,98522,0,"d_tmb03.ogg",10
Sample,98560,0,"d_ht04.ogg",10
Sample,98636,0,"d_sh03.ogg",10
Sample,98636,0,"d_tmb10.ogg",10
Sample,98636,0,"d_bd01.ogg",10
Sample,98636,0,"alpl3C.ogg",10
Sample,98636,0,"d_rdmclp.ogg",10
Sample,98636,0,"d_ht05.ogg",10
Sample,98636,0,"d_roll084.ogg",10
Sample,98750,0,"d_sh02.ogg",10
Sample,98750,0,"alpl2A+.ogg",10
Sample,98750,0,"d_tmb01.ogg",10
Sample,98750,0,"d_roll084.ogg",10
Sample,98863,0,"d_sh01.ogg",10
Sample,98863,0,"d_roll084.ogg",10
Sample,98863,0,"d_tmb03.ogg",10
Sample,98863,0,"pxex-4EF.ogg",10
Sample,98863,0,"d_bd04.ogg",10
Sample,98863,0,"d_pc10.ogg",10
Sample,98863,0,"alpl1A+.ogg",10
Sample,98863,0,"d_ht03.ogg",10
Sample,98863,0,"bassa1A+.ogg",10
Sample,98977,0,"d_roll084.ogg",10
Sample,98977,0,"alpl2A+.ogg",10
Sample,98977,0,"d_sh12.ogg",10
Sample,98977,0,"d_tmb04.ogg",10
Sample,98977,0,"bassa1A+.ogg",10
Sample,99015,0,"d_bd05.ogg",10
Sample,99015,0,"d_ht07.ogg",10
Sample,99090,0,"d_roll084.ogg",10
Sample,99090,0,"d_ht08.ogg",10
Sample,99090,0,"d_pc11.ogg",10
Sample,99090,0,"d_tmb02l.ogg",10
Sample,99090,0,"d_sh13.ogg",10
Sample,99090,0,"alpl1A+.ogg",10
Sample,99090,0,"bassb2G+.ogg",10
Sample,99090,0,"d_bd06.ogg",10
Sample,99204,0,"alpl3C.ogg",10
Sample,99204,0,"d_roll084.ogg",10
Sample,99204,0,"d_sh14.ogg",10
Sample,99242,0,"d_ht12.ogg",10
Sample,99318,0,"d_ht03.ogg",10
Sample,99318,0,"d_tmb03.ogg",10
Sample,99318,0,"bassa1A+.ogg",10
Sample,99318,0,"d_roll084.ogg",10
Sample,99318,0,"px02-3A.ogg",10
Sample,99318,0,"d_bd07.ogg",10
Sample,99318,0,"d_sh17.ogg",10
Sample,99318,0,"alpl2A+.ogg",10
Sample,99431,0,"d_sh12.ogg",10
Sample,99431,0,"alpl3D.ogg",10
Sample,99431,0,"bassb2G.ogg",10
Sample,99431,0,"d_roll084.ogg",10
Sample,99431,0,"d_pc12.ogg",10
Sample,99431,0,"d_tmb10.ogg",10
Sample,99469,0,"d_ht25.ogg",10
Sample,99545,0,"d_tmb03.ogg",10
Sample,99545,0,"d_bd06.ogg",10
Sample,99545,0,"alpl1A+.ogg",10
Sample,99545,0,"px02-3A+.ogg",10
Sample,99545,0,"d_ht26.ogg",10
Sample,99545,0,"d_rdmclp.ogg",10
Sample,99545,0,"d_sh13.ogg",10
Sample,99545,0,"d_roll084.ogg",10
Sample,99659,0,"d_sh14.ogg",10
Sample,99659,0,"d_tmb04.ogg",10
Sample,99659,0,"d_roll084.ogg",10
Sample,99659,0,"bassa1A+.ogg",10
Sample,99659,0,"alpl3C.ogg",10
Sample,99696,0,"d_ht27.ogg",10
Sample,99772,0,"d_ht03.ogg",10
Sample,99772,0,"px02-4C.ogg",10
Sample,99772,0,"alpl3F.ogg",10
Sample,99772,0,"d_sh17.ogg",10
Sample,99772,0,"bassb2F.ogg",10
Sample,99772,0,"d_tmb03.ogg",10
Sample,99772,0,"d_bd09.ogg",10
Sample,99772,0,"d_pc13.ogg",10
Sample,99772,0,"d_roll096.ogg",10
Sample,99886,0,"d_tmb04.ogg",10
Sample,99886,0,"d_roll096.ogg",10
Sample,99886,0,"d_sh14.ogg",10
Sample,99924,0,"d_ht29.ogg",10
Sample,100000,0,"alpl2A+.ogg",10
Sample,100000,0,"bassb1A+.ogg",10
Sample,100000,0,"d_pc01.ogg",10
Sample,100000,0,"tb_1A+.ogg",10
Sample,100000,0,"d_ht01.ogg",10
Sample,100000,0,"d_sh01.ogg",10
Sample,100000,0,"d_tmb01.ogg",10
Sample,100000,0,"psbD.ogg",10
Sample,100000,0,"d_roll096.ogg",10
Sample,100000,0,"d_bd01.ogg",10
Sample,100113,0,"d_sh02.ogg",10
Sample,100113,0,"d_roll096.ogg",10
Sample,100151,0,"d_ht02.ogg",10
Sample,100227,0,"alpl1A+.ogg",10
Sample,100227,0,"bassa1A+.ogg",10
Sample,100227,0,"d_sh03.ogg",10
Sample,100227,0,"d_tmb02.ogg",10
Sample,100227,0,"d_ht03.ogg",10
Sample,100227,0,"d_bd02.ogg",10
Sample,100227,0,"d_roll096.ogg",10
Sample,100340,0,"bassb2A+.ogg",10
Sample,100340,0,"alpl2F.ogg",10
Sample,100340,0,"d_pc02.ogg",10
Sample,100340,0,"d_sh02.ogg",10
Sample,100340,0,"d_tmb03.ogg",10
Sample,100340,0,"d_roll096.ogg",10
Sample,100378,0,"d_ht04.ogg",10
Sample,100454,0,"d_tmb10.ogg",10
Sample,100454,0,"d_bd01.ogg",10
Sample,100454,0,"d_ht05.ogg",10
Sample,100454,0,"d_sh03.ogg",10
Sample,100454,0,"d_rdmclp.ogg",10
Sample,100454,0,"d_roll096.ogg",10
Sample,100454,0,"alpl3C.ogg",10
Sample,100568,0,"d_sh06.ogg",10
Sample,100568,0,"d_tmb03.ogg",10
Sample,100568,0,"alpl2A+.ogg",10
Sample,100568,0,"d_roll096.ogg",10
Sample,100681,0,"d_roll096.ogg",10
Sample,100681,0,"d_tmb04.ogg",10
Sample,100681,0,"d_bd04.ogg",10
Sample,100681,0,"d_pc03.ogg",10
Sample,100681,0,"alpl1A+.ogg",10
Sample,100681,0,"d_sh01.ogg",10
Sample,100681,0,"d_ht03.ogg",10
Sample,100795,0,"d_sh02.ogg",10
Sample,100795,0,"alpl2A+.ogg",10
Sample,100795,0,"d_tmb03.ogg",10
Sample,100795,0,"d_roll096.ogg",10
Sample,100833,0,"d_ht07.ogg",10
Sample,100833,0,"d_bd05.ogg",10
Sample,100909,0,"d_bd06.ogg",10
Sample,100909,0,"d_sh03.ogg",10
Sample,100909,0,"d_tmb04.ogg",10
Sample,100909,0,"d_rollb096.ogg",10
Sample,100909,0,"alpl1A+.ogg",10
Sample,100909,0,"d_ht08.ogg",10
Sample,100984,0,"d_rollb096.ogg",10
Sample,101022,0,"d_pc04.ogg",10
Sample,101022,0,"d_tmb01.ogg",10
Sample,101022,0,"alpl3C.ogg",10
Sample,101022,0,"d_sh02.ogg",10
Sample,101060,0,"d_rollb096.ogg",10
Sample,101136,0,"bassa2A.ogg",10
Sample,101136,0,"d_bd07.ogg",10
Sample,101136,0,"alpl2A+.ogg",10
Sample,101136,0,"d_ht03.ogg",10
Sample,101136,0,"d_tmb10.ogg",10
Sample,101136,0,"d_roll096.ogg",10
Sample,101136,0,"d_sh01.ogg",10
Sample,101250,0,"d_tmb04.ogg",10
Sample,101250,0,"d_pc05.ogg",10
Sample,101250,0,"alpl3D.ogg",10
Sample,101250,0,"d_roll096.ogg",10
Sample,101250,0,"d_sh12.ogg",10
Sample,101287,0,"d_ht04.ogg",10
Sample,101363,0,"d_bd06.ogg",10
Sample,101363,0,"d_roll096.ogg",10
Sample,101363,0,"d_tmb03.ogg",10
Sample,101363,0,"d_rdmclp.ogg",10
Sample,101363,0,"d_ht05.ogg",10
Sample,101363,0,"d_sh13.ogg",10
Sample,101363,0,"alpl1A+.ogg",10
Sample,101363,0,"d_pc06.ogg",10
Sample,101477,0,"d_roll096.ogg",10
Sample,101477,0,"d_sh14.ogg",10
Sample,101477,0,"d_tmb02.ogg",10
Sample,101477,0,"bassb2A.ogg",10
Sample,101477,0,"alpl3C.ogg",10
Sample,101515,0,"d_ht12.ogg",10
Sample,101590,0,"alpl3F.ogg",10
Sample,101590,0,"d_ht03.ogg",10
Sample,101590,0,"d_sh01.ogg",10
Sample,101590,0,"d_bd09.ogg",10
Sample,101590,0,"d_pc07.ogg",10
Sample,101590,0,"d_roll096.ogg",10
Sample,101590,0,"d_tmb03.ogg",10
Sample,101704,0,"d_roll096.ogg",10
Sample,101704,0,"d_tmb04.ogg",10
Sample,101704,0,"d_sh02.ogg",10
Sample,101742,0,"d_ht12.ogg",10
Sample,101818,0,"d_rollb096.ogg",10
Sample,101818,0,"bassb1A+.ogg",10
Sample,101818,0,"alpl2A+.ogg",10
Sample,101818,0,"tb_1A+.ogg",10
Sample,101818,0,"d_bd01.ogg",10
Sample,101818,0,"d_pc08.ogg",10
Sample,101818,0,"d_tmb02.ogg",10
Sample,101818,0,"d_sh17.ogg",10
Sample,101818,0,"d_ht01.ogg",10
Sample,101893,0,"d_rollb096.ogg",10
Sample,101931,0,"d_sh12.ogg",10
Sample,101931,0,"d_tmb03.ogg",10
Sample,101969,0,"d_rollb096.ogg",10
Sample,101969,0,"d_ht02.ogg",10
Sample,102045,0,"bassa1A+.ogg",10
Sample,102045,0,"d_sh13.ogg",10
Sample,102045,0,"d_bd02.ogg",10
Sample,102045,0,"d_tmb04.ogg",10
Sample,102045,0,"d_roll096.ogg",10
Sample,102045,0,"d_ht03.ogg",10
Sample,102045,0,"alpl1A+.ogg",10
Sample,102159,0,"bassb2A+.ogg",10
Sample,102159,0,"d_pc09.ogg",10
Sample,102159,0,"d_sh14.ogg",10
Sample,102159,0,"alpl2F.ogg",10
Sample,102159,0,"d_roll096.ogg",10
Sample,102159,0,"d_tmb02.ogg",10
Sample,102196,0,"d_ht04.ogg",10
Sample,102272,0,"alpl3C.ogg",10
Sample,102272,0,"d_roll096.ogg",10
Sample,102272,0,"d_bd01.ogg",10
Sample,102272,0,"d_rdmclp.ogg",10
Sample,102272,0,"d_ht05.ogg",10
Sample,102272,0,"d_sh03.ogg",10
Sample,102272,0,"d_tmb03.ogg",10
Sample,102386,0,"d_sh02.ogg",10
Sample,102386,0,"d_roll096.ogg",10
Sample,102386,0,"alpl2A+.ogg",10
Sample,102386,0,"d_tmb10.ogg",10
Sample,102500,0,"d_sh01.ogg",10
Sample,102500,0,"d_pc10.ogg",10
Sample,102500,0,"alpl1A+.ogg",10
Sample,102500,0,"d_tmb01.ogg",10
Sample,102500,0,"d_ht03.ogg",10
Sample,102500,0,"d_roll096.ogg",10
Sample,102500,0,"bassb1A+.ogg",10
Sample,102500,0,"d_bd04.ogg",10
Sample,102613,0,"d_roll096.ogg",10
Sample,102613,0,"d_tmb03.ogg",10
Sample,102613,0,"d_sh12.ogg",10
Sample,102613,0,"alpl2A+.ogg",10
Sample,102651,0,"d_bd05.ogg",10
Sample,102651,0,"d_ht07.ogg",10
Sample,102727,0,"d_bd06.ogg",10
Sample,102727,0,"d_tmb04.ogg",10
Sample,102727,0,"d_ht08.ogg",10
Sample,102727,0,"bassb1G+.ogg",10
Sample,102727,0,"alpl1A+.ogg",10
Sample,102727,0,"d_pc11.ogg",10
Sample,102727,0,"d_rollb096.ogg",10
Sample,102727,0,"d_sh13.ogg",10
Sample,102803,0,"d_rollb096.ogg",10
Sample,102840,0,"d_tmb02.ogg",10
Sample,102840,0,"alpl2A+.ogg",10
Sample,102840,0,"d_sh14.ogg",10
Sample,102878,0,"d_rollb096.ogg",10
Sample,102878,0,"d_ht12.ogg",10
Sample,102954,0,"d_tmb03.ogg",10
Sample,102954,0,"bassb3C.ogg",10
Sample,102954,0,"alpl3D.ogg",10
Sample,102954,0,"d_bd07.ogg",10
Sample,102954,0,"d_sh17.ogg",10
Sample,102954,0,"d_ht03.ogg",10
Sample,102954,0,"d_rollb096.ogg",10
Sample,103030,0,"d_rollb096.ogg",10
Sample,103068,0,"alpl3F.ogg",10
Sample,103068,0,"d_sh12.ogg",10
Sample,103068,0,"d_pc12.ogg",10
Sample,103068,0,"d_tmb02.ogg",10
Sample,103106,0,"d_ht25.ogg",10
Sample,103106,0,"d_rollb096.ogg",10
Sample,103181,0,"alpl3A+.ogg",10
Sample,103181,0,"bassb1G+.ogg",10
Sample,103181,0,"d_tmb02s.ogg",10
Sample,103181,0,"d_sh13.ogg",10
Sample,103181,0,"d_ht26.ogg",10
Sample,103181,0,"d_rollb096.ogg",10
Sample,103181,0,"d_rdmclp.ogg",10
Sample,103257,0,"d_rollb096.ogg",10
Sample,103295,0,"d_tmb02s.ogg",10
Sample,103295,0,"alpl4D.ogg",10
Sample,103295,0,"d_sh14.ogg",10
Sample,103333,0,"d_ht27.ogg",10
Sample,103333,0,"d_rollb096.ogg",10
Sample,103409,0,"d_ht03.ogg",10
Sample,103409,0,"d_sh17.ogg",10
Sample,103409,0,"bassb3C+.ogg",10
Sample,103409,0,"alpl4F.ogg",10
Sample,103409,0,"d_pc13.ogg",10
Sample,103409,0,"brs_1A.ogg",100
Sample,103409,0,"d_rollb096.ogg",10
Sample,103409,0,"d_tmb02s.ogg",10
Sample,103484,0,"d_rollb096.ogg",10
Sample,103522,0,"d_sh14.ogg",10
Sample,103522,0,"d_tmb02s.ogg",10
Sample,103522,0,"alpl4A+.ogg",10
Sample,103560,0,"d_ht29.ogg",10
Sample,103560,0,"d_rollb096.ogg",10
Sample,103636,0,"outro.ogg",10
Sample,103636,0,"brs_2G.ogg",100

[TimingPoints]
0,454.545455,4,2,0,10,1,0
1818.181818,454.545455,4,2,0,10,1,0
1818.181818,-100,4,2,0,10,0,0
3636.363636,454.545455,4,2,0,10,1,0
3636.363636,-100,4,2,0,10,0,0
5454.545455,454.545455,4,2,0,10,1,0
5454.545455,-100,4,2,0,10,0,0
7272.727273,454.545455,4,2,0,10,1,0
7272.727273,-100,4,2,0,10,0,0
9090.909091,454.545455,4,2,0,10,1,0
9090.909091,-100,4,2,0,10,0,0
10909.090909,454.545455,4,2,0,10,1,0
10909.090909,-100,4,2,0,10,0,0
12727.272727,454.545455,4,2,0,10,1,0
12727.272727,-100,4,2,0,10,0,0
14545.454545,454.545455,4,2,0,10,1,0
14545.454545,-100,4,2,0,10,0,0
16363.636364,454.545455,4,2,0,10,1,0
16363.636364,-100,4,2,0,10,0,0
18181.818182,454.545455,4,2,0,10,1,0
18181.818182,-100,4,2,0,10,0,0
20000,454.545455,4,2,0,10,1,0
20000,-100,4,2,0,10,0,0
21818.181818,454.545455,4,2,0,10,1,0
21818.181818,-100,4,2,0,10,0,0
23636.363636,454.545455,4,2,0,10,1,0
23636.363636,-100,4,2,0,10,0,0
25454.545455,454.545455,4,2,0,10,1,0
25454.545455,-100,4,2,0,10,0,0
27272.727273,454.545455,4,2,0,10,1,0
27272.727273,-100,4,2,0,10,0,0
29090.909091,454.545455,4,2,0,10,1,0
29090.909091,-100,4,2,0,10,0,0
30909.090909,454.545455,4,2,0,10,1,0
30909.090909,-100,4,2,0,10,0,0
32727.272727,454.545455,4,2,0,10,1,0
32727.272727,-100,4,2,0,10,0,0
34545.454545,454.545455,4,2,0,10,1,0
34545.454545,-100,4,2,0,10,0,0
36363.636364,454.545455,4,2,0,10,1,0
36363.636364,-100,4,2,0,10,0,0
38181.818182,454.545455,4,2,0,10,1,0
38181.818182,-100,4,2,0,10,0,0
40000,454.545455,4,2,0,10,1,0
40000,-100,4,2,0,10,0,0
41818.181818,454.545455,4,2,0,10,1,0
41818.181818,-100,4,2,0,10,0,0
43636.363636,454.545455,4,2,0,10,1,0
43636.363636,-100,4,2,0,10,0,0
45454.545455,454.545455,4,2,0,10,1,0
45454.545455,-100,4,2,0,10,0,0
47272.727273,454.545455,4,2,0,10,1,0
47272.727273,-100,4,2,0,10,0,0
49090.909091,454.545455,4,2,0,10,1,0
49090.909091,-100,4,2,0,10,0,0
50909.090909,454.545455,4,2,0,10,1,0
50909.090909,-100,4,2,0,10,0,0
52727.272727,454.545455,4,2,0,10,1,0
52727.272727,-100,4,2,0,10,0,0
54545.454545,454.545455,4,2,0,10,1,0
54545.454545,-100,4,2,0,10,0,0
56363.636364,454.545455,4,2,0,10,1,0
56363.636364,-100,4,2,0,10,0,0
58181.818182,454.545455,4,2,0,10,1,0
58181.818182,-100,4,2,0,10,0,0
60000,454.545455,4,2,0,10,1,0
60000,-100,4,2,0,10,0,0
61818.181818,454.545455,4,2,0,10,1,0
61818.181818,-100,4,2,0,10,0,0
63636.363636,454.545455,4,2,0,10,1,0
63636.363636,-100,4,2,0,10,0,0
65454.545455,454.545455,4,2,0,10,1,0
65454.545455,-100,4,2,0,10,0,0
67272.727273,454.545455,4,2,0,10,1,0
67272.727273,-100,4,2,0,10,0,0
69090.909091,454.545455,4,2,0,10,1,0
69090.909091,-100,4,2,0,10,0,0
70909.090909,454.545455,4,2,0,10,1,0
70909.090909,-100,4,2,0,10,0,0
72727.272727,454.545455,4,2,0,10,1,0
72727.272727,-100,4,2,0,10,0,0
74545.454545,454.545455,4,2,0,10,1,0
74545.454545,-100,4,2,0,10,0,0
76363.636364,454.545455,4,2,0,10,1,0
76363.636364,-100,4,2,0,10,0,0
78181.818182,454.545455,4,2,0,10,1,0
78181.818182,-100,4,2,0,10,0,0
80000,454.545455,4,2,0,10,1,0
80000,-100,4,2,0,10,0,0
81818.181818,454.545455,4,2,0,10,1,0
81818.181818,-100,4,2,0,10,0,0
83636.363636,454.545455,4,2,0,10,1,0
83636.363636,-100,4,2,0,10,0,0
85454.545455,454.545455,4,2,0,10,1,0
85454.545455,-100,4,2,0,10,0,0
87272.727273,454.545455,4,2,0,10,1,0
87272.727273,-100,4,2,0,10,0,0
89090.909091,454.545455,4,2,0,10,1,0
89090.909091,-100,4,2,0,10,0,0
90909.090909,454.545455,4,2,0,10,1,0
90909.090909,-100,4,2,0,10,0,0
92727.272727,454.545455,4,2,0,10,1,0
92727.272727,-100,4,2,0,10,0,0
94545.454545,454.545455,4,2,0,10,1,0
94545.454545,-100,4,2,0,10,0,0
96363.636364,454.545455,4,2,0,10,1,0
96363.636364,-100,4,2,0,10,0,0
98181.818182,454.545455,4,2,0,10,1,0
98181.818182,-100,4,2,0,10,0,0
100000,454.545455,4,2,0,10,1,0
100000,-100,4,2,0,10,0,0
101818.181818,454.545455,4,2,0,10,1,0
101818.181818,-100,4,2,0,10,0,0
103636.363636,454.545455,4,2,0,10,1,0
103636.363636,-100,4,2,0,10,0,0
105454.545455,454.545455,4,2,0,10,1,0
105454.545455,-100,4,2,0,10,0,0

[HitObjects]
402,192,1818,5,0,0:0:0:0:
109,192,1818,1,0,0:0:0:0:
109,192,2045,1,0,0:0:0:0:
256,192,2159,1,0,0:0:0:0:
475,192,2272,1,0,0:0:0:0:
329,192,2386,1,0,0:0:0:0:
182,192,2500,1,0,0:0:0:0:
182,192,2727,1,0,0:0:0:0:
36,192,2954,1,0,0:0:0:0:
402,192,3181,1,0,0:0:0:0:
36,192,3295,1,0,0:0:0:0:
182,192,3295,1,0,0:0:0:0:
475,192,3409,1,0,0:0:0:0:
109,192,3636,1,0,0:0:0:0:
256,192,3636,1,0,0:0:0:0:
109,192,3863,1,0,0:0:0:0:
475,192,3977,1,0,0:0:0:0:
182,192,4090,1,0,0:0:0:0:
329,192,4204,1,0,0:0:0:0:
402,192,4318,1,0,0:0:0:0:
36,192,4318,1,0,0:0:0:0:
36,192,4431,1,0,0:0:0:0:
109,192,4545,1,0,0:0:0:0:
256,192,4545,1,0,0:0:0:0:
36,192,4772,1,0,0:0:0:0:
329,192,4886,1,0,0:0:0:0:
475,192,5000,1,0,0:0:0:0:
402,192,5113,1,0,0:0:0:0:
256,192,5113,1,0,0:0:0:0:
36,192,5227,1,0,0:0:0:0:
182,192,5227,1,0,0:0:0:0:
109,192,5454,1,0,0:0:0:0:
329,192,5454,1,0,0:0:0:0:
109,192,5681,1,0,0:0:0:0:
402,192,5795,1,0,0:0:0:0:
182,192,5909,1,0,0:0:0:0:
329,192,6022,1,0,0:0:0:0:
36,192,6136,1,0,0:0:0:0:
36,192,6363,1,0,0:0:0:0:
109,192,6590,1,0,0:0:0:0:
475,192,6818,1,0,0:0:0:0:
109,192,6931,1,0,0:0:0:0:
256,192,6931,1,0,0:0:0:0:
402,192,7045,1,0,0:0:0:0:
36,192,7272,1,0,0:0:0:0:
182,192,7272,1,0,0:0:0:0:
36,192,7499,1,0,0:0:0:0:
329,192,7613,1,0,0:0:0:0:
182,192,7727,1,0,0:0:0:0:
402,192,7840,1,0,0:0:0:0:
109,192,7954,1,0,0:0:0:0:
256,192,7954,1,0,0:0:0:0:
109,192,8068,1,0,0:0:0:0:
475,192,8181,1,0,0:0:0:0:
329,192,8181,1,0,0:0:0:0:
109,192,8409,1,0,0:0:0:0:
256,192,8522,1,0,0:0:0:0:
475,192,8636,1,0,0:0:0:0:
182,192,8750,1,0,0:0:0:0:
329,192,8750,1,0,0:0:0:0:
109,192,8863,1,0,0:0:0:0:
256,192,8863,1,0,0:0:0:0:
36,192,9090,1,0,0:0:0:0:
182,192,9090,1,0,0:0:0:0:
329,192,9090,1,0,0:0:0:0:
109,192,9318,1,0,0:0:0:0:
256,192,9318,1,0,0:0:0:0:
402,192,9431,1,0,0:0:0:0:
475,192,9545,1,0,0:0:0:0:
36,192,9545,1,0,0:0:0:0:
182,192,9545,1,0,0:0:0:0:
329,192,9659,1,0,0:0:0:0:
109,192,9772,1,0,0:0:0:0:
256,192,9772,1,0,0:0:0:0:
182,192,9924,1,0,0:0:0:0:
36,192,10000,1,0,0:0:0:0:
256,192,10000,1,0,0:0:0:0:
402,192,10227,1,0,0:0:0:0:
109,192,10227,1,0,0:0:0:0:
475,192,10454,1,0,0:0:0:0:
36,192,10454,1,0,0:0:0:0:
182,192,10454,1,0,0:0:0:0:
402,192,10568,1,0,0:0:0:0:
256,192,10568,1,0,0:0:0:0:
109,192,10681,1,0,0:0:0:0:
329,192,10681,1,0,0:0:0:0:
402,192,10909,1,0,0:0:0:0:
36,192,10909,1,0,0:0:0:0:
256,192,10909,1,0,0:0:0:0:
109,192,11136,1,0,0:0:0:0:
256,192,11136,1,0,0:0:0:0:
475,192,11249,1,0,0:0:0:0:
36,192,11363,1,0,0:0:0:0:
182,192,11363,1,0,0:0:0:0:
329,192,11363,1,0,0:0:0:0:
402,192,11477,1,0,0:0:0:0:
475,192,11590,1,0,0:0:0:0:
109,192,11590,1,0,0:0:0:0:
256,192,11590,1,0,0:0:0:0:
256,192,11704,1,0,0:0:0:0:
182,192,11742,1,0,0:0:0:0:
475,192,11818,1,0,0:0:0:0:
36,192,11818,1,0,0:0:0:0:
329,192,11818,1,0,0:0:0:0:
109,192,12045,1,0,0:0:0:0:
256,192,12045,1,0,0:0:0:0:
402,192,12159,1,0,0:0:0:0:
36,192,12272,1,0,0:0:0:0:
182,192,12272,1,0,0:0:0:0:
329,192,12272,1,0,0:0:0:0:
402,192,12386,1,0,0:0:0:0:
256,192,12386,1,0,0:0:0:0:
475,192,12499,1,0,0:0:0:0:
109,192,12499,1,0,0:0:0:0:
329,192,12499,1,0,0:0:0:0:
475,192,12727,1,0,0:0:0:0:
36,192,12727,1,0,0:0:0:0:
182,192,12727,1,0,0:0:0:0:
402,192,12954,1,0,0:0:0:0:
256,192,12954,1,0,0:0:0:0:
109,192,13068,1,0,0:0:0:0:
475,192,13181,1,0,0:0:0:0:
182,192,13181,1,0,0:0:0:0:
329,192,13181,1,0,0:0:0:0:
256,192,13295,1,0,0:0:0:0:
402,192,13409,1,0,0:0:0:0:
36,192,13409,1,0,0:0:0:0:
329,192,13560,1,0,0:0:0:0:
475,192,13636,1,0,0:0:0:0:
36,192,13636,1,0,0:0:0:0:
402,192,13863,1,0,0:0:0:0:
256,192,13863,1,0,0:0:0:0:
475,192,14090,1,0,0:0:0:0:
182,192,14090,1,0,0:0:0:0:
329,192,14090,1,0,0:0:0:0:
109,192,14204,1,0,0:0:0:0:
256,192,14204,1,0,0:0:0:0:
402,192,14318,1,0,0:0:0:0:
36,192,14318,1,0,0:0:0:0:
475,192,14545,1,0,0:0:0:0:
36,192,14545,1,0,0:0:0:0:
182,192,14545,1,0,0:0:0:0:
402,192,14772,1,0,0:0:0:0:
182,192,14772,1,0,0:0:0:0:
256,192,14886,1,0,0:0:0:0:
475,192,14999,1,0,0:0:0:0:
36,192,14999,1,0,0:0:0:0:
329,192,14999,1,0,0:0:0:0:
402,192,15227,1,0,0:0:0:0:
109,192,15227,1,0,0:0:0:0:
475,192,15454,1,0,0:0:0:0:
36,192,15454,1,0,0:0:0:0:
182,192,15454,1,0,0:0:0:0:
402,192,15681,1,0,0:0:0:0:
109,192,15681,1,0,0:0:0:0:
256,192,15681,1,0,0:0:0:0:
402,192,16363,1,0,0:0:0:0:
36,192,16363,1,0,0:0:0:0:
109,192,16363,128,0,17272:0:0:0:0:
256,192,16363,128,0,19090:0:0:0:0:
475,192,16590,1,0,0:0:0:0:
36,192,16818,1,0,0:0:0:0:
182,192,16818,1,0,0:0:0:0:
402,192,17045,1,0,0:0:0:0:
36,192,17272,1,0,0:0:0:0:
475,192,17500,1,0,0:0:0:0:
109,192,17500,1,0,0:0:0:0:
36,192,17727,1,0,0:0:0:0:
329,192,17727,1,0,0:0:0:0:
402,192,17954,1,0,0:0:0:0:
182,192,17954,128,0,19090:0:0:0:0:
36,192,18181,1,0,0:0:0:0:
475,192,18409,1,0,0:0:0:0:
36,192,18636,1,0,0:0:0:0:
329,192,18636,1,0,0:0:0:0:
402,192,18863,1,0,0:0:0:0:
36,192,19090,1,0,0:0:0:0:
475,192,19318,1,0,0:0:0:0:
182,192,19318,128,0,19772:0:0:0:0:
36,192,19545,1,0,0:0:0:0:
329,192,19545,1,0,0:0:0:0:
402,192,19772,1,0,0:0:0:0:
256,192,19772,1,0,0:0:0:0:
475,192,19886,1,0,0:0:0:0:
36,192,20000,1,0,0:0:0:0:
109,192,20000,128,0,21590:0:0:0:0:
329,192,20000,128,0,20909:0:0:0:0:
475,192,20227,1,0,0:0:0:0:
36,192,20454,1,0,0:0:0:0:
182,192,20454,1,0,0:0:0:0:
402,192,20681,1,0,0:0:0:0:
36,192,20909,1,0,0:0:0:0:
475,192,21136,1,0,0:0:0:0:
329,192,21136,128,0,21590:0:0:0:0:
36,192,21363,1,0,0:0:0:0:
182,192,21363,1,0,0:0:0:0:
402,192,21590,1,0,0:0:0:0:
475,192,21818,128,0,22499:0:0:0:0:
36,192,21818,1,0,0:0:0:0:
109,192,21818,1,0,0:0:0:0:
402,192,22045,1,0,0:0:0:0:
109,192,22159,1,0,0:0:0:0:
36,192,22272,1,0,0:0:0:0:
329,192,22272,1,0,0:0:0:0:
402,192,22499,1,0,0:0:0:0:
182,192,22499,128,0,23409:0:0:0:0:
256,192,22499,128,0,23636:0:0:0:0:
36,192,22727,1,0,0:0:0:0:
402,192,22954,1,0,0:0:0:0:
36,192,23181,1,0,0:0:0:0:
329,192,23181,1,0,0:0:0:0:
109,192,23409,1,0,0:0:0:0:
402,192,23636,128,0,26363:0:0:0:0:
475,192,23636,1,0,0:0:0:0:
36,192,23636,1,0,0:0:0:0:
109,192,23863,1,0,0:0:0:0:
475,192,24090,1,0,0:0:0:0:
36,192,24090,1,0,0:0:0:0:
182,192,24090,1,0,0:0:0:0:
109,192,24318,1,0,0:0:0:0:
329,192,24318,1,0,0:0:0:0:
475,192,24431,1,0,0:0:0:0:
36,192,24545,1,0,0:0:0:0:
329,192,24659,1,0,0:0:0:0:
475,192,24772,1,0,0:0:0:0:
109,192,24772,1,0,0:0:0:0:
36,192,24999,1,0,0:0:0:0:
182,192,24999,1,0,0:0:0:0:
475,192,25113,1,0,0:0:0:0:
109,192,25227,1,0,0:0:0:0:
36,192,25454,1,0,0:0:0:0:
256,192,25454,1,0,0:0:0:0:
329,192,25568,1,0,0:0:0:0:
109,192,25681,1,0,0:0:0:0:
36,192,25909,1,0,0:0:0:0:
182,192,25909,1,0,0:0:0:0:
329,192,25909,1,0,0:0:0:0:
109,192,26136,1,0,0:0:0:0:
256,192,26136,1,0,0:0:0:0:
36,192,26363,1,0,0:0:0:0:
329,192,26363,1,0,0:0:0:0:
109,192,26590,1,0,0:0:0:0:
256,192,26704,1,0,0:0:0:0:
36,192,26818,1,0,0:0:0:0:
329,192,26818,1,0,0:0:0:0:
182,192,26931,1,0,0:0:0:0:
402,192,27045,1,0,0:0:0:0:
109,192,27045,1,0,0:0:0:0:
256,192,27045,1,0,0:0:0:0:
475,192,27159,1,0,0:0:0:0:
36,192,27272,1,0,0:0:0:0:
109,192,27272,128,0,28863:0:0:0:0:
329,192,27272,1,0,0:0:0:0:
402,192,27499,1,0,0:0:0:0:
256,192,27499,1,0,0:0:0:0:
36,192,27727,1,0,0:0:0:0:
182,192,27727,1,0,0:0:0:0:
329,192,27727,1,0,0:0:0:0:
402,192,27840,1,0,0:0:0:0:
475,192,27954,1,0,0:0:0:0:
402,192,28181,1,0,0:0:0:0:
36,192,28181,1,0,0:0:0:0:
475,192,28409,1,0,0:0:0:0:
256,192,28409,1,0,0:0:0:0:
402,192,28522,1,0,0:0:0:0:
36,192,28636,1,0,0:0:0:0:
182,192,28636,1,0,0:0:0:0:
256,192,28749,1,0,0:0:0:0:
475,192,28863,1,0,0:0:0:0:
329,192,28863,1,0,0:0:0:0:
36,192,29090,1,0,0:0:0:0:
182,192,29090,128,0,30454:0:0:0:0:
256,192,29090,1,0,0:0:0:0:
402,192,29204,1,0,0:0:0:0:
109,192,29318,1,0,0:0:0:0:
475,192,29545,1,0,0:0:0:0:
36,192,29545,1,0,0:0:0:0:
329,192,29545,1,0,0:0:0:0:
109,192,29772,1,0,0:0:0:0:
36,192,29999,1,0,0:0:0:0:
329,192,29999,1,0,0:0:0:0:
109,192,30227,1,0,0:0:0:0:
475,192,30340,1,0,0:0:0:0:
402,192,30454,1,0,0:0:0:0:
36,192,30454,1,0,0:0:0:0:
256,192,30454,1,0,0:0:0:0:
109,192,30681,1,0,0:0:0:0:
329,192,30681,1,0,0:0:0:0:
475,192,30909,1,0,0:0:0:0:
36,192,30909,1,0,0:0:0:0:
329,192,30909,128,0,32499:0:0:0:0:
182,192,30984,1,0,0:0:0:0:
109,192,31060,1,0,0:0:0:0:
402,192,31136,1,0,0:0:0:0:
256,192,31212,1,0,0:0:0:0:
182,192,31287,1,0,0:0:0:0:
36,192,31363,1,0,0:0:0:0:
109,192,31439,1,0,0:0:0:0:
256,192,31515,1,0,0:0:0:0:
402,192,31590,1,0,0:0:0:0:
182,192,31666,1,0,0:0:0:0:
256,192,31742,1,0,0:0:0:0:
475,192,31818,1,0,0:0:0:0:
402,192,31893,1,0,0:0:0:0:
182,192,31969,1,0,0:0:0:0:
109,192,32045,1,0,0:0:0:0:
475,192,32121,1,0,0:0:0:0:
256,192,32196,1,0,0:0:0:0:
36,192,32272,1,0,0:0:0:0:
109,192,32348,1,0,0:0:0:0:
182,192,32424,1,0,0:0:0:0:
36,192,32499,1,0,0:0:0:0:
256,192,32499,1,0,0:0:0:0:
109,192,32575,1,0,0:0:0:0:
182,192,32651,1,0,0:0:0:0:
402,192,32727,128,0,33863:0:0:0:0:
475,192,32727,1,0,0:0:0:0:
329,192,32803,1,0,0:0:0:0:
256,192,32878,1,0,0:0:0:0:
109,192,32954,1,0,0:0:0:0:
329,192,33030,1,0,0:0:0:0:
182,192,33106,1,0,0:0:0:0:
36,192,33181,1,0,0:0:0:0:
109,192,33257,1,0,0:0:0:0:
256,192,33333,1,0,0:0:0:0:
329,192,33409,1,0,0:0:0:0:
36,192,33484,1,0,0:0:0:0:
182,192,33560,1,0,0:0:0:0:
475,192,33636,1,0,0:0:0:0:
256,192,33712,1,0,0:0:0:0:
182,192,33787,1,0,0:0:0:0:
109,192,33863,1,0,0:0:0:0:
329,192,33863,1,0,0:0:0:0:
256,192,33939,1,0,0:0:0:0:
182,192,34015,1,0,0:0:0:0:
402,192,34090,1,0,0:0:0:0:
36,192,34090,1,0,0:0:0:0:
109,192,34166,1,0,0:0:0:0:
182,192,34242,1,0,0:0:0:0:
475,192,34318,1,0,0:0:0:0:
256,192,34318,1,0,0:0:0:0:
329,192,34393,1,0,0:0:0:0:
402,192,34469,1,0,0:0:0:0:
475,192,34545,128,0,36136:0:0:0:0:
256,192,34545,1,0,0:0:0:0:
109,192,34621,1,0,0:0:0:0:
36,192,34696,1,0,0:0:0:0:
402,192,34772,1,0,0:0:0:0:
329,192,34848,1,0,0:0:0:0:
182,192,34924,1,0,0:0:0:0:
36,192,34999,1,0,0:0:0:0:
109,192,35075,1,0,0:0:0:0:
256,192,35151,1,0,0:0:0:0:
329,192,35227,1,0,0:0:0:0:
36,192,35303,1,0,0:0:0:0:
109,192,35378,1,0,0:0:0:0:
182,192,35454,1,0,0:0:0:0:
256,192,35530,1,0,0:0:0:0:
329,192,35606,1,0,0:0:0:0:
402,192,35681,1,0,0:0:0:0:
329,192,35757,1,0,0:0:0:0:
256,192,35833,1,0,0:0:0:0:
182,192,35909,1,0,0:0:0:0:
109,192,35984,1,0,0:0:0:0:
36,192,36060,1,0,0:0:0:0:
402,192,36136,1,0,0:0:0:0:
329,192,36136,1,0,0:0:0:0:
256,192,36212,1,0,0:0:0:0:
182,192,36249,1,0,0:0:0:0:
109,192,36287,1,0,0:0:0:0:
475,192,36363,1,0,0:0:0:0:
36,192,36363,128,0,37045:0:0:0:0:
402,192,36439,1,0,0:0:0:0:
329,192,36515,1,0,0:0:0:0:
256,192,36590,1,0,0:0:0:0:
182,192,36666,1,0,0:0:0:0:
109,192,36742,1,0,0:0:0:0:
475,192,36818,1,0,0:0:0:0:
329,192,36893,1,0,0:0:0:0:
182,192,36969,1,0,0:0:0:0:
402,192,37045,128,0,37499:0:0:0:0:
475,192,37045,1,0,0:0:0:0:
256,192,37121,1,0,0:0:0:0:
109,192,37196,1,0,0:0:0:0:
329,192,37272,1,0,0:0:0:0:
182,192,37348,1,0,0:0:0:0:
36,192,37424,1,0,0:0:0:0:
109,192,37499,128,0,38181:0:0:0:0:
329,192,37499,1,0,0:0:0:0:
256,192,37575,1,0,0:0:0:0:
182,192,37651,1,0,0:0:0:0:
36,192,37727,1,0,0:0:0:0:
329,192,37803,1,0,0:0:0:0:
402,192,37840,1,0,0:0:0:0:
475,192,37878,1,0,0:0:0:0:
182,192,37954,1,0,0:0:0:0:
256,192,37954,1,0,0:0:0:0:
329,192,38030,1,0,0:0:0:0:
402,192,38106,1,0,0:0:0:0:
475,192,38181,1,0,0:0:0:0:
36,192,38181,1,0,0:0:0:0:
182,192,38181,128,0,39772:0:0:0:0:
256,192,38181,1,0,0:0:0:0:
329,192,38295,1,0,0:0:0:0:
329,192,38636,1,0,0:0:0:0:
402,192,39090,1,0,0:0:0:0:
256,192,39318,1,0,0:0:0:0:
402,192,39431,1,0,0:0:0:0:
256,192,39659,1,0,0:0:0:0:
402,192,39772,1,0,0:0:0:0:
109,192,39772,1,0,0:0:0:0:
36,192,39999,1,0,0:0:0:0:
329,192,39999,128,0,41136:0:0:0:0:
256,192,40227,1,0,0:0:0:0:
109,192,40454,1,0,0:0:0:0:
256,192,40568,1,0,0:0:0:0:
256,192,40909,1,0,0:0:0:0:
36,192,41136,1,0,0:0:0:0:
256,192,41249,1,0,0:0:0:0:
329,192,41363,1,0,0:0:0:0:
109,192,41477,1,0,0:0:0:0:
475,192,41590,1,0,0:0:0:0:
256,192,41590,1,0,0:0:0:0:
402,192,41818,128,0,43409:0:0:0:0:
36,192,41818,1,0,0:0:0:0:
182,192,42045,1,0,0:0:0:0:
36,192,42272,1,0,0:0:0:0:
182,192,42386,1,0,0:0:0:0:
36,192,42613,1,0,0:0:0:0:
182,192,42727,1,0,0:0:0:0:
182,192,43068,1,0,0:0:0:0:
36,192,43295,1,0,0:0:0:0:
182,192,43409,1,0,0:0:0:0:
329,192,43409,1,0,0:0:0:0:
475,192,43522,1,0,0:0:0:0:
109,192,43636,1,0,0:0:0:0:
256,192,43636,128,0,44318:0:0:0:0:
402,192,43749,1,0,0:0:0:0:
402,192,44090,1,0,0:0:0:0:
109,192,44318,1,0,0:0:0:0:
182,192,44318,128,0,44772:0:0:0:0:
36,192,44545,1,0,0:0:0:0:
329,192,44545,1,0,0:0:0:0:
475,192,44772,1,0,0:0:0:0:
109,192,44772,128,0,45113:0:0:0:0:
256,192,44886,1,0,0:0:0:0:
402,192,44999,1,0,0:0:0:0:
36,192,45113,128,0,45454:0:0:0:0:
182,192,45227,1,0,0:0:0:0:
329,192,45227,1,0,0:0:0:0:
402,192,45454,1,0,0:0:0:0:
109,192,45454,1,0,0:0:0:0:
256,192,45454,1,0,0:0:0:0:
36,192,47954,1,0,0:0:0:0:
329,192,47954,1,0,0:0:0:0:
402,192,48068,1,0,0:0:0:0:
109,192,48068,1,0,0:0:0:0:
475,192,48181,1,0,0:0:0:0:
182,192,48181,1,0,0:0:0:0:
402,192,48409,1,0,0:0:0:0:
109,192,48409,1,0,0:0:0:0:
36,192,48636,1,0,0:0:0:0:
329,192,48636,1,0,0:0:0:0:
475,192,48863,1,0,0:0:0:0:
182,192,48863,1,0,0:0:0:0:
36,192,49090,1,0,0:0:0:0:
109,192,49090,1,0,0:0:0:0:
329,192,49090,1,0,0:0:0:0:
402,192,49147,1,0,0:0:0:0:
182,192,49147,1,0,0:0:0:0:
475,192,49204,1,0,0:0:0:0:
256,192,49204,1,0,0:0:0:0:
475,192,50681,1,0,0:0:0:0:
329,192,50681,1,0,0:0:0:0:
109,192,50909,1,0,0:0:0:0:
256,192,50909,1,0,0:0:0:0:
109,192,52045,1,0,0:0:0:0:
256,192,52045,1,0,0:0:0:0:
182,192,52272,1,0,0:0:0:0:
329,192,52272,1,0,0:0:0:0:
402,192,52499,1,0,0:0:0:0:
256,192,52499,1,0,0:0:0:0:
402,192,52727,1,0,0:0:0:0:
36,192,52727,1,0,0:0:0:0:
109,192,52727,1,0,0:0:0:0:
182,192,52727,1,0,0:0:0:0:
256,192,52727,1,0,0:0:0:0:
475,192,53409,1,0,0:0:0:0:
182,192,54090,1,0,0:0:0:0:
329,192,54090,1,0,0:0:0:0:
109,192,54545,1,0,0:0:0:0:
256,192,54545,1,0,0:0:0:0:
109,192,55681,1,0,0:0:0:0:
256,192,55681,1,0,0:0:0:0:
182,192,55909,1,0,0:0:0:0:
329,192,55909,1,0,0:0:0:0:
402,192,56136,1,0,0:0:0:0:
256,192,56136,1,0,0:0:0:0:
36,192,56363,1,0,0:0:0:0:
109,192,56363,1,0,0:0:0:0:
256,192,56363,1,0,0:0:0:0:
182,192,56420,1,0,0:0:0:0:
329,192,56420,1,0,0:0:0:0:
402,192,56477,1,0,0:0:0:0:
475,192,57045,1,0,0:0:0:0:
329,192,57045,1,0,0:0:0:0:
402,192,57727,1,0,0:0:0:0:
256,192,57727,1,0,0:0:0:0:
36,192,58181,1,0,0:0:0:0:
182,192,58181,1,0,0:0:0:0:
256,192,58863,1,0,0:0:0:0:
402,192,59318,1,0,0:0:0:0:
475,192,59999,1,0,0:0:0:0:
36,192,59999,1,0,0:0:0:0:
109,192,59999,1,0,0:0:0:0:
182,192,59999,1,0,0:0:0:0:
329,192,59999,1,0,0:0:0:0:
36,192,61590,1,0,0:0:0:0:
256,192,61590,1,0,0:0:0:0:
109,192,61704,1,0,0:0:0:0:
329,192,61704,1,0,0:0:0:0:
402,192,61818,1,0,0:0:0:0:
182,192,61818,1,0,0:0:0:0:
36,192,62499,1,0,0:0:0:0:
182,192,62499,1,0,0:0:0:0:
109,192,62613,1,0,0:0:0:0:
256,192,62613,1,0,0:0:0:0:
402,192,62727,1,0,0:0:0:0:
475,192,62727,1,0,0:0:0:0:
182,192,62727,1,0,0:0:0:0:
329,192,62727,1,0,0:0:0:0:
109,192,62954,1,0,0:0:0:0:
256,192,62954,1,0,0:0:0:0:
36,192,63181,1,0,0:0:0:0:
182,192,63181,1,0,0:0:0:0:
402,192,63409,1,0,0:0:0:0:
475,192,63409,1,0,0:0:0:0:
36,192,63636,1,0,0:0:0:0:
109,192,63636,1,0,0:0:0:0:
182,192,63636,1,0,0:0:0:0:
256,192,63636,1,0,0:0:0:0:
329,192,63636,1,0,0:0:0:0:
402,192,63693,1,0,0:0:0:0:
475,192,63749,1,0,0:0:0:0:
182,192,64318,1,0,0:0:0:0:
329,192,64318,1,0,0:0:0:0:
402,192,65227,1,0,0:0:0:0:
256,192,65227,1,0,0:0:0:0:
36,192,65454,1,0,0:0:0:0:
182,192,65454,1,0,0:0:0:0:
475,192,66590,1,0,0:0:0:0:
329,192,66590,1,0,0:0:0:0:
402,192,66818,1,0,0:0:0:0:
256,192,66818,1,0,0:0:0:0:
182,192,67045,1,0,0:0:0:0:
329,192,67045,1,0,0:0:0:0:
402,192,67272,1,0,0:0:0:0:
475,192,67272,1,0,0:0:0:0:
36,192,67272,1,0,0:0:0:0:
109,192,67272,1,0,0:0:0:0:
256,192,67272,1,0,0:0:0:0:
36,192,68636,1,0,0:0:0:0:
256,192,68636,1,0,0:0:0:0:
109,192,69090,1,0,0:0:0:0:
329,192,69090,1,0,0:0:0:0:
475,192,69545,1,0,0:0:0:0:
256,192,69545,1,0,0:0:0:0:
402,192,69999,1,0,0:0:0:0:
182,192,69999,1,0,0:0:0:0:
475,192,70454,1,0,0:0:0:0:
109,192,70454,1,0,0:0:0:0:
36,192,70909,1,0,0:0:0:0:
182,192,70909,1,0,0:0:0:0:
256,192,70909,1,0,0:0:0:0:
109,192,71590,1,0,0:0:0:0:
256,192,71590,1,0,0:0:0:0:
329,192,71590,1,0,0:0:0:0:
402,192,72272,1,0,0:0:0:0:
182,192,72272,1,0,0:0:0:0:
329,192,72272,1,0,0:0:0:0:
402,192,72954,1,0,0:0:0:0:
475,192,72954,1,0,0:0:0:0:
256,192,72954,1,0,0:0:0:0:
329,192,72954,1,0,0:0:0:0:
402,192,73636,1,0,0:0:0:0:
182,192,73636,1,0,0:0:0:0:
256,192,73636,1,0,0:0:0:0:
329,192,73636,1,0,0:0:0:0:
475,192,74090,1,0,0:0:0:0:
109,192,74090,1,0,0:0:0:0:
182,192,74090,1,0,0:0:0:0:
256,192,74090,1,0,0:0:0:0:
475,192,74545,128,0,76136:0:0:0:0:
36,192,74545,1,0,0:0:0:0:
182,192,74545,1,0,0:0:0:0:
329,192,74545,1,0,0:0:0:0:
109,192,74772,1,0,0:0:0:0:
256,192,74772,1,0,0:0:0:0:
402,192,74886,1,0,0:0:0:0:
36,192,74999,1,0,0:0:0:0:
182,192,74999,1,0,0:0:0:0:
109,192,75227,1,0,0:0:0:0:
182,192,75378,1,0,0:0:0:0:
36,192,75454,1,0,0:0:0:0:
109,192,75681,1,0,0:0:0:0:
256,192,75681,1,0,0:0:0:0:
402,192,75909,1,0,0:0:0:0:
36,192,75909,1,0,0:0:0:0:
182,192,76022,1,0,0:0:0:0:
109,192,76136,1,0,0:0:0:0:
256,192,76136,1,0,0:0:0:0:
475,192,76249,1,0,0:0:0:0:
329,192,76249,1,0,0:0:0:0:
402,192,76363,128,0,77045:0:0:0:0:
36,192,76363,1,0,0:0:0:0:
182,192,76363,1,0,0:0:0:0:
475,192,76477,1,0,0:0:0:0:
109,192,76590,1,0,0:0:0:0:
256,192,76590,1,0,0:0:0:0:
329,192,76704,1,0,0:0:0:0:
36,192,76818,1,0,0:0:0:0:
182,192,76818,1,0,0:0:0:0:
109,192,77045,1,0,0:0:0:0:
256,192,77045,1,0,0:0:0:0:
256,192,77159,1,0,0:0:0:0:
182,192,77196,1,0,0:0:0:0:
475,192,77272,1,0,0:0:0:0:
36,192,77272,1,0,0:0:0:0:
329,192,77272,128,0,78181:0:0:0:0:
109,192,77499,1,0,0:0:0:0:
256,192,77499,1,0,0:0:0:0:
402,192,77613,1,0,0:0:0:0:
475,192,77727,1,0,0:0:0:0:
36,192,77727,1,0,0:0:0:0:
182,192,77840,1,0,0:0:0:0:
109,192,77954,1,0,0:0:0:0:
256,192,77954,1,0,0:0:0:0:
475,192,78068,1,0,0:0:0:0:
402,192,78181,1,0,0:0:0:0:
36,192,78181,1,0,0:0:0:0:
256,192,78181,128,0,78863:0:0:0:0:
475,192,78295,1,0,0:0:0:0:
109,192,78409,1,0,0:0:0:0:
329,192,78409,1,0,0:0:0:0:
402,192,78522,1,0,0:0:0:0:
36,192,78636,1,0,0:0:0:0:
182,192,78636,1,0,0:0:0:0:
109,192,78863,1,0,0:0:0:0:
329,192,78863,128,0,79772:0:0:0:0:
182,192,79015,1,0,0:0:0:0:
36,192,79090,1,0,0:0:0:0:
402,192,79318,1,0,0:0:0:0:
109,192,79318,1,0,0:0:0:0:
36,192,79545,1,0,0:0:0:0:
182,192,79545,1,0,0:0:0:0:
402,192,79659,1,0,0:0:0:0:
109,192,79772,1,0,0:0:0:0:
256,192,79772,1,0,0:0:0:0:
475,192,79886,1,0,0:0:0:0:
36,192,79999,1,0,0:0:0:0:
182,192,79999,1,0,0:0:0:0:
329,192,79999,1,0,0:0:0:0:
475,192,80113,1,0,0:0:0:0:
109,192,80227,1,0,0:0:0:0:
329,192,80227,1,0,0:0:0:0:
402,192,80340,1,0,0:0:0:0:
36,192,80454,1,0,0:0:0:0:
182,192,80454,1,0,0:0:0:0:
109,192,80681,1,0,0:0:0:0:
256,192,80681,1,0,0:0:0:0:
256,192,80795,1,0,0:0:0:0:
182,192,80833,1,0,0:0:0:0:
475,192,80909,1,0,0:0:0:0:
329,192,80909,1,0,0:0:0:0:
402,192,81136,1,0,0:0:0:0:
182,192,81136,1,0,0:0:0:0:
256,192,81249,1,0,0:0:0:0:
475,192,81363,1,0,0:0:0:0:
329,192,81363,1,0,0:0:0:0:
36,192,81477,1,0,0:0:0:0:
182,192,81477,1,0,0:0:0:0:
402,192,81590,1,0,0:0:0:0:
109,192,81590,1,0,0:0:0:0:
256,192,81590,1,0,0:0:0:0:
329,192,81704,1,0,0:0:0:0:
475,192,81818,1,0,0:0:0:0:
36,192,81818,1,0,0:0:0:0:
109,192,81818,128,0,82954:0:0:0:0:
182,192,81931,1,0,0:0:0:0:
402,192,82045,1,0,0:0:0:0:
36,192,82045,1,0,0:0:0:0:
256,192,82159,1,0,0:0:0:0:
475,192,82272,1,0,0:0:0:0:
329,192,82272,1,0,0:0:0:0:
402,192,82499,1,0,0:0:0:0:
329,192,82651,1,0,0:0:0:0:
475,192,82727,1,0,0:0:0:0:
402,192,82954,1,0,0:0:0:0:
182,192,82954,1,0,0:0:0:0:
475,192,83181,1,0,0:0:0:0:
109,192,83181,128,0,83636:0:0:0:0:
329,192,83181,1,0,0:0:0:0:
182,192,83295,1,0,0:0:0:0:
402,192,83409,1,0,0:0:0:0:
256,192,83522,1,0,0:0:0:0:
475,192,83636,1,0,0:0:0:0:
36,192,83636,1,0,0:0:0:0:
182,192,83636,128,0,84090:0:0:0:0:
256,192,83750,1,0,0:0:0:0:
402,192,83863,1,0,0:0:0:0:
36,192,83863,1,0,0:0:0:0:
109,192,83977,1,0,0:0:0:0:
475,192,84090,1,0,0:0:0:0:
256,192,84090,128,0,84545:0:0:0:0:
329,192,84090,1,0,0:0:0:0:
402,192,84318,1,0,0:0:0:0:
36,192,84318,1,0,0:0:0:0:
36,192,84431,1,0,0:0:0:0:
109,192,84469,1,0,0:0:0:0:
475,192,84545,1,0,0:0:0:0:
182,192,84545,128,0,85000:0:0:0:0:
329,192,84545,1,0,0:0:0:0:
402,192,84772,1,0,0:0:0:0:
36,192,84772,1,0,0:0:0:0:
256,192,84886,1,0,0:0:0:0:
475,192,85000,1,0,0:0:0:0:
109,192,85000,128,0,85454:0:0:0:0:
329,192,85000,1,0,0:0:0:0:
36,192,85113,1,0,0:0:0:0:
402,192,85227,1,0,0:0:0:0:
182,192,85227,1,0,0:0:0:0:
329,192,85340,1,0,0:0:0:0:
475,192,85454,1,0,0:0:0:0:
36,192,85454,128,0,86136:0:0:0:0:
256,192,85454,1,0,0:0:0:0:
329,192,85568,1,0,0:0:0:0:
402,192,85681,1,0,0:0:0:0:
256,192,85681,1,0,0:0:0:0:
109,192,85795,1,0,0:0:0:0:
475,192,85909,1,0,0:0:0:0:
182,192,85909,1,0,0:0:0:0:
402,192,86136,1,0,0:0:0:0:
109,192,86136,128,0,87727:0:0:0:0:
256,192,86287,1,0,0:0:0:0:
475,192,86363,1,0,0:0:0:0:
402,192,86590,1,0,0:0:0:0:
182,192,86590,1,0,0:0:0:0:
475,192,86818,1,0,0:0:0:0:
329,192,86818,1,0,0:0:0:0:
182,192,86931,1,0,0:0:0:0:
402,192,87045,1,0,0:0:0:0:
36,192,87159,1,0,0:0:0:0:
475,192,87272,1,0,0:0:0:0:
256,192,87272,1,0,0:0:0:0:
36,192,87386,1,0,0:0:0:0:
402,192,87500,1,0,0:0:0:0:
256,192,87500,1,0,0:0:0:0:
329,192,87613,1,0,0:0:0:0:
475,192,87727,1,0,0:0:0:0:
36,192,87727,1,0,0:0:0:0:
182,192,87727,1,0,0:0:0:0:
402,192,87954,1,0,0:0:0:0:
256,192,87954,1,0,0:0:0:0:
329,192,88106,1,0,0:0:0:0:
475,192,88181,1,0,0:0:0:0:
109,192,88181,1,0,0:0:0:0:
182,192,88181,1,0,0:0:0:0:
402,192,88409,1,0,0:0:0:0:
256,192,88409,1,0,0:0:0:0:
475,192,88636,1,0,0:0:0:0:
36,192,88636,1,0,0:0:0:0:
182,192,88636,1,0,0:0:0:0:
329,192,88636,1,0,0:0:0:0:
402,192,88863,1,0,0:0:0:0:
109,192,88863,1,0,0:0:0:0:
475,192,89090,1,0,0:0:0:0:
36,192,89090,1,0,0:0:0:0:
256,192,89090,1,0,0:0:0:0:
329,192,89090,1,0,0:0:0:0:
109,192,89166,1,0,0:0:0:0:
402,192,89204,1,0,0:0:0:0:
182,192,89242,1,0,0:0:0:0:
256,192,89318,1,0,0:0:0:0:
329,192,89393,1,0,0:0:0:0:
402,192,89469,1,0,0:0:0:0:
475,192,89545,1,0,0:0:0:0:
402,192,89621,1,0,0:0:0:0:
329,192,89696,1,0,0:0:0:0:
256,192,89772,1,0,0:0:0:0:
182,192,89848,1,0,0:0:0:0:
109,192,89924,1,0,0:0:0:0:
36,192,90000,1,0,0:0:0:0:
109,192,90075,1,0,0:0:0:0:
182,192,90151,1,0,0:0:0:0:
256,192,90227,1,0,0:0:0:0:
329,192,90303,1,0,0:0:0:0:
402,192,90378,1,0,0:0:0:0:
475,192,90454,1,0,0:0:0:0:
402,192,90530,1,0,0:0:0:0:
329,192,90606,1,0,0:0:0:0:
36,192,90681,1,0,0:0:0:0:
256,192,90681,1,0,0:0:0:0:
182,192,90757,1,0,0:0:0:0:
475,192,90795,1,0,0:0:0:0:
329,192,90795,1,0,0:0:0:0:
109,192,90833,1,0,0:0:0:0:
402,192,90909,1,0,0:0:0:0:
36,192,90909,1,0,0:0:0:0:
109,192,90984,1,0,0:0:0:0:
475,192,91022,1,0,0:0:0:0:
182,192,91060,1,0,0:0:0:0:
256,192,91136,1,0,0:0:0:0:
329,192,91212,1,0,0:0:0:0:
402,192,91287,1,0,0:0:0:0:
475,192,91363,1,0,0:0:0:0:
402,192,91439,1,0,0:0:0:0:
329,192,91515,1,0,0:0:0:0:
36,192,91590,1,0,0:0:0:0:
256,192,91590,1,0,0:0:0:0:
182,192,91666,1,0,0:0:0:0:
402,192,91704,1,0,0:0:0:0:
109,192,91742,1,0,0:0:0:0:
475,192,91818,1,0,0:0:0:0:
36,192,91818,1,0,0:0:0:0:
329,192,91818,1,0,0:0:0:0:
109,192,91893,1,0,0:0:0:0:
182,192,91969,1,0,0:0:0:0:
402,192,92045,1,0,0:0:0:0:
256,192,92045,1,0,0:0:0:0:
329,192,92121,1,0,0:0:0:0:
475,192,92196,1,0,0:0:0:0:
402,192,92272,1,0,0:0:0:0:
36,192,92272,1,0,0:0:0:0:
256,192,92348,1,0,0:0:0:0:
109,192,92424,1,0,0:0:0:0:
475,192,92500,1,0,0:0:0:0:
329,192,92500,1,0,0:0:0:0:
256,192,92575,1,0,0:0:0:0:
36,192,92613,1,0,0:0:0:0:
182,192,92651,1,0,0:0:0:0:
109,192,92727,1,0,0:0:0:0:
329,192,92727,1,0,0:0:0:0:
402,192,92784,1,0,0:0:0:0:
182,192,92803,1,0,0:0:0:0:
475,192,92840,1,0,0:0:0:0:
36,192,92840,1,0,0:0:0:0:
256,192,92878,1,0,0:0:0:0:
329,192,92954,1,0,0:0:0:0:
402,192,93030,1,0,0:0:0:0:
475,192,93106,1,0,0:0:0:0:
402,192,93181,1,0,0:0:0:0:
256,192,93257,1,0,0:0:0:0:
329,192,93333,1,0,0:0:0:0:
402,192,93409,1,0,0:0:0:0:
182,192,93409,1,0,0:0:0:0:
256,192,93484,1,0,0:0:0:0:
109,192,93560,1,0,0:0:0:0:
36,192,93636,1,0,0:0:0:0:
182,192,93712,1,0,0:0:0:0:
329,192,93787,1,0,0:0:0:0:
109,192,93863,1,0,0:0:0:0:
256,192,93939,1,0,0:0:0:0:
402,192,94015,1,0,0:0:0:0:
475,192,94090,1,0,0:0:0:0:
329,192,94166,1,0,0:0:0:0:
182,192,94242,1,0,0:0:0:0:
402,192,94318,1,0,0:0:0:0:
256,192,94318,1,0,0:0:0:0:
109,192,94393,1,0,0:0:0:0:
475,192,94431,1,0,0:0:0:0:
36,192,94469,1,0,0:0:0:0:
182,192,94545,1,0,0:0:0:0:
256,192,94545,1,0,0:0:0:0:
109,192,94621,1,0,0:0:0:0:
475,192,94659,1,0,0:0:0:0:
329,192,94696,1,0,0:0:0:0:
182,192,94772,1,0,0:0:0:0:
402,192,94848,1,0,0:0:0:0:
256,192,94924,1,0,0:0:0:0:
475,192,95000,1,0,0:0:0:0:
182,192,95075,1,0,0:0:0:0:
402,192,95151,1,0,0:0:0:0:
109,192,95227,1,0,0:0:0:0:
329,192,95303,1,0,0:0:0:0:
36,192,95378,1,0,0:0:0:0:
182,192,95454,1,0,0:0:0:0:
256,192,95530,1,0,0:0:0:0:
402,192,95606,1,0,0:0:0:0:
475,192,95681,1,0,0:0:0:0:
109,192,95681,1,0,0:0:0:0:
182,192,95757,1,0,0:0:0:0:
329,192,95833,1,0,0:0:0:0:
402,192,95909,1,0,0:0:0:0:
256,192,95909,1,0,0:0:0:0:
182,192,95984,1,0,0:0:0:0:
109,192,96022,1,0,0:0:0:0:
36,192,96060,1,0,0:0:0:0:
475,192,96136,1,0,0:0:0:0:
256,192,96136,1,0,0:0:0:0:
329,192,96136,1,0,0:0:0:0:
182,192,96212,1,0,0:0:0:0:
402,192,96250,1,0,0:0:0:0:
109,192,96287,1,0,0:0:0:0:
475,192,96363,1,0,0:0:0:0:
36,192,96363,1,0,0:0:0:0:
329,192,96363,1,0,0:0:0:0:
182,192,96439,1,0,0:0:0:0:
256,192,96515,1,0,0:0:0:0:
402,192,96590,1,0,0:0:0:0:
109,192,96666,1,0,0:0:0:0:
329,192,96742,1,0,0:0:0:0:
475,192,96818,1,0,0:0:0:0:
402,192,96893,1,0,0:0:0:0:
256,192,96969,1,0,0:0:0:0:
109,192,97045,1,0,0:0:0:0:
329,192,97121,1,0,0:0:0:0:
182,192,97196,1,0,0:0:0:0:
36,192,97272,1,0,0:0:0:0:
109,192,97348,1,0,0:0:0:0:
256,192,97424,1,0,0:0:0:0:
402,192,97500,1,0,0:0:0:0:
182,192,97575,1,0,0:0:0:0:
256,192,97651,1,0,0:0:0:0:
402,192,97727,1,0,0:0:0:0:
475,192,97727,1,0,0:0:0:0:
329,192,97727,1,0,0:0:0:0:
182,192,97803,1,0,0:0:0:0:
109,192,97878,1,0,0:0:0:0:
256,192,97954,1,0,0:0:0:0:
182,192,98030,1,0,0:0:0:0:
402,192,98068,1,0,0:0:0:0:
109,192,98106,1,0,0:0:0:0:
475,192,98181,1,0,0:0:0:0:
36,192,98181,1,0,0:0:0:0:
329,192,98181,1,0,0:0:0:0:
109,192,98257,1,0,0:0:0:0:
402,192,98295,1,0,0:0:0:0:
182,192,98333,1,0,0:0:0:0:
256,192,98409,1,0,0:0:0:0:
329,192,98484,1,0,0:0:0:0:
402,192,98560,1,0,0:0:0:0:
475,192,98636,1,0,0:0:0:0:
109,192,98636,1,0,0:0:0:0:
402,192,98712,1,0,0:0:0:0:
329,192,98787,1,0,0:0:0:0:
256,192,98863,1,0,0:0:0:0:
182,192,98939,1,0,0:0:0:0:
109,192,99015,1,0,0:0:0:0:
36,192,99090,1,0,0:0:0:0:
329,192,99090,1,0,0:0:0:0:
109,192,99166,1,0,0:0:0:0:
182,192,99242,1,0,0:0:0:0:
36,192,99318,1,0,0:0:0:0:
256,192,99318,1,0,0:0:0:0:
329,192,99393,1,0,0:0:0:0:
402,192,99469,1,0,0:0:0:0:
475,192,99545,1,0,0:0:0:0:
109,192,99545,1,0,0:0:0:0:
182,192,99545,1,0,0:0:0:0:
402,192,99621,1,0,0:0:0:0:
329,192,99696,1,0,0:0:0:0:
475,192,99772,1,0,0:0:0:0:
256,192,99772,1,0,0:0:0:0:
182,192,99848,1,0,0:0:0:0:
402,192,99886,1,0,0:0:0:0:
109,192,99924,1,0,0:0:0:0:
36,192,100000,1,0,0:0:0:0:
182,192,100000,1,0,0:0:0:0:
256,192,100000,1,0,0:0:0:0:
329,192,100075,1,0,0:0:0:0:
402,192,100113,1,0,0:0:0:0:
475,192,100151,1,0,0:0:0:0:
36,192,100227,1,0,0:0:0:0:
109,192,100303,1,0,0:0:0:0:
182,192,100378,1,0,0:0:0:0:
329,192,100454,1,0,0:0:0:0:
475,192,100530,1,0,0:0:0:0:
402,192,100606,1,0,0:0:0:0:
109,192,100681,1,0,0:0:0:0:
256,192,100681,1,0,0:0:0:0:
329,192,100681,1,0,0:0:0:0:
182,192,100757,1,0,0:0:0:0:
36,192,100833,1,0,0:0:0:0:
109,192,100909,1,0,0:0:0:0:
182,192,100984,1,0,0:0:0:0:
256,192,101060,1,0,0:0:0:0:
329,192,101136,1,0,0:0:0:0:
402,192,101212,1,0,0:0:0:0:
475,192,101287,1,0,0:0:0:0:
182,192,101363,1,0,0:0:0:0:
256,192,101363,1,0,0:0:0:0:
329,192,101363,1,0,0:0:0:0:
109,192,101439,1,0,0:0:0:0:
36,192,101515,1,0,0:0:0:0:
475,192,101590,1,0,0:0:0:0:
402,192,101666,1,0,0:0:0:0:
329,192,101704,1,0,0:0:0:0:
256,192,101742,1,0,0:0:0:0:
109,192,101818,1,0,0:0:0:0:
182,192,101893,1,0,0:0:0:0:
329,192,101931,1,0,0:0:0:0:
475,192,101969,1,0,0:0:0:0:
402,192,102045,1,0,0:0:0:0:
36,192,102045,1,0,0:0:0:0:
256,192,102045,1,0,0:0:0:0:
109,192,102121,1,0,0:0:0:0:
182,192,102196,1,0,0:0:0:0:
475,192,102272,1,0,0:0:0:0:
402,192,102348,1,0,0:0:0:0:
329,192,102424,1,0,0:0:0:0:
256,192,102500,1,0,0:0:0:0:
182,192,102575,1,0,0:0:0:0:
109,192,102651,1,0,0:0:0:0:
402,192,102727,1,0,0:0:0:0:
36,192,102727,1,0,0:0:0:0:
329,192,102727,1,0,0:0:0:0:
182,192,102803,1,0,0:0:0:0:
256,192,102878,1,0,0:0:0:0:
109,192,102954,1,0,0:0:0:0:
182,192,103030,1,0,0:0:0:0:
36,192,103068,1,0,0:0:0:0:
256,192,103106,1,0,0:0:0:0:
402,192,103181,1,0,0:0:0:0:
475,192,103181,1,0,0:0:0:0:
36,192,103181,1,0,0:0:0:0:
329,192,103181,1,0,0:0:0:0:
182,192,103257,1,0,0:0:0:0:
256,192,103333,1,0,0:0:0:0:
36,192,103409,1,0,0:0:0:0:
329,192,103409,1,0,0:0:0:0:
402,192,103484,1,0,0:0:0:0:
475,192,103560,1,0,0:0:0:0:
36,192,103636,1,0,0:0:0:0:
109,192,103636,1,0,0:0:0:0:
182,192,103636,1,0,0:0:0:0:
256,192,103636,1,0,0:0:0:0:
