osu file format v14

[General]
AudioFilename: audio.mp3
AudioLeadIn: 0
PreviewTime: 208094
Countdown: 0
SampleSet: Soft
StackLeniency: 0.3
Mode: 0
LetterboxInBreaks: 0
WidescreenStoryboard: 1

[Editor]
Bookmarks: 1143,20655,53826,69435,100655,108460,126021,141631,172850,188460,208948,224557,240167
DistanceSpacing: 1.5
BeatDivisor: 4
GridSize: 32
TimelineZoom: 1.7

[Metadata]
Title:Seiza ni Naretara
TitleUnicode:星座になれたら
Artist:kessoku band
ArtistUnicode:結束バンド
Creator:cutefro
Version:Another
Source:ぼっち・ざ・ろっく!
Tags:bocchi the rock btr japanese anime j-rock jrock if i could be a constellation was gotou gotoh hitori 後藤ひとり yamada ryo ryou 山田リョウ kita ikuyo 喜多郁代 ijichi nijika 伊地知虹夏 lude interlude- hoto cocoa buckfro
BeatmapID:3970478
BeatmapSetID:1914419

[Difficulty]
HPDrainRate:4.5
CircleSize:4.2
OverallDifficulty:8
ApproachRate:8.5
SliderMultiplier:2
SliderTickRate:1

[Events]
//Background and Video events
0,0,"bg.jpg",0,0
//Break Periods
//Storyboard Layer 0 (Background)
//Storyboard Layer 1 (Fail)
//Storyboard Layer 2 (Pass)
//Storyboard Layer 3 (Foreground)
//Storyboard Layer 4 (Overlay)
//Storyboard Sound Samples

[TimingPoints]
-808,487.80487804878,4,2,1,45,1,0
655,-500,4,2,20,45,0,0
1143,-83.3333333333333,4,2,1,45,0,0
1631,-166.666666666667,4,2,1,45,0,0
2118,-83.3333333333333,4,2,1,45,0,0
2484,-500,4,2,1,45,0,0
2850,-83.3333333333333,4,2,1,45,0,0
3704,-500,4,2,1,45,0,0
4070,-100,4,2,1,45,0,0
4232,-100,4,2,2,45,0,0
4557,-1000,4,2,20,45,0,0
5045,-83.3333333333333,4,2,1,45,0,0
5289,-83.3333333333333,4,2,2,45,0,0
5533,-166.666666666667,4,2,1,45,0,0
6021,-83.3333333333333,4,2,1,45,0,0
6387,-500,4,2,1,45,0,0
6752,-83.3333333333333,4,2,1,45,0,0
7362,-200,4,2,2,45,0,0
7484,-200,4,2,1,45,0,0
7728,-200,4,2,2,45,0,0
7850,-200,4,2,1,45,0,0
8948,-83.3333333333333,4,2,2,60,0,0
9435,-62.5,4,2,1,60,0,0
9923,-83.3333333333333,4,2,1,60,0,0
10167,-71.4285714285714,4,2,2,60,0,0
10289,-500,4,2,1,60,0,0
10655,-83.3333333333333,4,2,1,60,0,0
10777,-83.3333333333333,4,2,2,60,0,0
10899,-83.3333333333333,4,2,1,60,0,0
11143,-125,4,2,2,60,0,0
11387,-100,4,2,1,60,0,0
11631,-500,4,2,1,60,0,0
11752,-500,4,2,2,60,0,0
11874,-500,4,2,1,60,0,0
11996,-83.3333333333333,4,2,1,60,0,0
12118,-71.4285714285714,4,2,2,60,0,0
12240,-71.4285714285714,4,2,1,60,0,0
12362,-1000,4,2,1,60,0,0
12606,-1000,4,2,2,60,0,0
12728,-1000,4,2,20,60,0,0
12850,-83.3333333333333,4,2,1,60,0,0
13094,-83.3333333333333,4,2,2,60,0,0
13216,-83.3333333333333,4,2,1,60,0,0
13704,-83.3333333333333,4,2,2,60,0,0
13826,-83.3333333333333,4,2,1,60,0,0
14070,-83.3333333333333,4,2,2,60,0,0
14191,-500,4,2,1,60,0,0
14557,-500,4,2,2,60,0,0
14679,-500,4,2,20,60,0,0
14801,-71.4285714285714,4,2,1,60,0,0
15045,-71.4285714285714,4,2,2,60,0,0
15167,-71.4285714285714,4,2,1,60,0,0
15533,-500,4,2,2,60,0,0
15655,-500,4,2,1,60,0,0
15777,-62.5,4,2,1,60,0,0
16752,-60.6060606060606,4,2,1,60,0,0
17484,-74.0740740740741,4,2,2,60,0,0
18216,-95.2380952380952,4,2,1,60,0,0
18948,-133.333333333333,4,2,2,60,0,0
19191,-133.333333333333,4,2,1,60,0,0
19435,-133.333333333333,4,2,2,60,0,0
19679,-333.333333333333,4,2,1,60,0,0
19923,-142.857142857143,4,2,1,60,0,0
20411,-208.333333333333,4,2,1,60,0,0
20655,-83.3333333333333,4,2,41,50,0,0
21143,-125,4,2,41,50,0,0
21387,-125,4,2,42,50,0,0
21509,-125,4,2,60,50,0,0
21752,-125,4,2,42,50,0,0
21874,-125,4,2,60,50,0,0
22118,-125,4,2,41,50,0,0
22362,-125,4,2,42,50,0,0
22484,-125,4,2,60,50,0,0
22606,-83.3333333333333,4,2,41,50,0,0
23094,-500,4,2,41,50,0,0
23338,-500,4,2,42,50,0,0
23460,-125,4,2,41,50,0,0
23704,-500,4,2,41,50,0,0
24070,-125,4,2,41,50,0,0
24313,-125,4,2,42,50,0,0
24435,-125,4,2,41,50,0,0
24557,-83.3333333333333,4,2,41,50,0,0
25045,-125,4,2,41,50,0,0
25289,-125,4,2,42,50,0,0
25411,-125,4,2,60,50,0,0
25655,-125,4,2,42,50,0,0
25777,-125,4,2,60,50,0,0
26021,-250,4,2,41,50,0,0
26387,-250,4,2,42,50,0,0
26509,-125,4,2,41,50,0,0
26752,-125,4,2,42,50,0,0
26874,-125,4,2,41,50,0,0
26996,-250,4,2,41,50,0,0
27240,-250,4,2,42,50,0,0
27362,-250,4,2,41,50,0,0
27606,-250,4,2,42,50,0,0
27728,-250,4,2,41,50,0,0
27972,-166.666666666667,4,2,41,50,0,0
28216,-166.666666666667,4,2,42,50,0,0
28460,-83.3333333333333,4,2,41,50,0,0
28948,-125,4,2,41,50,0,0
29191,-125,4,2,42,50,0,0
29435,-125,4,2,60,50,0,0
29679,-125,4,2,41,50,0,0
30289,-125,4,2,60,50,0,0
30411,-83.3333333333333,4,2,41,50,0,0
30899,-500,4,2,41,50,0,0
31143,-500,4,2,42,50,0,0
31265,-125,4,2,41,50,0,0
31509,-500,4,2,41,50,0,0
31874,-125,4,2,41,50,0,0
32118,-125,4,2,60,50,0,0
32240,-125,4,2,41,50,0,0
32362,-83.3333333333333,4,2,41,50,0,0
32850,-125,4,2,41,50,0,0
33094,-125,4,2,42,50,0,0
33216,-125,4,2,60,50,0,0
33460,-125,4,2,42,50,0,0
33582,-125,4,2,60,50,0,0
33826,-125,4,2,41,50,0,0
34070,-125,4,2,42,50,0,0
34313,-125,4,2,60,50,0,0
34557,-125,4,2,41,50,0,0
34923,-125,4,2,60,50,0,0
35045,-125,4,2,42,50,0,0
35167,-125,4,2,60,50,0,0
35289,-125,4,2,42,50,0,0
35411,-125,4,2,41,50,0,0
35533,-125,4,2,60,50,0,0
35777,-125,4,2,41,50,0,0
36265,-83.3333333333333,4,2,41,50,0,0
36752,-125,4,2,41,50,0,0
37484,-125,4,2,42,50,0,0
37606,-125,4,2,41,50,0,0
38094,-125,4,2,60,50,0,0
38216,-83.3333333333333,4,2,41,50,0,0
38460,-83.3333333333333,4,2,42,50,0,0
38582,-83.3333333333333,4,2,41,50,0,0
38704,-500,4,2,41,50,0,0
38948,-500,4,2,42,50,0,0
39070,-500,4,2,41,50,0,0
39435,-200,4,2,42,50,0,0
39557,-200,4,2,41,50,0,0
39923,-166.666666666667,4,2,42,50,0,0
40045,-166.666666666667,4,2,41,50,0,0
40411,-166.666666666667,4,2,42,50,0,0
40533,-166.666666666667,4,2,41,50,0,0
40899,-200,4,2,42,50,0,0
41021,-200,4,2,60,50,0,0
41143,-500,4,2,60,50,0,0
41265,-500,4,2,41,50,0,0
41631,-125,4,2,41,50,0,0
41874,-125,4,2,42,50,0,0
42118,-83.3333333333333,4,2,41,50,0,0
42850,-83.3333333333333,4,2,42,50,0,0
42972,-125,4,2,41,50,0,0
43826,-166.666666666667,4,2,41,50,0,0
44070,-166.666666666667,4,2,60,50,0,0
44191,-166.666666666667,4,2,41,50,0,0
44923,-125,4,2,60,50,0,0
45045,-500,4,2,42,50,0,0
45167,-500,4,2,41,50,0,0
45289,-500,4,2,60,50,0,0
45411,-500,4,2,41,50,0,0
45533,-83.3333333333333,4,2,41,50,0,0
45899,-83.3333333333333,4,2,42,50,0,0
46021,-125,4,2,41,50,0,0
46265,-83.3333333333333,4,2,42,50,0,0
46387,-83.3333333333333,4,2,41,50,0,0
46631,-125,4,2,41,50,0,0
46752,-125,4,2,42,50,0,0
46874,-125,4,2,41,50,0,0
47484,-83.3333333333333,4,2,41,50,0,0
47728,-83.3333333333333,4,2,42,50,0,0
47850,-83.3333333333333,4,2,41,50,0,0
48216,-83.3333333333334,4,2,42,50,0,0
48338,-83.3333333333334,4,2,41,50,0,0
48460,-500,4,2,41,50,0,0
48704,-500,4,2,42,50,0,0
48826,-500,4,2,60,50,0,0
48948,-500,4,2,42,50,0,0
49070,-500,4,2,41,50,0,0
49191,-166.666666666667,4,2,41,50,0,0
49679,-166.666666666667,4,2,42,50,0,0
50167,-71.4285714285714,4,2,41,50,0,0
50655,-71.4285714285714,4,2,42,50,0,0
50777,-166.666666666667,4,2,41,50,0,0
51631,-166.666666666667,4,2,42,50,0,0
51752,-166.666666666667,4,2,41,50,0,0
52606,-166.666666666667,4,2,42,50,0,0
52728,-500.000000000003,4,2,41,50,0,0
53826,-200,4,2,2,55,0,0
53948,-200,4,2,1,55,0,0
54557,-200,4,2,2,55,0,0
54679,-200,4,2,1,55,0,0
55533,-200,4,2,2,55,0,0
55655,-200,4,2,1,55,0,0
56021,-200,4,2,2,55,0,0
56143,-200,4,2,1,55,0,0
56509,-200,4,2,2,55,0,0
56631,-200,4,2,1,55,0,0
57484,-200,4,2,20,55,0,0
57606,-200,4,2,1,55,0,0
57972,-200,4,2,2,55,0,0
58094,-200,4,2,1,55,0,0
58460,-200,4,2,2,55,0,0
58582,-200,4,2,1,55,0,0
59435,-200,4,2,2,55,0,0
59557,-200,4,2,1,55,0,0
59923,-200,4,2,2,55,0,0
60045,-200,4,2,1,55,0,0
60411,-200,4,2,2,55,0,0
60533,-200,4,2,1,55,0,0
61631,-200,4,2,2,55,0,0
61752,-200,4,2,1,55,0,0
62362,-200,4,2,2,55,0,0
62484,-200,4,2,1,55,0,0
63338,-200,4,2,2,55,0,0
63460,-200,4,2,1,55,0,0
63826,-200,4,2,2,55,0,0
63948,-200,4,2,1,55,0,0
64313,-200,4,2,2,55,0,0
64435,-200,4,2,1,55,0,0
64801,-100,4,2,41,55,0,0
65533,-50,4,2,41,55,0,0
66265,-66.6666666666667,4,2,41,55,0,0
66752,-200,4,2,41,55,0,0
67240,-66.6666666666667,4,2,42,55,0,0
67484,-66.6666666666667,4,2,41,55,0,0
67972,-200,4,2,41,55,0,0
68216,-66.6666666666667,4,2,41,55,0,0
69191,-100,4,2,41,55,0,0
69435,-71.4285714285714,4,2,41,75,0,0
69679,-71.4285714285714,4,2,42,75,0,0
69801,-71.4285714285714,4,2,41,75,0,0
70167,-71.4285714285714,4,2,42,75,0,0
70411,-71.4285714285714,4,2,41,75,0,0
70655,-71.4285714285714,4,2,42,75,0,0
70777,-71.4285714285714,4,2,41,75,0,0
70899,-83.3333333333333,4,2,41,75,0,0
71143,-83.3333333333333,4,2,42,75,0,0
71387,-83.3333333333333,4,2,41,75,0,0
71631,-83.3333333333333,4,2,42,75,0,0
71874,-71.4285714285714,4,2,41,75,0,0
72118,-71.4285714285714,4,2,42,75,0,0
72240,-71.4285714285714,4,2,41,75,0,0
72606,-83.3333333333333,4,2,42,75,0,0
72850,-83.3333333333333,4,2,41,75,0,0
73094,-83.3333333333333,4,2,42,75,0,0
73216,-83.3333333333333,4,2,41,75,0,0
73582,-83.3333333333333,4,2,42,75,0,0
73704,-83.3333333333333,4,2,41,75,0,0
74070,-83.3333333333333,4,2,42,75,0,0
74313,-83.3333333333333,4,2,41,75,0,0
74435,-71.4285714285714,4,2,41,75,0,0
74557,-71.4285714285714,4,2,42,75,0,0
74679,-71.4285714285714,4,2,41,75,0,0
75045,-250,4,2,42,75,0,0
75289,-166.666666666667,4,2,41,75,0,0
75533,-166.666666666667,4,2,42,75,0,0
75777,-71.4285714285714,4,2,41,75,0,0
76021,-71.4285714285714,4,2,42,75,0,0
76143,-71.4285714285714,4,2,41,75,0,0
76265,-200,4,2,41,75,0,0
76509,-200,4,2,42,75,0,0
76631,-200,4,2,41,75,0,0
76752,-142.857142857143,4,2,41,75,0,0
76996,-142.857142857143,4,2,42,75,0,0
77118,-142.857142857143,4,2,41,75,0,0
77240,-71.4285714285714,4,2,41,75,0,0
77484,-71.4285714285714,4,2,42,75,0,0
77728,-83.3333333333333,4,2,41,75,0,0
77972,-83.3333333333333,4,2,42,75,0,0
78216,-83.3333333333333,4,2,41,75,0,0
78460,-62.5,4,2,42,75,0,0
78704,-62.5,4,2,41,75,0,0
78948,-62.5,4,2,42,75,0,0
79191,-83.3333333333334,4,2,41,75,0,0
79435,-83.3333333333334,4,2,42,75,0,0
79679,-83.3333333333334,4,2,41,75,0,0
79923,-83.3333333333334,4,2,42,75,0,0
80167,-83.3333333333334,4,2,41,75,0,0
80411,-83.3333333333334,4,2,42,75,0,0
80655,-250,4,2,41,75,0,0
80899,-250,4,2,42,75,0,0
81021,-250,4,2,41,75,0,0
81143,-62.5,4,2,41,75,0,0
81874,-62.5,4,2,42,75,0,0
82118,-62.5,4,2,41,75,0,0
82362,-250,4,2,41,75,0,0
82850,-62.5,4,2,41,75,0,0
83338,-500,4,2,41,75,0,0
83826,-62.5,4,2,41,75,0,0
85045,-71.4285714285714,4,2,41,75,0,0
85289,-71.4285714285714,4,2,42,75,0,0
85533,-71.4285714285714,4,2,41,75,0,0
85777,-71.4285714285714,4,2,42,75,0,0
86021,-71.4285714285714,4,2,41,75,0,0
86265,-71.4285714285714,4,2,42,75,0,0
86509,-83.3333333333333,4,2,41,75,0,0
86752,-83.3333333333333,4,2,42,75,0,0
86996,-83.3333333333333,4,2,41,75,0,0
87240,-83.3333333333333,4,2,42,75,0,0
87484,-83.3333333333333,4,2,41,75,0,0
87728,-71.4285714285714,4,2,42,75,0,0
87850,-71.4285714285714,4,2,41,75,0,0
88216,-83.3333333333333,4,2,42,75,0,0
88460,-83.3333333333333,4,2,41,75,0,0
88704,-83.3333333333333,4,2,42,75,0,0
88826,-83.3333333333333,4,2,41,75,0,0
89191,-83.3333333333333,4,2,42,75,0,0
89313,-83.3333333333333,4,2,41,75,0,0
89679,-83.3333333333333,4,2,42,75,0,0
89923,-83.3333333333333,4,2,41,75,0,0
90045,-71.4285714285714,4,2,41,75,0,0
90167,-71.4285714285714,4,2,42,75,0,0
90289,-71.4285714285714,4,2,41,75,0,0
90655,-250,4,2,42,75,0,0
90899,-166.666666666667,4,2,41,75,0,0
91143,-166.666666666667,4,2,42,75,0,0
91387,-71.4285714285714,4,2,41,75,0,0
91631,-71.4285714285714,4,2,42,75,0,0
91874,-200,4,2,41,75,0,0
92118,-200,4,2,42,75,0,0
92240,-200,4,2,41,75,0,0
92362,-83.3333333333334,4,2,41,75,0,0
92606,-83.3333333333334,4,2,42,75,0,0
92728,-83.3333333333334,4,2,41,75,0,0
92850,-83.3333333333333,4,2,41,75,0,0
93094,-83.3333333333333,4,2,42,75,0,0
93338,-83.3333333333333,4,2,41,75,0,0
93582,-83.3333333333333,4,2,42,75,0,0
93704,-500,4,2,41,75,0,0
94070,-500,4,2,42,75,0,0
94191,-500,4,2,41,75,0,0
94313,-166.666666666667,4,2,41,75,0,0
94557,-166.666666666667,4,2,42,75,0,0
94679,-166.666666666667,4,2,41,75,0,0
94801,-142.857142857143,4,2,41,75,0,0
95045,-500,4,2,42,75,0,0
95289,-500,4,2,41,75,0,0
95533,-100,4,2,42,75,0,0
95777,-100,4,2,41,75,0,0
96021,-100,4,2,42,75,0,0
96265,-166.666666666667,4,2,41,75,0,0
96509,-83.3333333333334,4,2,42,75,0,0
96752,-83.3333333333334,4,2,41,75,0,0
96996,-250,4,2,42,75,0,0
97240,-250,4,2,41,75,0,0
97484,-100,4,2,41,75,0,0
97728,-500,4,2,41,75,0,0
97972,-250,4,2,41,75,0,0
98216,-125,4,2,41,75,0,0
98460,-62.5,4,2,41,75,0,0
98948,-100,4,2,41,75,0,0
99191,-83.3333333333333,4,2,41,75,0,0
100655,-83.3333333333333,4,2,2,60,0,0
101021,-83.3333333333333,4,2,1,60,0,0
101143,-62.5,4,2,1,60,0,0
101631,-83.3333333333333,4,2,1,60,0,0
101874,-71.4285714285714,4,2,2,60,0,0
101996,-500,4,2,1,60,0,0
102362,-83.3333333333333,4,2,1,60,0,0
102484,-83.3333333333333,4,2,60,60,0,0
102606,-83.3333333333333,4,2,1,60,0,0
102850,-125,4,2,2,60,0,0
103094,-100,4,2,1,60,0,0
103338,-500,4,2,1,60,0,0
103460,-500,4,2,1,60,0,0
103582,-500,4,2,1,60,0,0
103704,-83.3333333333333,4,2,1,60,0,0
103826,-71.4285714285714,4,2,2,60,0,0
103948,-71.4285714285714,4,2,1,60,0,0
104070,-1000,4,2,1,60,0,0
104313,-1000,4,2,1,60,0,0
104435,-1000,4,2,1,60,0,0
104557,-83.3333333333333,4,2,1,60,0,0
104801,-83.3333333333333,4,2,2,60,0,0
104923,-83.3333333333333,4,2,1,60,0,0
105411,-83.3333333333333,4,2,1,60,0,0
105533,-83.3333333333333,4,2,1,60,0,0
105777,-83.3333333333333,4,2,2,60,0,0
105899,-500,4,2,1,60,0,0
106265,-500,4,2,1,60,0,0
106387,-500,4,2,1,60,0,0
106509,-71.4285714285714,4,2,1,60,0,0
106752,-71.4285714285714,4,2,2,60,0,0
106874,-71.4285714285714,4,2,1,60,0,0
107240,-500,4,2,2,60,0,0
107362,-500,4,2,1,60,0,0
107728,-500,4,2,2,60,0,0
107850,-500,4,2,1,60,0,0
108460,-83.3333333333333,4,2,41,50,0,0
108704,-83.3333333333333,4,2,42,50,0,0
108947,-125,4,2,41,50,0,0
109191,-125,4,2,42,50,0,0
109313,-125,4,2,41,50,0,0
109679,-125,4,2,42,50,0,0
109801,-125,4,2,41,50,0,0
110167,-125,4,2,42,50,0,0
110289,-125,4,2,60,50,0,0
110411,-125,4,2,41,50,0,0
111143,-500,4,2,41,50,0,0
111874,-166.666666666667,4,2,41,50,0,0
112118,-166.666666666667,4,2,42,50,0,0
112362,-166.666666666667,4,2,41,50,0,0
112850,-83.3333333333334,4,2,41,50,0,0
113094,-83.3333333333334,4,2,42,50,0,0
113216,-83.3333333333334,4,2,41,50,0,0
113582,-83.3333333333334,4,2,42,50,0,0
113704,-83.3333333333334,4,2,41,50,0,0
113948,-500,4,2,41,50,0,0
114070,-500,4,2,42,50,0,0
114191,-500,4,2,60,50,0,0
115045,-125,4,2,60,50,0,0
115289,-71.4285714285714,4,2,60,50,0,0
115533,-71.4285714285714,4,2,42,50,0,0
115655,-71.4285714285714,4,2,41,50,0,0
116265,-166.666666666667,4,2,41,50,0,0
116996,-166.666666666667,4,2,42,50,0,0
117118,-166.666666666667,4,2,41,50,0,0
117240,-500,4,2,41,50,0,0
117484,-500,4,2,42,50,0,0
117606,-500,4,2,41,50,0,0
117728,-83.3333333333333,4,2,41,50,0,0
117972,-83.3333333333333,4,2,42,50,0,0
118094,-125,4,2,60,50,0,0
118216,-125,4,2,41,50,0,0
118460,-83.3333333333333,4,2,41,50,0,0
119191,-71.4285714285714,4,2,41,50,0,0
119435,-71.4285714285714,4,2,42,50,0,0
119557,-166.666666666667,4,2,41,50,0,0
119923,-166.666666666667,4,2,42,50,0,0
120045,-166.666666666667,4,2,41,50,0,0
120655,-83.3333333333334,4,2,41,50,0,0
120899,-83.3333333333333,4,2,42,50,0,0
121021,-83.3333333333333,4,2,41,50,0,0
121752,-500,4,2,41,50,0,0
121874,-500,4,2,42,50,0,0
121996,-500,4,2,60,50,0,0
122118,-500,4,2,41,50,0,0
123094,-71.4285714285714,4,2,41,50,0,0
124070,-83.3333333333333,4,2,41,50,0,0
124313,-83.3333333333333,4,2,42,50,0,0
124557,-83.3333333333333,4,2,60,50,0,0
124679,-83.3333333333333,4,2,41,50,0,0
124923,-500.000000000003,4,2,41,50,0,0
126021,-125,4,2,2,65,0,0
126509,-125,4,2,1,65,0,0
126631,-125,4,2,2,65,0,0
127484,-125,4,2,1,65,0,0
127606,-125,4,2,2,65,0,0
128460,-125,4,2,1,65,0,0
128582,-125,4,2,2,65,0,0
129435,-333.333333333333,4,2,1,65,0,0
129557,-333.333333333333,4,2,2,65,0,0
129923,-125,4,2,2,65,0,0
130411,-125,4,2,1,65,0,0
130533,-125,4,2,2,65,0,0
131387,-125,4,2,1,65,0,0
131509,-125,4,2,2,65,0,0
132362,-125,4,2,1,65,0,0
132484,-125,4,2,2,65,0,0
133338,-125,4,2,1,65,0,0
133826,-125,4,2,2,65,0,0
134313,-125,4,2,1,65,0,0
134435,-125,4,2,2,65,0,0
135289,-125,4,2,1,65,0,0
135411,-125,4,2,2,65,0,0
136265,-125,4,2,1,65,0,0
136387,-125,4,2,2,65,0,0
137240,-125,4,2,41,65,0,0
137484,-50,4,2,41,65,0,0
138216,-66.6666666666667,4,2,41,65,0,0
138703,-200,4,2,41,65,0,0
139435,-66.6666666666667,4,2,42,65,0,0
139679,-66.6666666666667,4,2,41,65,0,0
140167,-200,4,2,41,65,0,0
140411,-66.6666666666667,4,2,41,65,0,0
141143,-100,4,2,41,65,0,0
141386,-71.4285714285714,4,2,41,65,0,0
141631,-71.4285714285714,4,2,41,75,0,0
141874,-71.4285714285714,4,2,42,75,0,0
141996,-71.4285714285714,4,2,41,75,0,0
142362,-71.4285714285714,4,2,42,75,0,0
142606,-71.4285714285714,4,2,41,75,0,0
142850,-71.4285714285714,4,2,42,75,0,0
142972,-71.4285714285714,4,2,41,75,0,0
143094,-83.3333333333333,4,2,41,75,0,0
143338,-83.3333333333333,4,2,42,75,0,0
143582,-83.3333333333333,4,2,41,75,0,0
143826,-83.3333333333333,4,2,42,75,0,0
144070,-71.4285714285714,4,2,41,75,0,0
144313,-71.4285714285714,4,2,42,75,0,0
144435,-71.4285714285714,4,2,41,75,0,0
144801,-83.3333333333333,4,2,42,75,0,0
145045,-83.3333333333333,4,2,41,75,0,0
145289,-83.3333333333333,4,2,42,75,0,0
145411,-83.3333333333333,4,2,41,75,0,0
145777,-83.3333333333333,4,2,42,75,0,0
145899,-83.3333333333333,4,2,41,75,0,0
146265,-83.3333333333333,4,2,42,75,0,0
146509,-83.3333333333333,4,2,41,75,0,0
146631,-71.4285714285714,4,2,41,75,0,0
146752,-71.4285714285714,4,2,42,75,0,0
146874,-71.4285714285714,4,2,41,75,0,0
147240,-250,4,2,42,75,0,0
147484,-166.666666666667,4,2,41,75,0,0
147728,-166.666666666667,4,2,42,75,0,0
147972,-71.4285714285714,4,2,41,75,0,0
148216,-71.4285714285714,4,2,42,75,0,0
148338,-71.4285714285714,4,2,41,75,0,0
148460,-200,4,2,41,75,0,0
148704,-200,4,2,42,75,0,0
148826,-200,4,2,41,75,0,0
148948,-142.857142857143,4,2,41,75,0,0
149191,-142.857142857143,4,2,42,75,0,0
149313,-142.857142857143,4,2,41,75,0,0
149435,-71.4285714285714,4,2,41,75,0,0
149679,-71.4285714285714,4,2,42,75,0,0
149923,-83.3333333333333,4,2,41,75,0,0
150167,-83.3333333333333,4,2,42,75,0,0
150411,-83.3333333333333,4,2,41,75,0,0
150655,-62.5,4,2,42,75,0,0
150899,-62.5,4,2,41,75,0,0
151143,-62.5,4,2,42,75,0,0
151265,-62.5,4,2,41,75,0,0
151387,-83.3333333333334,4,2,41,75,0,0
151631,-83.3333333333334,4,2,42,75,0,0
151874,-83.3333333333334,4,2,41,75,0,0
152118,-83.3333333333334,4,2,42,75,0,0
152362,-83.3333333333334,4,2,41,75,0,0
152606,-83.3333333333334,4,2,42,75,0,0
152850,-250,4,2,41,75,0,0
153094,-250,4,2,42,75,0,0
153216,-250,4,2,41,75,0,0
153338,-62.5,4,2,41,75,0,0
154070,-62.5,4,2,41,75,0,0
154557,-250,4,2,41,75,0,0
155045,-62.5,4,2,41,75,0,0
155533,-500,4,2,41,75,0,0
156752,-250,4,2,41,75,0,0
157240,-71.4285714285714,4,2,41,75,0,0
157484,-71.4285714285714,4,2,42,75,0,0
157728,-71.4285714285714,4,2,41,75,0,0
157972,-71.4285714285714,4,2,42,75,0,0
158216,-71.4285714285714,4,2,41,75,0,0
158460,-71.4285714285714,4,2,42,75,0,0
158582,-71.4285714285714,4,2,41,75,0,0
158704,-83.3333333333333,4,2,41,75,0,0
158948,-83.3333333333333,4,2,42,75,0,0
159191,-83.3333333333333,4,2,41,75,0,0
159435,-83.3333333333333,4,2,42,75,0,0
159679,-83.3333333333333,4,2,41,75,0,0
159923,-71.4285714285714,4,2,42,75,0,0
160045,-71.4285714285714,4,2,41,75,0,0
160411,-83.3333333333333,4,2,42,75,0,0
160655,-83.3333333333333,4,2,41,75,0,0
160899,-83.3333333333333,4,2,42,75,0,0
161021,-83.3333333333333,4,2,41,75,0,0
161387,-83.3333333333333,4,2,42,75,0,0
161509,-83.3333333333333,4,2,41,75,0,0
161874,-83.3333333333333,4,2,42,75,0,0
162118,-83.3333333333333,4,2,41,75,0,0
162240,-71.4285714285714,4,2,41,75,0,0
162362,-71.4285714285714,4,2,42,75,0,0
162484,-71.4285714285714,4,2,41,75,0,0
162850,-250,4,2,42,75,0,0
163094,-166.666666666667,4,2,41,75,0,0
163338,-166.666666666667,4,2,42,75,0,0
163582,-71.4285714285714,4,2,41,75,0,0
163826,-71.4285714285714,4,2,42,75,0,0
164070,-200,4,2,41,75,0,0
164313,-200,4,2,42,75,0,0
164435,-200,4,2,41,75,0,0
164557,-83.3333333333334,4,2,41,75,0,0
164801,-83.3333333333334,4,2,42,75,0,0
164923,-83.3333333333334,4,2,41,75,0,0
165045,-83.3333333333333,4,2,41,75,0,0
165289,-83.3333333333333,4,2,42,75,0,0
165533,-83.3333333333333,4,2,41,75,0,0
165777,-83.3333333333333,4,2,42,75,0,0
165899,-500,4,2,41,75,0,0
166265,-500,4,2,42,75,0,0
166387,-500,4,2,41,75,0,0
166509,-166.666666666667,4,2,41,75,0,0
166752,-166.666666666667,4,2,42,75,0,0
166874,-166.666666666667,4,2,41,75,0,0
166996,-142.857142857143,4,2,41,75,0,0
167240,-500,4,2,42,75,0,0
167484,-500,4,2,41,75,0,0
167728,-100,4,2,42,75,0,0
167972,-100,4,2,41,75,0,0
168216,-100,4,2,42,75,0,0
168460,-166.666666666667,4,2,41,75,0,0
168704,-83.3333333333334,4,2,42,75,0,0
168948,-83.3333333333334,4,2,41,75,0,0
169191,-250,4,2,42,75,0,0
169435,-250,4,2,41,75,0,0
169679,-100,4,2,41,75,0,0
169923,-500,4,2,41,75,0,0
170167,-250,4,2,41,75,0,0
170411,-125,4,2,41,75,0,0
170655,-62.5,4,2,41,75,0,0
171143,-100,4,2,41,75,0,0
171387,-83.3333333333333,4,2,41,75,0,0
172850,-166.666666666667,4,2,3,75,0,0
172972,-166.666666666667,4,2,1,75,0,0
173094,-166.666666666667,4,2,2,75,0,0
173216,-166.666666666667,4,2,1,75,0,0
173582,-166.666666666667,4,2,2,75,0,0
173704,-166.666666666667,4,2,1,75,0,0
174070,-166.666666666667,4,2,2,75,0,0
174313,-166.666666666667,4,2,1,75,0,0
174557,-166.666666666667,4,2,2,75,0,0
174679,-166.666666666667,4,2,1,75,0,0
175045,-166.666666666667,4,2,2,75,0,0
175289,-166.666666666667,4,2,1,75,0,0
175533,-166.666666666667,4,2,2,75,0,0
175655,-166.666666666667,4,2,1,75,0,0
176021,-166.666666666667,4,2,2,75,0,0
176265,-71.4285714285714,4,2,1,75,0,0
176509,-71.4285714285714,4,2,2,75,0,0
176752,-71.4285714285714,4,2,1,75,0,0
176996,-166.666666666667,4,2,2,75,0,0
177118,-166.666666666667,4,2,1,75,0,0
177484,-166.666666666667,4,2,2,75,0,0
177606,-125,4,2,1,75,0,0
177972,-125,4,2,2,75,0,0
178094,-125,4,2,1,75,0,0
178216,-83.3333333333333,4,2,1,75,0,0
178460,-83.3333333333333,4,2,2,75,0,0
178582,-83.3333333333333,4,2,1,75,0,0
178948,-83.3333333333333,4,2,2,75,0,0
179070,-83.3333333333333,4,2,1,75,0,0
179435,-83.3333333333333,4,2,2,75,0,0
179557,-83.3333333333333,4,2,1,75,0,0
179679,-500,4,2,1,75,0,0
179923,-250,4,2,2,75,0,0
180167,-125,4,2,1,75,0,0
180411,-100,4,2,2,75,0,0
180655,-71.4285714285714,4,2,1,75,0,0
180899,-71.4285714285714,4,2,2,75,0,0
181143,-71.4285714285714,4,2,1,75,0,0
181387,-100,4,2,2,75,0,0
181509,-100,4,2,1,75,0,0
181752,-71.4285714285714,4,2,1,75,0,0
181874,-71.4285714285714,4,2,2,75,0,0
182118,-71.4285714285714,4,2,1,75,0,0
182362,-62.5,4,2,2,75,0,0
182484,-62.5,4,2,1,75,0,0
182850,-166.666666666667,4,2,2,75,0,0
183094,-166.666666666667,4,2,1,75,0,0
183216,-125,4,2,1,75,0,0
183338,-125,4,2,2,75,0,0
183460,-125,4,2,1,75,0,0
183582,-100,4,2,1,75,0,0
183826,-100,4,2,2,75,0,0
183948,-100,4,2,1,75,0,0
184313,-62.5,4,2,1,75,0,0
184801,-62.5,4,2,2,75,0,0
185045,-100,4,2,1,75,0,0
185289,-100,4,2,2,75,0,0
185411,-100,4,2,1,75,0,0
185777,-100,4,2,2,75,0,0
186021,-100,4,2,1,75,0,0
186265,-71.4285714285714,4,2,1,75,0,0
187240,-100,4,2,1,75,0,0
187484,-83.3333333333333,4,2,1,75,0,0
187728,-71.4285714285714,4,2,1,75,0,0
188460,-71.4285714285714,4,2,11,70,0,0
189191,-71.4285714285714,4,2,10,70,0,0
189313,-71.4285714285714,4,2,11,70,0,0
189435,-125,4,2,11,70,0,0
189679,-125,4,2,10,70,0,0
189923,-250,4,2,12,70,0,0
190167,-250,4,2,10,70,0,0
190411,-83.3333333333333,4,2,10,70,0,0
190899,-83.3333333333333,4,2,11,70,0,0
191143,-83.3333333333333,4,2,10,70,0,0
191265,-83.3333333333333,4,2,11,70,0,0
191387,-250,4,2,10,70,0,0
191509,-250,4,2,11,70,0,0
191631,-250,4,2,10,70,0,0
191874,-250,4,2,12,70,0,0
192118,-250,4,2,10,70,0,0
192240,-250,4,2,11,70,0,0
192606,-250,4,2,10,70,0,0
192850,-250,4,2,11,70,0,0
193094,-250,4,2,10,70,0,0
193216,-250,4,2,11,70,0,0
193338,-250,4,2,10,70,0,0
193460,-250,4,2,11,70,0,0
193582,-250,4,2,10,70,0,0
193826,-71.4285714285714,4,2,12,70,0,0
194070,-71.4285714285714,4,2,10,70,0,0
194191,-71.4285714285714,4,2,11,70,0,0
194313,-166.666666666667,4,2,11,70,0,0
194557,-166.666666666667,4,2,10,70,0,0
194801,-166.666666666667,4,2,11,70,0,0
195045,-500.000000000003,4,2,10,70,0,0
195167,-500.000000000003,4,2,11,70,0,0
195289,-500.000000000003,4,2,10,70,0,0
195411,-500.000000000003,4,2,12,70,0,0
195777,-500.000000000003,4,2,11,70,0,0
196265,-71.4285714285715,4,2,11,70,0,0
196509,-71.4285714285715,4,2,10,70,0,0
196752,-71.4285714285715,4,2,11,70,0,0
196996,-71.4285714285715,4,2,10,70,0,0
197118,-71.4285714285715,4,2,11,70,0,0
197240,-125,4,2,10,70,0,0
197362,-125,4,2,11,70,0,0
197484,-125,4,2,10,70,0,0
197728,-250,4,2,12,70,0,0
197972,-250,4,2,10,70,0,0
198216,-83.3333333333333,4,2,11,70,0,0
198460,-83.3333333333333,4,2,10,70,0,0
198704,-83.3333333333333,4,2,11,70,0,0
198948,-83.3333333333333,4,2,10,70,0,0
199070,-83.3333333333333,4,2,11,70,0,0
199191,-250,4,2,10,70,0,0
199313,-250,4,2,11,70,0,0
199435,-250,4,2,10,70,0,0
199679,-250,4,2,12,70,0,0
199923,-250,4,2,10,70,0,0
200045,-250,4,2,11,70,0,0
200167,-250,4,2,10,70,0,0
200289,-250,4,2,11,70,0,0
200411,-250,4,2,10,70,0,0
200655,-250,4,2,11,70,0,0
200899,-250,4,2,10,70,0,0
201021,-250,4,2,11,70,0,0
201143,-250,4,2,10,70,0,0
201265,-250,4,2,11,70,0,0
201387,-250,4,2,10,70,0,0
201631,-71.4285714285714,4,2,12,70,0,0
201874,-71.4285714285714,4,2,10,70,0,0
202118,-166.666666666667,4,2,10,70,0,0
202240,-166.666666666667,4,2,11,70,0,0
202362,-166.666666666667,4,2,10,70,0,0
202606,-166.666666666667,4,2,11,70,0,0
202850,-166.666666666667,4,2,10,70,0,0
202972,-166.666666666667,4,2,11,70,0,0
203094,-166.666666666667,4,2,10,70,0,0
203216,-166.666666666667,4,2,12,70,0,0
203338,-83.3333333333333,4,2,10,70,0,0
203582,-83.3333333333333,4,2,11,70,0,0
204313,-250,4,2,11,70,0,0
204801,-71.4285714285714,4,2,12,70,0,0
205289,-500,4,2,12,70,0,0
205533,-500,4,2,1,70,0,0
205777,-250.000000000001,4,2,12,70,0,0
206265,-125,4,2,12,70,0,0
206752,-71.4285714285714,4,2,11,70,0,0
207240,-250.000000000001,4,2,11,70,0,0
207484,-83.3333333333335,4,2,13,70,0,0
208826,-83.3333333333335,4,2,13,5,0,0
208948,487.80487804878,4,2,37,50,1,0
208948,-250.000000000001,4,2,37,50,0,0
209435,-500.000000000003,4,2,37,50,0,0
209923,-250.000000000001,4,2,37,50,0,0
210655,-500.000000000005,4,2,37,50,0,0
212118,-250.000000000001,4,2,37,50,0,0
212606,-500.000000000005,4,2,37,50,0,0
213826,-250.000000000001,4,2,37,50,0,0
214557,-500.000000000005,4,2,37,50,0,0
216265,-166.666666666667,4,2,37,50,0,0
216752,-125,4,2,37,50,0,0
217240,-250,4,2,37,50,0,0
218704,-125,4,2,37,50,0,0
219435,-250,4,2,37,50,0,0
220167,-500,4,2,37,50,0,0
220655,-50,4,2,41,60,0,0
221387,-66.6666666666667,4,2,41,60,0,0
221874,-200,4,2,41,60,0,0
222362,-66.6666666666667,4,2,42,60,0,0
222606,-66.6666666666667,4,2,41,60,0,0
223094,-200,4,2,41,60,0,0
223338,-66.6666666666667,4,2,41,60,0,0
224313,-100,4,2,41,60,0,0
224557,-71.4285714285714,4,2,41,75,0,0
224801,-71.4285714285714,4,2,42,75,0,0
225045,-71.4285714285714,4,2,41,75,0,0
225289,-71.4285714285714,4,2,42,75,0,0
225411,-71.4285714285714,4,2,41,75,0,0
225777,-71.4285714285714,4,2,42,75,0,0
225899,-71.4285714285714,4,2,41,75,0,0
226021,-83.3333333333333,4,2,41,75,0,0
226265,-83.3333333333333,4,2,42,75,0,0
226509,-83.3333333333333,4,2,41,75,0,0
226752,-83.3333333333333,4,2,42,75,0,0
226996,-83.3333333333333,4,2,41,75,0,0
227240,-71.4285714285714,4,2,42,75,0,0
227362,-71.4285714285714,4,2,41,75,0,0
227728,-83.3333333333333,4,2,42,75,0,0
227972,-83.3333333333333,4,2,41,75,0,0
228216,-83.3333333333333,4,2,42,75,0,0
228338,-83.3333333333333,4,2,41,75,0,0
228704,-83.3333333333333,4,2,42,75,0,0
228826,-83.3333333333333,4,2,41,75,0,0
229191,-83.3333333333333,4,2,42,75,0,0
229435,-71.4285714285714,4,2,41,75,0,0
230167,-250,4,2,41,75,0,0
230411,-71.4285714285714,4,2,41,75,0,0
230655,-71.4285714285714,4,2,42,75,0,0
230777,-71.4285714285714,4,2,41,75,0,0
231387,-200,4,2,41,75,0,0
231874,-83.3333333333333,4,2,41,75,0,0
232362,-83.3333333333333,4,2,41,75,0,0
232606,-83.3333333333333,4,2,42,75,0,0
232850,-83.3333333333333,4,2,41,75,0,0
233094,-83.3333333333333,4,2,42,75,0,0
233216,-500,4,2,41,75,0,0
233582,-500,4,2,42,75,0,0
233704,-500,4,2,41,75,0,0
233826,-166.666666666667,4,2,41,75,0,0
234070,-166.666666666667,4,2,42,75,0,0
234191,-166.666666666667,4,2,41,75,0,0
234313,-142.857142857143,4,2,41,75,0,0
234557,-500,4,2,42,75,0,0
234801,-500,4,2,41,75,0,0
235045,-100,4,2,42,75,0,0
235289,-100,4,2,41,75,0,0
235533,-100,4,2,42,75,0,0
235655,-100,4,2,41,75,0,0
235777,-166.666666666667,4,2,41,75,0,0
236021,-166.666666666667,4,2,42,75,0,0
236143,-166.666666666667,4,2,41,75,0,0
236265,-100,4,2,41,75,0,0
236509,-333.333333333333,4,2,42,75,0,0
236752,-333.333333333333,4,2,41,75,0,0
236996,-100,4,2,41,75,0,0
237240,-500,4,2,41,75,0,0
237484,-250,4,2,41,75,0,0
237728,-125,4,2,41,75,0,0
237972,-62.5,4,2,41,75,0,0
238460,-100,4,2,41,75,0,0
238704,-83.3333333333333,4,2,41,75,0,0
240167,-83.3333333333333,4,2,2,60,0,0
240655,-62.5,4,2,1,60,0,0
241143,-83.3333333333333,4,2,1,60,0,0
241387,-71.4285714285714,4,2,2,60,0,0
241509,-500,4,2,1,60,0,0
241874,-83.3333333333333,4,2,1,60,0,0
241996,-83.3333333333333,4,2,20,60,0,0
242118,-83.3333333333333,4,2,1,60,0,0
242362,-125,4,2,2,60,0,0
242606,-100,4,2,1,60,0,0
242850,-500,4,2,1,60,0,0
242972,-500,4,2,1,60,0,0
243094,-500,4,2,1,60,0,0
243216,-83.3333333333333,4,2,1,60,0,0
243338,-71.4285714285714,4,2,2,60,0,0
243460,-71.4285714285714,4,2,1,60,0,0
243582,-1000,4,2,1,60,0,0
243826,-1000,4,2,1,60,0,0
243948,-1000,4,2,1,60,0,0
244070,-83.3333333333333,4,2,1,60,0,0
244313,-83.3333333333333,4,2,2,60,0,0
244435,-83.3333333333333,4,2,2,60,0,0
244557,-83.3333333333333,4,2,1,60,0,0
244923,-83.3333333333333,4,2,1,60,0,0
245045,-83.3333333333333,4,2,1,60,0,0
245289,-83.3333333333333,4,2,2,60,0,0
245411,-500,4,2,1,60,0,0
245777,-500,4,2,1,60,0,0
245899,-500,4,2,1,60,0,0
246021,-71.4285714285714,4,2,1,60,0,0
246265,-71.4285714285714,4,2,2,60,0,0
246387,-71.4285714285714,4,2,2,60,0,0
246509,-71.4285714285714,4,2,1,60,0,0
246752,-500,4,2,2,60,0,0
246874,-500,4,2,1,60,0,0
246996,-62.5,4,2,1,60,0,0
247972,-60.6060606060606,4,2,1,60,0,0
248704,-74.0740740740741,4,2,2,60,0,0
249435,-95.2380952380952,4,2,1,60,0,0
249679,-95.2380952380952,4,2,2,60,0,0
249923,-95.2380952380952,4,2,20,60,0,0
250167,-133.333333333333,4,2,2,60,0,0
250411,-133.333333333333,4,2,1,60,0,0
250655,-133.333333333333,4,2,2,60,0,0
250899,-399.999999999997,4,2,1,60,0,0
251143,-200,4,2,1,60,0,0
251387,-133.333333333333,4,2,1,60,0,0
251631,-285.714285714284,4,2,1,60,0,0
252606,-285.714285714284,4,2,1,5,0,0

[Colours]
Combo1 : 145,200,255
Combo2 : 255,193,193
Combo3 : 255,102,102
Combo4 : 255,174,136

[HitObjects]
114,347,411,5,0,1:0:0:0:
133,330,533,1,0,1:0:0:0:
142,264,655,6,0,L|179:273,1,30,8|0,1:2|0:0,0:0:0:0:
252,347,1143,6,0,L|178:182,1,179.999994506836,6|0,3:2|0:0,0:0:0:0:
191,57,1631,2,0,L|152:85,1,29.9999990844727,2|2,0:2|0:2,0:0:0:0:
198,41,1874,2,0,L|190:91,1,29.9999990844727,2|2,0:2|0:2,0:0:0:0:
18,69,2118,6,0,L|127:19,1,119.999996337891,2|0,3:2|0:0,0:0:0:0:
214,52,2484,2,0,L|198:41,1,20,2|0,3:2|0:0,0:0:0:0:
105,102,2850,2,0,L|214:52,1,119.999996337891,2|0,3:2|0:0,0:0:0:0:
279,12,3216,5,2,0:2:0:0:
279,12,3338,1,2,0:2:0:0:
457,49,3704,6,0,L|439:51,2,10,2|0|2,0:2|1:0|0:2,0:0:0:0:
512,106,4070,6,0,B|508:70|508:70|453:60,2,66.6666666666667,10|8|0,3:3|3:2|3:0,0:0:0:0:
358,88,4557,6,0,L|366:73,1,15,8|0,1:2|0:0,0:0:0:0:
277,11,5045,6,0,L|351:176,1,179.999994506836,6|0,3:2|0:0,0:0:0:0:
480,239,5533,2,0,L|485:210,1,29.9999990844727,2|2,1:2|1:2,0:0:0:0:
443,215,5776,2,0,L|468:198,1,29.9999990844727,2|2,1:2|1:2,0:0:0:0:
431,349,6021,6,0,L|480:239,1,119.999996337891,2|0,3:2|0:0,0:0:0:0:
420,149,6387,2,0,L|439:134,1,20,2|0,3:2|0:0,0:0:0:0:
486,27,6752,2,0,L|436:136,1,119.999996337891,2|0,3:2|0:0,0:0:0:0:
480,239,7240,1,2,0:2:0:0:
480,239,7362,2,0,L|460:268,1,25,2|8,1:2|3:2,0:0:0:0:
456,344,7606,2,0,L|431:348,2,25,2|0|8,1:2|1:0|3:2,0:0:0:0:
391,268,7972,5,2,1:2:0:0:
391,268,8094,1,0,1:0:0:0:
391,268,8216,2,0,L|371:297,1,25,8|0,3:3|1:0,0:0:0:0:
302,383,8460,5,8,3:2:0:0:
323,375,8582,1,8,3:2:0:0:
300,374,8704,1,8,3:3:0:0:
307,352,8826,1,8,3:3:0:0:
236,342,8948,6,0,P|132:330|46:356,1,179.999994506836,6|0,3:2|0:0,0:0:0:0:
170,384,9435,5,10,3:2:0:0:
148,358,9557,5,2,1:2:0:0:
143,321,9679,5,2,1:2:0:0:
162,290,9801,5,2,1:2:0:0:
199,281,9923,6,0,P|233:285|258:309,2,59.9999981689454,2|8|0,3:2|3:2|1:0,0:0:0:0:
300,352,10289,6,0,L|303:362,2,10,2|8|0,1:2|3:2|1:0,0:0:0:0:
304,240,10655,6,0,P|251:214|192:207,1,119.999996337891,2|0,1:2|3:0,0:0:0:0:
62,211,11021,1,0,1:0:0:0:
62,211,11143,2,0,P|82:192|66:214,1,80,2|8,1:2|3:2,0:0:0:0:
1,151,11631,6,0,P|4:147|5:142,2,10,2|2|0,1:2|1:2|3:0,0:0:0:0:
115,281,11996,2,0,P|154:292|114:288,1,119.999996337891,10|0,3:2|1:0,0:0:0:0:
1,151,12362,6,0,P|4:147|5:142,1,10,10|2,3:2|1:2,0:0:0:0:
19,59,12728,1,10,1:2:0:0:
19,59,12850,2,0,P|116:97|163:37,1,179.999994506836,2|0,3:2|1:0,0:0:0:0:
243,135,13338,5,10,3:2:0:0:
265,109,13460,5,2,1:2:0:0:
270,72,13582,5,2,1:2:0:0:
251,41,13704,5,2,1:2:0:0:
214,32,13826,6,0,P|179:36|154:60,2,59.9999981689454,2|8|0,3:2|3:2|1:0,0:0:0:0:
124,112,14191,6,0,L|124:122,2,10,2|8|0,1:2|3:2|1:0,0:0:0:0:
128,197,14557,5,2,1:2:0:0:
128,197,14679,1,10,1:2:0:0:
61,224,14801,6,0,P|93:258|191:226,2,139.999995727539,2|2|8,3:2|1:2|3:2,0:0:0:0:
253,271,15533,6,0,P|247:269|243:266,1,10,2|0,1:2|1:0,0:0:0:0:
129,294,15777,6,0,B|108:313|99:293|50:302|33:311|23:347|80:411|162:429|159:317|162:297|123:265,1,240,6|0,3:2|1:0,0:0:0:0:
44,289,16265,5,10,3:2:0:0:
23,281,16387,1,8,3:2:0:0:
46,280,16509,1,10,3:3:0:0:
39,258,16631,1,8,3:3:0:0:
0,203,16752,6,0,P|8:176|29:159,8,55.0000005245209,6|2|2|2|2|2|10|2|2,3:2|0:2|0:2|1:2|0:2|0:2|3:2|0:2|0:2,0:0:0:0:
87,203,17484,6,0,P|103:187|125:183,8,45.0000001716614,2|2|2|2|2|2|2|2|2,1:2|0:2|0:2|3:2|0:2|0:2|1:2|0:2|0:2,0:0:0:0:
164,242,18216,6,0,P|180:237|197:240,8,34.9999989318848,10|2|2|2|2|2|2|2|2,3:2|0:2|0:2|1:2|0:2|0:2|3:2|0:2|0:2,0:0:0:0:
224,303,18948,6,0,P|240:306|254:317,8,25.0000009536744,2|2|2|10|2|2|2|2|2,1:2|0:2|0:2|3:2|0:2|0:2|1:2|0:2|0:2,0:0:0:0:
304,357,19679,6,0,L|294:367,1,14.9999995422363,2|0,3:2|0:0,0:0:0:0:
399,346,19923,2,0,L|378:375,1,34.9999989318848,8|0,3:2|0:0,0:0:0:0:
494,323,20167,5,8,3:2:0:0:
494,323,20289,1,8,3:2:0:0:
494,323,20411,2,0,L|475:338,1,24.0000005859375,10|0,3:3|0:0,0:0:0:0:
478,191,20655,6,0,P|397:228|346:301,1,179.999994506836,4|0,3:2|0:0,0:0:0:0:
478,191,21143,2,0,P|441:174|402:172,1,80,10|2,3:2|1:2,0:0:0:0:
456,124,21509,2,0,P|441:86|415:57,1,80,8|0,1:2|1:0,0:0:0:0:
415,57,21874,1,8,1:2:0:0:
403,172,22118,2,0,P|399:212|385:249,1,80,8|2,3:2|1:2,0:0:0:0:
324,349,22484,1,8,1:2:0:0:
304,358,22606,6,0,P|252:285|172:248,1,179.999994506836,2|2,3:2|1:2,0:0:0:0:
53,347,23094,5,8,3:2:0:0:
53,347,23216,2,0,L|55:331,1,10,2|0,1:2|1:0,0:0:0:0:
126,312,23460,6,0,L|101:279,1,40,2|0,3:2|1:0,0:0:0:0:
200,335,23704,5,8,3:2:0:0:
200,335,23826,2,0,L|197:350,1,10,2|0,3:2|1:0,0:0:0:0:
126,312,24070,6,0,L|101:279,1,40,10|0,3:2|0:0,0:0:0:0:
44,180,24313,5,2,1:2:0:0:
44,180,24435,1,0,1:0:0:0:
117,191,24557,6,0,P|59:123|52:35,1,179.999994506836,0|0,3:0|1:0,0:0:0:0:
117,191,25045,2,0,P|150:214|171:247,1,80,10|2,3:2|1:2,0:0:0:0:
211,180,25411,2,0,P|197:218|171:247,1,80,8|0,1:2|1:0,0:0:0:0:
170,247,25777,1,8,3:2:0:0:
153,121,26021,1,8,3:2:0:0:
211,180,26265,1,2,1:2:0:0:
153,121,26509,2,0,P|171:64|210:18,1,120,2|2,3:2|1:2,0:0:0:0:
119,41,26996,6,0,P|128:43|137:49,1,20,8|0,3:2|3:0,0:0:0:0:
68,118,27240,1,0,1:0:0:0:
68,118,27362,2,0,P|72:110|80:103,1,20,0|0,3:0|1:0,0:0:0:0:
214,22,27606,1,8,3:2:0:0:
214,22,27728,2,0,P|223:28|233:30,1,20,2|0,3:2|1:0,0:0:0:0:
374,80,27972,6,0,B|397:100|415:89|415:89|400:68|379:71,1,89.9999972534181,10|0,3:2|1:0,0:0:0:0:
466,20,28460,6,0,P|451:108|398:180,1,179.999994506836,0|0,3:2|1:0,0:0:0:0:
463,326,28948,2,0,P|429:304|406:271,1,80,8|2,3:2|1:2,0:0:0:0:
463,326,29313,2,0,P|454:287|461:247,1,80,0|0,3:0|0:0,0:0:0:0:
460,248,29679,1,2,3:2:0:0:
397,373,29923,2,0,P|363:351|340:318,1,80,10|2,3:2|1:2,0:0:0:0:
217,363,30289,1,8,1:2:0:0:
239,357,30411,6,0,P|148:326|104:235,1,179.999994506836,0|0,3:0|1:0,0:0:0:0:
2,322,30899,5,10,3:2:0:0:
2,322,31021,2,0,L|4:306,1,10,0|2,1:0|1:2,0:0:0:0:
74,371,31265,6,0,L|80:331,1,40,2|0,3:2|1:0,0:0:0:0:
120,177,31509,5,8,3:2:0:0:
120,177,31631,2,0,L|122:161,1,10,2|0,3:2|1:0,0:0:0:0:
192,226,31874,6,0,L|198:186,1,40,10|0,3:2|1:0,0:0:0:0:
111,261,32118,5,8,1:2:0:0:
111,261,32240,1,2,1:2:0:0:
163,310,32362,6,0,P|239:356|327:343,1,179.999994506836,0|0,3:0|0:0,0:0:0:0:
473,384,32850,2,0,P|500:353|513:316,1,80,8|2,3:2|1:2,0:0:0:0:
473,384,33216,2,0,P|470:343|453:307,1,80,8|0,1:2|1:0,0:0:0:0:
453,308,33582,1,8,1:2:0:0:
414,173,33826,2,0,P|441:142|454:105,1,80,10|2,3:2|1:2,0:0:0:0:
486,215,34191,1,0,1:0:0:0:
486,215,34313,2,0,P|483:174|466:138,1,80,8|2,3:2|1:2,0:0:0:0:
358,224,34679,5,8,3:2:0:0:
337,261,34801,1,8,3:2:0:0:
337,261,34923,2,0,P|327:278|325:298,1,40,8|2,3:2|1:2,0:0:0:0:
203,280,35167,2,0,P|221:285|235:299,1,40,8|0,3:2|1:0,0:0:0:0:
63,343,35411,1,8,3:2:0:0:
100,330,35533,2,0,P|119:324|139:328,1,40,8|0,3:2|0:0,0:0:0:0:
337,261,35777,2,0,P|327:278|325:298,1,40,8|0,3:2|0:0,0:0:0:0:
288,362,36021,1,2,1:2:0:0:
288,362,36143,1,0,1:0:0:0:
359,371,36265,6,0,P|274:354|249:273,1,179.999994506836,4|0,3:2|1:0,0:0:0:0:
359,371,36752,2,0,P|391:349|414:317,1,80,10|2,3:2|1:2,0:0:0:0:
424,202,37118,1,0,3:0:0:0:
424,202,37240,2,0,P|430:220|433:240,1,40,2|0,1:2|1:0,0:0:0:0:
324,139,37484,1,0,3:0:0:0:
324,139,37606,1,2,1:2:0:0:
370,143,37728,2,0,P|386:151|403:163,1,40,8|0,3:2|1:0,0:0:0:0:
494,138,37972,2,0,P|501:156|504:176,1,40,2|8,1:2|1:2,0:0:0:0:
503,22,38216,6,0,P|432:78|370:143,1,179.999994506836,2|2,3:2|1:2,0:0:0:0:
433,250,38704,1,8,3:2:0:0:
433,250,38826,2,0,L|434:240,1,10,2|0,1:2|1:0,0:0:0:0:
359,227,39070,2,0,L|360:217,1,10,2|0,3:2|1:0,0:0:0:0:
286,211,39313,5,8,3:2:0:0:
286,211,39435,2,0,L|289:187,1,25,2|0,1:2|1:0,0:0:0:0:
303,47,39679,2,0,L|305:20,1,25,8|0,3:2|0:0,0:0:0:0:
201,81,39923,6,0,L|225:63,2,29.9999990844727,2|2|0,1:2|1:2|3:0,0:0:0:0:
168,89,40289,2,0,L|172:59,2,29.9999990844727,2|0|2,1:2|1:0|1:2,0:0:0:0:
102,61,40655,5,10,3:2:0:0:
70,45,40777,1,2,1:2:0:0:
79,61,40899,1,2,1:2:0:0:
79,69,41021,5,8,3:2:0:0:
80,77,41143,1,2,1:2:0:0:
18,153,41387,1,2,3:2:0:0:
21,260,41631,6,0,P|43:227|75:203,1,80,8|2,3:2|1:2,0:0:0:0:
64,339,41996,1,0,1:0:0:0:
70,361,42118,2,0,P|29:319|21:261,1,119.999996337891,2|0,3:2|1:0,0:0:0:0:
154,342,42484,1,2,1:2:0:0:
175,347,42606,2,0,P|118:361|63:339,1,119.999996337891,8|0,3:2|1:0,0:0:0:0:
21,260,42972,6,0,P|39:254|57:262,1,40,0|0,3:0|1:0,0:0:0:0:
177,235,43216,1,8,3:2:0:0:
177,235,43338,2,0,P|194:243|201:261,1,40,2|0,3:2|1:0,0:0:0:0:
333,195,43582,2,0,P|339:213|331:231,1,40,10|0,3:2|0:0,0:0:0:0:
483,146,43826,6,0,L|500:170,2,29.9999990844727,10|10|8,3:2|3:2|3:2,0:0:0:0:
475,112,44192,2,0,L|504:116,2,29.9999990844727,2|0|2,1:2|1:0|1:2,0:0:0:0:
435,202,44557,5,8,3:2:0:0:
418,233,44679,1,2,1:2:0:0:
434,225,44801,1,2,1:2:0:0:
442,224,44923,5,8,3:2:0:0:
449,223,45045,1,2,1:2:0:0:
483,146,45289,1,10,3:2:0:0:
365,94,45533,6,0,P|393:41|435:0,1,119.999996337891,10|2,3:2|1:2,0:0:0:0:
512,80,45899,1,0,1:0:0:0:
512,80,46021,2,0,P|514:57|496:45,1,40,0|0,3:0|1:0,0:0:0:0:
467,189,46265,2,0,P|482:130|512:79,1,119.999996337891,2|8,1:2|3:2,0:0:0:0:
388,127,46631,6,0,P|385:146|398:160,1,40,0|2,1:0|1:2,0:0:0:0:
340,160,46874,2,0,P|351:175|371:176,1,40,0|2,3:0|1:2,0:0:0:0:
344,54,47118,1,8,3:2:0:0:
344,54,47240,2,0,P|328:65|327:84,1,40,2|0,3:2|1:0,0:0:0:0:
272,0,47484,6,0,P|193:41|104:37,1,179.999994506836,10|2,3:2|1:2,0:0:0:0:
25,146,47972,2,0,L|75:109,1,59.9999981689454,0|2,3:0|1:2,0:0:0:0:
18,162,48216,2,0,L|27:100,1,59.9999981689454,0|2,1:0|1:2,0:0:0:0:
0,0,48460,5,8,3:2:0:0:
26,27,48582,1,2,1:2:0:0:
40,27,48704,1,2,1:2:0:0:
53,24,48826,6,0,P|56:21|61:20,2,10,8|2|2,3:2|1:2|1:2,0:0:0:0:
166,30,49191,6,0,P|154:20|139:18,1,29.9999990844727,0|2,3:0|1:2,0:0:0:0:
190,96,49435,2,0,P|193:81|187:67,1,29.9999990844727,8|0,3:2|1:0,0:0:0:0:
263,27,49679,1,2,1:2:0:0:
263,27,49801,1,0,1:0:0:0:
263,27,49923,2,0,P|254:14|240:8,1,29.9999990844727,0|0,3:0|1:0,0:0:0:0:
373,60,50167,6,0,B|383:83|427:100|443:60|442:17|410:-4,2,139.999995727539,2|10|2,1:2|3:2|1:2,0:0:0:0:
499,98,50777,2,0,P|485:92|476:81,1,29.9999990844727,0|2,3:0|1:2,0:0:0:0:
487,171,51021,1,8,3:2:0:0:
487,171,51143,2,0,P|474:179|460:182,1,29.9999990844727,0|2,3:0|1:2,0:0:0:0:
488,279,51387,2,0,P|485:264|491:250,1,29.9999990844727,8|0,3:2|1:0,0:0:0:0:
512,366,51631,5,2,1:2:0:0:
472,384,51752,1,2,1:2:0:0:
437,376,51874,1,2,3:2:0:0:
416,360,51996,1,2,1:2:0:0:
408,345,52118,2,0,P|408:329|412:316,1,29.9999990844727,2|0,1:2|1:0,0:0:0:0:
312,384,52362,5,10,3:2:0:0:
282,371,52484,1,2,1:2:0:0:
275,349,52606,1,2,1:2:0:0:
282,337,52728,2,0,P|286:334|291:334,2,10,8|0|8,3:2|1:0|1:2,0:0:0:0:
202,335,53094,6,0,L|205:325,1,10,0|8,3:0|1:2,0:0:0:0:
132,341,53338,5,10,3:2:0:0:
132,341,53460,1,0,3:0:0:0:
87,367,53582,5,2,3:2:0:0:
87,367,53704,1,0,3:0:0:0:
54,315,53826,6,0,L|69:239,1,75,6|2,3:2|0:2,0:0:0:0:
73,230,54313,5,10,3:2:0:0:
75,220,54435,1,2,0:2:0:0:
80,195,54557,1,2,1:2:0:0:
90,150,54679,1,2,3:2:0:0:
110,83,54801,5,2,1:2:0:0:
154,93,54923,1,10,3:2:0:0:
179,97,55045,1,2,3:2:0:0:
189,100,55167,1,2,0:2:0:0:
198,102,55289,6,0,L|249:112,1,50,10|2,3:2|1:2,0:0:0:0:
376,31,55777,2,0,L|425:42,1,50,2|2,3:2|1:2,0:0:0:0:
335,106,56265,5,10,3:2:0:0:
333,116,56387,1,2,0:2:0:0:
328,141,56509,1,2,1:2:0:0:
318,186,56631,1,2,3:2:0:0:
267,234,56752,5,2,1:2:0:0:
257,278,56874,1,10,3:2:0:0:
253,303,56996,1,2,3:2:0:0:
250,313,57118,1,2,0:2:0:0:
248,322,57240,6,0,L|236:376,1,50,10|10,3:2|1:2,0:0:0:0:
395,352,57728,2,0,L|405:303,1,50,2|2,3:2|1:2,0:0:0:0:
354,228,58216,5,10,3:2:0:0:
343,226,58338,1,2,0:2:0:0:
319,221,58460,1,2,1:2:0:0:
274,211,58582,1,2,3:2:0:0:
257,278,58704,5,2,1:2:0:0:
301,288,58826,1,10,3:2:0:0:
326,292,58948,1,2,3:2:0:0:
336,295,59070,1,2,0:2:0:0:
345,297,59191,6,0,L|398:308,1,50,10|2,3:2|1:2,0:0:0:0:
463,219,59679,2,0,L|474:165,1,50,2|2,3:2|1:2,0:0:0:0:
430,75,60167,5,10,3:2:0:0:
419,73,60289,1,2,0:2:0:0:
395,68,60411,1,2,1:2:0:0:
350,58,60533,1,2,3:2:0:0:
389,0,60655,5,2,1:2:0:0:
379,44,60777,1,10,3:2:0:0:
375,69,60899,1,2,3:2:0:0:
372,79,61021,1,2,1:2:0:0:
370,88,61143,6,0,L|365:112,1,25,10|10,3:2|3:2,0:0:0:0:
228,70,61387,2,0,L|223:94,1,25,10|2,3:3|0:2,0:0:0:0:
87,48,61631,6,0,L|69:131,1,75,6|2,3:2|0:2,0:0:0:0:
73,135,62118,5,10,3:2:0:0:
84,137,62240,1,2,0:2:0:0:
108,142,62362,1,2,1:2:0:0:
153,152,62484,1,2,3:2:0:0:
206,197,62606,5,2,0:2:0:0:
250,207,62728,1,10,3:2:0:0:
275,211,62850,1,2,3:2:0:0:
285,214,62972,1,2,0:2:0:0:
294,216,63094,6,0,L|358:229,1,50,10|2,3:2|1:2,0:0:0:0:
350,96,63582,2,0,L|412:109,1,50,2|2,3:2|1:2,0:0:0:0:
495,70,64070,5,10,3:2:0:0:
493,81,64191,1,2,0:2:0:0:
488,105,64313,1,2,1:2:0:0:
478,150,64435,1,2,3:2:0:0:
446,200,64557,1,2,1:2:0:0:
465,267,64679,1,10,3:2:0:0:
423,334,64801,6,0,P|379:358|331:350,1,100,6|8,3:2|3:2,0:0:0:0:
132,362,65289,1,8,3:2:0:0:
140,319,65411,1,8,3:2:0:0:
205,280,65533,6,0,B|190:232|100:209|25:213|69:307|89:278,2,200,2|10|8,3:2|3:2|3:3,0:0:0:0:
0,381,66265,2,0,P|96:293|220:253,1,262.500010013581,6|0,3:2|0:0,0:0:0:0:
220,253,66752,6,0,L|244:258,1,25,2|0,3:2|0:0,0:0:0:0:
285,184,66996,2,0,L|303:200,1,25,10|0,3:3|0:0,0:0:0:0:
470,63,67240,6,0,P|399:88|345:139,2,150.000005722046,14|0|2,3:2|3:0|1:2,0:0:0:0:
345,138,67972,2,0,L|337:115,1,25,0|0,3:0|0:0,0:0:0:0:
504,280,68216,6,0,P|433:255|379:204,1,150.000005722046,14|0,1:2|3:0,0:0:0:0:
467,111,68582,5,8,1:2:0:0:
474,120,68704,5,2,1:2:0:0:
485,142,68826,5,8,3:3:0:0:
473,189,68948,5,10,3:3:0:0:
445,244,69070,5,8,3:3:0:0:
381,277,69191,6,0,P|349:287|324:283,1,50,2|0,3:2|0:0,0:0:0:0:
122,356,69435,6,0,B|188:309|197:228|190:189|98:201|140:258,1,209.999993591309,6|2,3:2|0:2,0:0:0:0:
251,285,69923,2,0,P|277:220|291:125,1,139.999995727539,8|2,3:2|1:2,0:0:0:0:
413,26,70411,1,2,3:2:0:0:
370,0,70533,1,8,3:2:0:0:
386,19,70655,1,2,1:2:0:0:
459,107,70899,2,0,P|478:50|511:0,2,119.999996337891,8|2|2,3:2|1:2|3:2,0:0:0:0:
512,165,71509,1,0,1:0:0:0:
512,165,71631,1,2,1:2:0:0:
408,331,71874,1,10,3:2:0:0:
511,383,72118,6,0,P|425:287|344:228,1,209.999993591309,2|8,1:2|3:2,0:0:0:0:
512,255,72606,2,0,P|473:301|446:354,1,119.999996337891,2|10,1:2|3:2,0:0:0:0:
366,243,73094,1,2,1:2:0:0:
366,243,73216,1,8,3:2:0:0:
359,166,73338,6,0,P|320:212|293:265,1,119.999996337891,2|2,3:2|1:2,0:0:0:0:
170,349,73704,1,2,1:2:0:0:
169,337,73826,2,0,B|158:294|158:294|230:316,1,119.999996337891,8|2,3:2|1:2,0:0:0:0:
17,381,74313,1,2,3:2:0:0:
54,360,74435,2,0,B|94:226,1,139.999995727539,8|2,3:2|1:2,0:0:0:0:
119,157,74801,1,8,3:2:0:0:
36,50,75045,6,0,L|33:30,1,20,2|0,1:2|0:0,0:0:0:0:
182,115,75289,6,0,P|148:87|104:82,1,89.9999972534181,2|0,3:2|0:0,0:0:0:0:
202,112,75777,6,0,P|113:161|91:260,1,209.999993591309,10|0,3:2|1:0,0:0:0:0:
194,384,76265,1,2,3:2:0:0:
233,346,76387,2,0,L|193:326,2,25,8|0|0,3:2|1:0|1:0,0:0:0:0:
281,135,76752,6,0,L|260:258,1,104.999996795654,10|8,3:2|3:2,0:0:0:0:
413,294,77240,6,0,P|361:203|281:135,1,209.999993591309,4|0,3:2|0:0,0:0:0:0:
442,140,77728,2,0,B|478:129|462:193|437:213|401:219|399:210,2,119.999996337891,10|2|0,3:2|1:2|3:0,0:0:0:0:
282,136,78338,1,8,3:2:0:0:
269,88,78460,2,0,B|335:83|362:139|362:139|351:94,1,160,2|8,1:2|3:2,0:0:0:0:
257,17,78826,1,0,1:0:0:0:
222,0,78948,1,2,1:2:0:0:
200,7,79070,1,2,1:2:0:0:
193,15,79191,6,0,P|147:94|131:185,1,179.999994506836,2|0,3:2|0:0,0:0:0:0:
133,256,79679,1,10,3:2:0:0:
42,78,79923,6,0,P|56:134|92:182,1,119.999996337891,2|0,1:2|3:0,0:0:0:0:
58,266,80289,1,8,3:2:0:0:
54,281,80411,1,2,1:2:0:0:
0,347,80655,6,0,L|37:373,1,40,8|2,3:2|1:2,0:0:0:0:
126,340,81021,1,0,3:2:0:0:
172,326,81143,6,0,B|191:318|193:295|193:295|197:262|225:222|267:199|317:242,2,160,2|8|2,3:2|3:2|3:2,0:0:0:0:
440,337,81874,6,0,B|415:327|413:298|413:298|407:258|373:208|321:179|258:232,1,240,2|0,1:2|0:0,0:0:0:0:
367,281,82362,6,0,L|334:303,1,40,10|0,3:2|3:0,0:0:0:0:
512,384,82850,6,0,B|432:343|403:319|401:292|380:252|410:214|447:223|470:264,1,240,14|0,3:2|0:0,0:0:0:0:
466,330,83338,6,0,L|459:324,1,10,10|0,3:2|0:0,0:0:0:0:
452,243,83582,2,0,L|441:244,1,10,2|0,3:2|0:0,0:0:0:0:
303,370,83826,6,0,B|278:365|278:365|188:254,1,160,14|0,3:2|3:0,0:0:0:0:
74,273,84191,5,8,3:2:0:0:
74,273,84313,1,2,3:2:0:0:
74,273,84435,1,2,3:2:0:0:
54,267,84557,5,10,3:3:0:0:
52,217,84679,5,8,3:3:0:0:
78,159,84801,5,10,3:3:0:0:
135,109,84923,5,8,3:3:0:0:
122,26,85045,6,0,P|208:82|311:75,1,209.999993591309,6|0,3:2|0:0,0:0:0:0:
261,199,85533,2,0,P|313:154|324:87,1,139.999995727539,8|2,3:2|1:2,0:0:0:0:
438,0,86021,1,2,3:2:0:0:
462,44,86143,1,8,1:2:0:0:
457,19,86265,1,2,1:2:0:0:
442,161,86509,6,0,P|444:101|462:44,2,119.999996337891,8|2|2,3:2|1:2|3:2,0:0:0:0:
502,241,87118,1,0,1:0:0:0:
502,241,87240,1,2,1:2:0:0:
347,381,87484,1,10,3:2:0:0:
472,384,87728,6,0,P|405:303|357:209,1,209.999993591309,2|8,1:2|3:2,0:0:0:0:
488,272,88216,2,0,P|401:271|353:295,1,119.999996337891,2|10,1:2|3:2,0:0:0:0:
194,350,88704,1,2,1:2:0:0:
194,350,88826,1,8,3:2:0:0:
139,296,88948,6,0,L|256:317,1,119.999996337891,2|2,3:2|1:2,0:0:0:0:
66,261,89313,1,2,0:2:0:0:
75,268,89435,2,0,L|192:246,1,119.999996337891,8|2,3:2|1:2,0:0:0:0:
43,332,89923,1,2,3:2:0:0:
1,333,90045,2,0,B|62:239|62:239|43:218,1,139.999995727539,8|2,3:2|1:2,0:0:0:0:
100,165,90411,1,8,3:2:0:0:
88,21,90655,6,0,L|72:34,1,20,2|0,1:2|0:0,0:0:0:0:
167,131,90899,6,0,B|162:86|162:86|126:83|126:83|128:104,1,89.9999972534181,2|0,3:2|0:0,0:0:0:0:
166,149,91387,6,0,P|246:81|335:26,1,209.999993591309,10|0,3:2|0:0,0:0:0:0:
512,0,91874,1,2,3:2:0:0:
473,38,91996,2,0,L|513:58,2,25,8|0|0,3:2|1:0|1:0,0:0:0:0:
450,169,92362,6,0,L|512:0,1,179.999994506836,10|8,3:2|3:2,0:0:0:0:
409,0,92850,1,4,3:2:0:0:
367,239,93094,6,0,L|245:283,2,119.999996337891,2|10|2,1:2|3:2|1:2,0:0:0:0:
450,169,93704,6,0,L|451:159,1,10,0|2,0:0|3:2,0:0:0:0:
506,87,93948,1,8,3:2:0:0:
509,79,94070,1,0,1:0:0:0:
512,71,94191,1,2,0:2:0:0:
512,0,94313,2,0,L|482:7,1,29.9999990844727,8|0,3:2|1:0,0:0:0:0:
421,90,94557,1,2,1:2:0:0:
424,82,94679,1,2,1:2:0:0:
427,74,94801,1,2,3:2:0:0:
367,152,95045,6,0,L|366:162,1,10,2|0,1:2|0:0,0:0:0:0:
256,256,95289,2,0,L|255:266,1,10,10|0,3:2|0:0,0:0:0:0:
138,301,95533,6,0,L|228:343,1,100,2|2,1:2|3:2,0:0:0:0:
345,377,95899,1,8,3:2:0:0:
348,369,96021,1,0,1:0:0:0:
351,361,96143,1,0,0:0:0:0:
350,290,96265,2,0,L|320:297,1,29.9999990844727,8|0,3:2|0:0,0:0:0:0:
138,384,96509,6,0,L|96:271,1,119.999996337891,2|0,1:2|3:0,0:0:0:0:
24,183,96874,1,0,0:0:0:0:
24,183,96996,6,0,L|21:163,1,20,2|0,1:2|0:0,0:0:0:0:
23,260,97240,2,0,L|25:279,1,20,10|0,3:2|0:0,0:0:0:0:
11,11,97484,2,0,L|22:86,1,75,14|0,1:2|0:0,0:0:0:0:
31,90,97728,6,0,L|39:95,1,10,2|0,3:2|0:0,0:0:0:0:
138,32,97972,2,0,L|139:51,1,20,0|0,3:0|0:0,0:0:0:0:
289,11,98216,2,0,L|259:49,1,40,0|0,3:0|0:0,0:0:0:0:
470,29,98460,6,0,P|412:88|471:32,1,280,14|0,3:2|0:0,0:0:0:0:
471,35,98948,6,0,L|440:74,1,50,10|0,3:2|0:0,0:0:0:0:
477,193,99191,2,0,L|406:201,1,59.9999981689454,2|0,3:2|0:0,0:0:0:0:
476,344,99435,5,10,3:2:0:0:
476,344,99557,1,8,3:2:0:0:
425,311,99679,5,10,3:2:0:0:
378,324,99801,1,8,3:2:0:0:
342,317,99923,1,8,3:2:0:0:
316,333,100045,1,10,3:3:0:0:
293,342,100167,1,8,3:3:0:0:
275,339,100289,1,8,3:3:0:0:
263,340,100411,1,2,3:3:0:0:
257,338,100533,1,0,3:3:0:0:
196,378,100655,6,0,P|157:280|160:190,1,179.999994506836,4|0,3:2|1:0,0:0:0:0:
67,43,101143,5,10,3:2:0:0:
45,69,101265,5,2,1:2:0:0:
40,106,101387,5,2,1:2:0:0:
59,137,101509,5,2,1:2:0:0:
96,146,101631,6,0,P|130:142|155:118,2,59.9999981689454,2|8|0,3:2|3:2|1:0,0:0:0:0:
143,38,101996,6,0,L|146:48,2,10,2|8|0,1:2|3:2|1:0,0:0:0:0:
210,82,102362,6,0,P|269:88|323:115,1,119.999996337891,2|2,1:2|3:2,0:0:0:0:
415,263,102728,1,0,1:0:0:0:
415,263,102850,2,0,P|429:239|419:264,1,80,2|10,1:2|3:2,0:0:0:0:
396,151,103338,6,0,P|399:147|400:142,2,10,2|2|0,1:2|1:2|3:0,0:0:0:0:
391,333,103704,2,0,P|383:373|385:333,1,119.999996337891,8|0,3:2|1:0,0:0:0:0:
467,177,104070,6,0,P|470:173|471:168,1,10,10|2,3:2|1:2,0:0:0:0:
425,74,104435,1,2,1:2:0:0:
425,74,104557,2,0,P|328:63|257:120,1,179.999994506836,2|0,1:2|1:0,0:0:0:0:
335,241,105045,5,10,3:2:0:0:
313,215,105167,5,2,1:2:0:0:
308,178,105289,5,2,1:2:0:0:
327,147,105411,5,2,1:2:0:0:
364,138,105533,6,0,P|399:142|424:166,2,59.9999981689454,2|8|0,3:2|3:2|1:0,0:0:0:0:
477,211,105899,6,0,L|477:221,2,10,2|8|0,1:2|3:2|1:0,0:0:0:0:
481,296,106265,5,0,1:0:0:0:
481,296,106387,1,0,1:0:0:0:
432,349,106509,6,0,P|368:369|314:328,1,139.999995727539,2|0,3:2|1:0,0:0:0:0:
314,328,106874,1,0,1:0:0:0:
314,328,106996,1,8,3:2:0:0:
150,355,107240,2,0,P|144:353|140:350,1,10,2|0,1:2|1:0,0:0:0:0:
48,361,107484,1,0,3:0:0:0:
37,355,107606,2,0,P|31:353|27:350,2,10,8|2|0,3:2|1:2|3:0,0:0:0:0:
91,268,107972,5,10,3:2:0:0:
70,260,108094,1,8,3:2:0:0:
93,259,108216,1,10,3:3:0:0:
86,237,108338,1,8,3:3:0:0:
55,168,108460,6,0,P|140:185|165:266,1,179.999994506836,4|0,3:2|0:0,0:0:0:0:
47,160,108948,6,0,P|86:158|122:141,1,80,10|2,3:2|1:2,0:0:0:0:
205,45,109313,1,0,1:0:0:0:
205,45,109435,2,0,P|187:38|167:36,2,40,2|0|0,3:2|1:0|1:0,0:0:0:0:
220,191,109801,1,2,3:2:0:0:
233,153,109923,2,0,P|220:138|204:126,1,40,8|0,3:2|1:0,0:0:0:0:
55,69,110167,2,0,P|75:67|95:69,2,40,2|8|2,1:2|1:2|1:2,0:0:0:0:
15,166,110533,5,0,3:0:0:0:
12,174,110655,1,0,1:0:0:0:
17,182,110777,1,0,1:0:0:0:
24,228,110899,2,0,P|39:240|53:255,1,40,8|0,3:2|0:0,0:0:0:0:
81,362,111143,1,2,3:2:0:0:
17,325,111387,6,0,L|7:328,2,10,2|0|0,3:2|1:0|1:0,0:0:0:0:
129,348,111752,1,10,3:2:0:0:
81,362,111874,1,8,3:2:0:0:
252,358,112118,5,2,1:2:0:0:
200,270,112362,2,0,P|195:285|195:300,2,29.9999990844727,2|2|2,3:2|1:2|1:2,0:0:0:0:
349,288,112850,6,0,P|294:320|246:365,1,119.999996337891,10|2,3:2|1:2,0:0:0:0:
346,384,113216,1,0,1:0:0:0:
383,380,113338,6,0,P|415:325|460:277,1,119.999996337891,2|0,3:2|1:0,0:0:0:0:
489,223,113704,1,2,3:2:0:0:
489,223,113826,1,8,3:2:0:0:
414,214,113948,6,0,P|410:210|407:207,1,10,2|0,1:2|1:0,0:0:0:0:
392,127,114191,2,0,P|390:132|390:136,1,10,10|0,1:2|1:0,0:0:0:0:
328,187,114435,2,0,P|333:186|337:186,1,10,2|0,3:2|1:0,0:0:0:0:
381,169,114801,5,10,3:2:0:0:
500,8,115045,2,0,P|481:3|464:13,1,40,2|0,3:2|0:0,0:0:0:0:
381,169,115289,2,0,P|428:118|486:80,1,139.999995727539,2|2,3:2|1:2,0:0:0:0:
320,119,115655,5,8,3:2:0:0:
267,115,115777,5,10,3:2:0:0:
233,138,115899,5,0,3:0:0:0:
220,166,116021,5,2,3:2:0:0:
221,176,116143,5,0,3:0:0:0:
186,235,116265,6,0,P|172:242|155:244,2,29.9999990844727,6|2|2,3:2|1:2|1:2,0:0:0:0:
130,335,116752,2,0,P|115:330|102:320,2,29.9999990844727,2|2|2,3:2|1:2|1:2,0:0:0:0:
22,367,117240,6,0,P|19:362|17:358,1,10,2|0,3:2|0:0,0:0:0:0:
104,322,117484,2,0,P|101:317|99:313,1,10,0|0,1:0|3:0,0:0:0:0:
29,284,117728,2,0,P|17:225|33:168,1,119.999996337891,10|2,3:2|1:2,0:0:0:0:
38,58,118094,6,0,P|24:43|28:24,2,40,0|0|0,3:0|1:0|3:0,0:0:0:0:
105,24,118460,2,0,P|147:66|176:119,2,119.999996337891,2|10|2,1:2|3:2|3:2,0:0:0:0:
181,193,119191,2,0,P|224:125|191:132,1,139.999995727539,2|2,3:2|1:2,0:0:0:0:
238,58,119557,1,8,3:2:0:0:
242,21,119679,6,0,L|215:34,1,29.9999990844727,10|0,3:2|1:0,0:0:0:0:
238,58,119923,2,0,L|209:49,1,29.9999990844727,0|0,1:0|1:0,0:0:0:0:
310,47,120167,6,0,P|325:44|339:38,2,29.9999990844727,2|2|0,3:2|1:2|1:0,0:0:0:0:
417,127,120655,6,0,P|446:75|486:30,1,119.999996337891,8|2,3:2|1:2,0:0:0:0:
352,10,121021,1,0,1:0:0:0:
348,30,121143,6,0,P|380:85|425:133,1,119.999996337891,2|0,3:2|1:0,0:0:0:0:
481,232,121509,1,2,3:2:0:0:
481,232,121631,1,8,3:2:0:0:
412,204,121752,6,0,P|408:200|405:196,1,10,2|2,1:2|1:2,0:0:0:0:
418,284,121996,2,0,P|414:280|411:276,1,10,2|0,3:2|1:0,0:0:0:0:
429,364,122240,2,0,P|425:360|422:356,2,10,2|0|0,3:2|1:0|1:0,0:0:0:0:
418,284,122606,5,8,3:2:0:0:
412,123,122850,2,0,P|408:119|405:115,1,10,2|0,3:2|0:0,0:0:0:0:
492,17,123094,6,0,P|422:22|357:48,1,139.999995727539,2|8,3:2|3:2,0:0:0:0:
183,40,123582,1,8,3:2:0:0:
168,86,123704,1,8,3:2:0:0:
168,86,123826,1,8,3:3:0:0:
0,11,124070,6,0,P|26:23|46:46,1,59.9999981689454,4|0,3:2|1:0,0:0:0:0:
82,146,124313,5,2,1:2:0:0:
117,198,124435,5,2,3:2:0:0:
111,247,124557,5,8,1:2:0:0:
137,276,124679,5,2,1:2:0:0:
126,299,124801,5,2,3:2:0:0:
131,310,124923,6,0,P|135:316|136:322,2,10,10|2|0,3:2|1:2|1:0,0:0:0:0:
61,339,125289,6,0,P|64:344|65:351,1,10,0|0,3:0|1:0,0:0:0:0:
214,332,125533,5,10,3:2:0:0:
214,332,125655,1,8,3:2:0:0:
259,358,125777,5,8,3:2:0:0:
259,358,125899,1,8,3:2:0:0:
301,330,126021,6,0,L|395:232,1,120,6|2,3:2|1:2,0:0:0:0:
416,218,126509,1,10,3:2:0:0:
478,338,126752,5,2,1:2:0:0:
482,324,126874,1,2,3:2:0:0:
489,294,126996,1,2,1:2:0:0:
497,254,127118,1,2,1:2:0:0:
488,198,127240,1,2,3:2:0:0:
442,147,127362,1,2,1:2:0:0:
381,115,127484,2,0,L|300:135,1,80,10|2,3:2|1:2,0:0:0:0:
150,128,127972,5,2,3:2:0:0:
185,167,128094,1,2,1:2:0:0:
229,135,128216,1,2,1:2:0:0:
244,80,128338,5,2,1:2:0:0:
226,71,128460,1,10,3:2:0:0:
206,65,128582,1,2,1:2:0:0:
188,57,128704,1,2,1:2:0:0:
125,19,128826,5,2,3:2:0:0:
115,52,128948,1,2,1:2:0:0:
111,18,129070,1,2,1:2:0:0:
106,36,129191,1,2,3:2:0:0:
48,115,129435,6,0,L|22:131,1,29.9999990844727,10|2,3:2|1:2,0:0:0:0:
111,188,129923,2,0,L|92:269,1,80,2|2,3:2|1:2,0:0:0:0:
199,247,130411,1,10,3:2:0:0:
138,374,130655,5,2,1:2:0:0:
141,359,130777,1,2,3:2:0:0:
150,330,130899,1,2,1:2:0:0:
163,291,131021,1,2,1:2:0:0:
199,247,131143,1,2,3:2:0:0:
264,226,131265,1,2,1:2:0:0:
323,260,131387,2,0,L|300:348,1,80,10|2,3:2|1:2,0:0:0:0:
435,261,131874,5,2,3:2:0:0:
485,251,131996,1,2,1:2:0:0:
499,305,132118,1,2,1:2:0:0:
460,289,132240,5,2,1:2:0:0:
450,271,132362,1,10,3:2:0:0:
441,252,132484,1,2,1:2:0:0:
429,234,132606,1,2,1:2:0:0:
434,209,132728,5,2,3:2:0:0:
423,193,132850,1,2,1:2:0:0:
410,168,132972,1,2,1:2:0:0:
410,135,133094,1,2,1:2:0:0:
436,94,133216,1,2,1:2:0:0:
503,65,133338,5,10,3:2:0:0:
503,65,133460,1,8,3:2:0:0:
503,65,133582,1,10,3:3:0:0:
336,14,133826,6,0,L|367:146,1,120,6|2,3:2|1:2,0:0:0:0:
372,170,134313,1,10,3:2:0:0:
499,130,134557,5,2,1:2:0:0:
491,142,134679,1,2,3:2:0:0:
475,168,134801,1,2,1:2:0:0:
453,202,134923,1,2,1:2:0:0:
407,236,135045,1,2,3:2:0:0:
339,240,135167,1,2,1:2:0:0:
302,297,135289,2,0,L|262:367,1,80,10|2,3:2|1:2,0:0:0:0:
133,295,135777,5,2,3:2:0:0:
184,299,135899,1,2,1:2:0:0:
184,354,136021,1,2,1:2:0:0:
143,384,136143,5,2,1:2:0:0:
127,373,136265,1,10,3:2:0:0:
108,364,136387,1,2,1:2:0:0:
90,355,136509,1,2,1:2:0:0:
31,312,136631,5,2,3:2:0:0:
56,291,136752,1,2,1:2:0:0:
24,301,136874,1,2,1:2:0:0:
39,288,136996,1,2,1:2:0:0:
184,299,137240,6,0,L|170:261,1,40,10|0,3:2|0:0,0:0:0:0:
125,39,137484,1,10,3:2:0:0:
143,78,137606,1,8,3:2:0:0:
205,119,137728,6,0,B|190:71|100:48|25:52|69:146|89:117,2,200,2|8|0,3:2|3:2|3:0,0:0:0:0:
416,10,138460,2,0,P|346:119|236:190,1,262.500010013581,14|0,3:2|0:0,0:0:0:0:
236,190,138948,6,0,L|212:195,1,25,2|0,3:2|0:0,0:0:0:0:
224,103,139191,2,0,L|206:119,1,25,0|0,3:0|0:0,0:0:0:0:
434,192,139435,6,0,P|363:167|309:116,2,150.000005722046,14|0|2,3:2|3:0|1:2,0:0:0:0:
309,116,140167,2,0,L|301:139,1,25,0|0,3:0|0:0,0:0:0:0:
492,32,140411,6,0,P|377:72|291:154,1,225.000008583069,14|0,3:2|0:0,0:0:0:0:
178,191,140899,5,10,3:2:0:0:
208,252,141021,1,8,3:2:0:0:
240,312,141143,2,0,L|261:360,1,50,10|0,3:2|0:0,0:0:0:0:
467,350,141387,5,10,3:2:0:0:
385,338,141509,1,8,3:2:0:0:
335,271,141631,6,0,P|388:197|444:269,1,209.999993591309,6|2,3:2|0:2,0:0:0:0:
320,178,142118,2,0,P|276:123|223:77,1,139.999995727539,8|2,3:2|1:2,0:0:0:0:
83,20,142606,1,2,3:2:0:0:
40,46,142728,1,8,3:2:0:0:
56,27,142850,1,2,1:2:0:0:
182,0,143094,2,0,P|149:50|130:107,2,119.999996337891,8|2|2,3:2|1:2|3:2,0:0:0:0:
217,97,143704,1,0,1:0:0:0:
217,97,143826,1,2,1:2:0:0:
80,282,144070,1,10,3:2:0:0:
19,384,144313,6,0,B|58:316|105:284|188:274|166:361|121:354,1,209.999993591309,2|8,1:2|3:2,0:0:0:0:
206,251,144801,2,0,P|167:297|140:350,1,119.999996337891,2|10,1:2|3:2,0:0:0:0:
297,384,145289,1,2,1:2:0:0:
297,384,145411,1,8,3:2:0:0:
346,324,145533,6,0,P|285:328|229:347,1,119.999996337891,2|2,3:2|1:2,0:0:0:0:
325,247,145899,1,2,1:2:0:0:
340,243,146021,2,0,B|354:217|380:216|380:216|419:238|409:298,1,119.999996337891,8|2,3:2|1:2,0:0:0:0:
497,86,146509,1,2,3:2:0:0:
474,58,146631,2,0,B|433:191,1,139.999995727539,8|2,3:2|1:2,0:0:0:0:
411,274,146996,1,8,3:2:0:0:
456,370,147240,6,0,L|453:350,1,20,2|0,1:2|0:0,0:0:0:0:
327,350,147484,6,0,P|299:316|294:272,1,89.9999972534181,2|0,3:2|0:0,0:0:0:0:
347,353,147972,6,0,P|258:304|236:205,1,209.999993591309,10|0,3:2|1:0,0:0:0:0:
281,61,148460,1,2,3:2:0:0:
264,11,148582,2,0,L|242:23,2,25,8|0|0,3:2|1:0|1:0,0:0:0:0:
431,60,148948,6,0,L|322:9,1,104.999996795654,10|8,3:2|3:2,0:0:0:0:
492,19,149435,6,0,P|437:107|408:208,1,209.999993591309,4|0,3:2|0:0,0:0:0:0:
509,328,149923,2,0,P|510:270|477:221,2,119.999996337891,10|2|0,3:2|1:2|3:0,0:0:0:0:
354,372,150533,1,8,3:2:0:0:
341,324,150655,2,0,B|369:393|434:375|434:375|418:354|423:330,1,160,2|8,1:2|3:2,0:0:0:0:
281,365,151021,1,0,1:0:0:0:
246,382,151143,1,2,1:2:0:0:
224,375,151265,1,2,1:2:0:0:
217,367,151387,6,0,P|171:288|156:197,1,179.999994506836,2|0,3:2|0:0,0:0:0:0:
75,193,151874,1,10,3:2:0:0:
135,383,152118,6,0,P|104:326|85:255,1,119.999996337891,2|0,1:2|3:0,0:0:0:0:
18,329,152484,1,8,3:2:0:0:
14,344,152606,1,2,1:2:0:0:
32,215,152850,6,0,L|0:193,1,40,8|2,3:2|1:2,0:0:0:0:
0,36,153216,1,8,3:2:0:0:
46,50,153338,6,0,B|65:58|85:49|85:49|117:84|99:154|75:166|31:125,2,160,2|8|2,3:2|3:2|3:2,0:0:0:0:
13,248,154070,2,0,B|-3:226|7:203|33:216|33:216|71:230|131:226|178:175|168:114,1,240,6|0,1:2|0:0,0:0:0:0:
80,28,154557,6,0,L|47:50,1,40,10|0,3:2|3:0,0:0:0:0:
241,2,155045,6,0,B|157:35|126:57|122:83|97:121|124:162|162:156|188:117,1,240,14|0,3:2|0:0,0:0:0:0:
169,137,155533,6,0,L|176:143,1,10,10|0,3:2|0:0,0:0:0:0:
254,85,155777,2,0,L|255:96,1,10,14|0,3:2|0:0,0:0:0:0:
355,37,156021,2,0,L|344:49,2,10,10|8|0,3:2|3:2|3:0,0:0:0:0:
448,26,156387,5,8,3:2:0:0:
448,26,156509,1,2,3:2:0:0:
448,26,156631,1,2,3:2:0:0:
468,32,156752,5,10,3:3:0:0:
470,82,156874,5,8,3:3:0:0:
444,140,156996,5,10,3:3:0:0:
458,214,157118,5,8,3:3:0:0:
511,276,157240,6,0,P|415:318|315:387,1,209.999993591309,6|0,3:2|0:0,0:0:0:0:
171,384,157728,2,0,P|223:339|201:278,1,139.999995727539,8|2,3:2|1:2,0:0:0:0:
66,292,158216,1,2,3:2:0:0:
42,336,158338,1,8,1:2:0:0:
47,311,158460,1,2,1:2:0:0:
203,279,158704,2,0,P|205:219|223:162,2,119.999996337891,8|2|2,3:2|1:2|3:2,0:0:0:0:
102,384,159313,1,0,1:0:0:0:
102,384,159435,1,2,1:2:0:0:
16,212,159679,1,10,3:2:0:0:
115,285,159923,6,0,P|97:181|102:75,1,209.999993591309,2|8,1:2|3:2,0:0:0:0:
242,45,160411,2,0,P|224:102|222:161,1,119.999996337891,2|10,1:2|3:2,0:0:0:0:
317,344,160899,1,2,1:2:0:0:
317,344,161021,1,8,3:2:0:0:
262,290,161143,6,0,L|379:311,1,119.999996337891,2|2,3:2|1:2,0:0:0:0:
367,166,161509,1,2,0:2:0:0:
360,175,161631,2,0,L|382:292,1,119.999996337891,8|2,3:2|1:2,0:0:0:0:
491,143,162118,1,2,3:2:0:0:
460,110,162240,2,0,B|341:134|341:134|340:154,1,139.999995727539,8|2,3:2|1:2,0:0:0:0:
284,213,162606,1,8,3:2:0:0:
380,311,162850,6,0,L|364:324,1,20,2|0,1:2|0:0,0:0:0:0:
496,332,163094,6,0,B|478:320|478:320|458:270|458:270|442:260,1,89.9999972534181,2|0,3:2|0:0,0:0:0:0:
512,354,163582,6,0,P|422:299|342:231,1,209.999993591309,10|0,3:2|0:0,0:0:0:0:
234,101,164070,1,2,3:2:0:0:
233,46,164191,2,0,L|275:60,2,25,8|0|0,3:2|1:0|1:0,0:0:0:0:
342,232,164557,6,0,L|276:54,1,179.999994506836,10|8,3:2|3:2,0:0:0:0:
204,127,165045,1,4,3:2:0:0:
196,338,165289,6,0,L|240:216,2,119.999996337891,2|10|2,1:2|3:2|1:2,0:0:0:0:
100,367,165899,6,0,L|99:357,1,10,0|2,1:0|3:2,0:0:0:0:
93,277,166143,1,8,3:2:0:0:
90,269,166265,1,0,1:0:0:0:
87,261,166387,1,2,0:2:0:0:
20,240,166509,2,0,L|27:210,1,29.9999990844727,8|0,3:2|1:0,0:0:0:0:
25,377,166752,1,2,1:2:0:0:
22,369,166874,1,2,1:2:0:0:
19,361,166996,1,2,3:2:0:0:
45,141,167240,6,0,L|46:131,1,10,2|0,1:2|0:0,0:0:0:0:
158,37,167484,2,0,L|159:27,1,10,10|0,3:2|0:0,0:0:0:0:
131,115,167728,6,0,L|167:213,1,100,2|2,1:2|3:2,0:0:0:0:
241,263,168094,1,8,3:2:0:0:
244,255,168216,1,0,1:0:0:0:
247,247,168338,1,0,0:0:0:0:
316,239,168460,2,0,L|309:209,1,29.9999990844727,8|0,3:2|0:0,0:0:0:0:
435,374,168704,6,0,L|393:261,1,119.999996337891,2|0,1:2|3:0,0:0:0:0:
476,226,169070,1,0,1:0:0:0:
476,226,169191,6,0,L|473:206,1,20,2|0,1:2|0:0,0:0:0:0:
470,119,169435,2,0,L|468:100,1,20,2|0,3:2|0:0,0:0:0:0:
500,308,169679,2,0,L|425:297,1,75,14|0,1:2|0:0,0:0:0:0:
418,289,169923,6,0,L|413:281,1,10,2|0,3:2|0:0,0:0:0:0:
309,345,170167,2,0,L|308:326,1,20,0|0,3:0|0:0,0:0:0:0:
173,296,170411,2,0,L|143:334,1,40,8|0,3:3|0:0,0:0:0:0:
54,178,170655,6,0,P|33:258|56:180,1,280,14|0,3:2|0:0,0:0:0:0:
59,182,171143,6,0,L|90:143,1,50,14|0,3:2|0:0,0:0:0:0:
6,330,171387,2,0,L|65:323,1,59.9999981689454,2|0,3:2|0:0,0:0:0:0:
188,346,171631,5,10,3:2:0:0:
188,346,171752,1,8,3:2:0:0:
240,317,171874,5,10,3:2:0:0:
256,271,171996,1,8,3:2:0:0:
286,251,172118,1,8,3:2:0:0:
297,223,172240,1,10,3:2:0:0:
316,209,172362,1,8,3:2:0:0:
322,192,172484,1,8,3:2:0:0:
332,185,172606,1,10,3:2:0:0:
338,182,172728,1,8,3:2:0:0:
409,166,172850,6,0,L|399:137,1,29.9999990844727,6|2,3:2|1:2,0:0:0:0:
458,155,173094,2,0,L|431:140,1,29.9999990844727,2|2,1:2|1:2,0:0:0:0:
484,16,173338,5,10,3:2:0:0:
473,14,173460,1,2,1:2:0:0:
478,23,173582,1,2,1:2:0:0:
413,50,173704,5,10,3:2:0:0:
399,56,173826,6,0,L|372:41,1,29.9999990844727,2|0,3:2|0:0,0:0:0:0:
190,44,174070,2,0,B|218:32,1,29.9999990844727,2|0,1:2|0:0,0:0:0:0:
307,83,174313,2,0,B|277:80,1,29.9999990844727,10|0,3:2|0:0,0:0:0:0:
97,38,174557,5,2,1:2:0:0:
109,45,174679,1,2,1:2:0:0:
121,83,174801,6,0,B|118:117,1,29.9999990844727,2|0,3:2|0:0,0:0:0:0:
307,83,175045,2,0,B|277:80,1,29.9999990844727,2|0,1:2|0:0,0:0:0:0:
208,155,175289,2,0,B|190:179,1,29.9999990844727,10|0,3:2|0:0,0:0:0:0:
30,146,175533,6,0,B|47:170,2,29.9999990844727,2|8|0,1:2|3:2|3:0,0:0:0:0:
238,244,176021,6,0,B|208:256,1,29.9999990844727,2|0,1:2|0:0,0:0:0:0:
15,301,176265,6,0,B|105:319|105:319|96:312|96:312|201:327,1,209.999993591309,10|0,3:2|0:0,0:0:0:0:
330,361,176752,1,0,3:0:0:0:
395,319,176996,5,2,1:2:0:0:
384,310,177118,1,2,1:2:0:0:
359,294,177240,1,10,3:2:0:0:
330,287,177362,2,0,P|309:288|298:302,1,29.9999990844727,2|0,1:2|1:0,0:0:0:0:
339,146,177606,5,10,3:2:0:0:
319,147,177728,1,2,3:2:0:0:
284,155,177850,1,2,1:2:0:0:
251,174,177972,2,0,P|234:193|237:215,1,40,2|0,1:2|1:0,0:0:0:0:
148,19,178216,5,10,3:2:0:0:
130,36,178338,1,2,1:2:0:0:
106,75,178460,1,2,1:2:0:0:
94,121,178582,2,0,P|96:152|118:169,1,59.9999981689454,2|0,1:2|3:0,0:0:0:0:
22,377,178826,5,2,1:2:0:0:
88,342,178948,5,2,1:2:0:0:
90,273,179070,5,2,1:2:0:0:
152,255,179191,5,10,3:2:0:0:
157,214,179313,5,2,1:2:0:0:
183,208,179435,5,2,1:2:0:0:
187,190,179557,5,10,3:2:0:0:
195,188,179679,6,0,L|204:178,1,10,2|0,3:2|0:0,0:0:0:0:
266,256,179923,6,0,L|266:236,1,20,2|0,1:2|0:0,0:0:0:0:
227,358,180167,6,0,L|194:333,1,40,10|0,3:2|0:0,0:0:0:0:
70,275,180411,6,0,L|62:223,1,50,2|0,1:2|0:0,0:0:0:0:
0,33,180655,6,0,B|25:19|25:19|152:115|152:115|187:104,1,209.999993591309,6|0,3:2|0:0,0:0:0:0:
108,20,181143,1,10,3:2:0:0:
63,226,181387,6,0,L|55:176,2,50,2|8|0,1:2|3:2|3:0,0:0:0:0:
38,326,181752,6,0,B|70:304|70:304|76:309|76:309|129:275|129:275|137:240,1,139.999995727539,0|0,1:0|0:0,0:0:0:0:
92,379,182118,1,10,3:2:0:0:
168,128,182362,6,0,B|159:142|159:142|216:239|216:239|213:255|213:255|246:313|246:313|230:336,1,240,0|0,1:2|1:0,0:0:0:0:
221,225,182850,6,0,B|237:187|237:187|254:179,1,59.9999981689454,2|8,1:2|3:2,0:0:0:0:
304,113,183216,6,0,L|389:99,1,80,2|0,1:2|1:0,0:0:0:0:
509,154,183582,6,0,B|495:157|495:157|477:149,1,25,2|0,3:2|0:0,0:0:0:0:
486,174,183704,2,0,B|473:167|473:167|467:148,1,25,0|0,1:2|0:0,0:0:0:0:
455,172,183826,2,0,B|451:158|451:158|459:140,1,25,0|0,1:0|0:0,0:0:0:0:
435,150,183948,2,0,B|441:137|441:137|460:131,1,25,0|0,1:0|0:0,0:0:0:0:
470,94,184070,1,10,3:2:0:0:
453,317,184313,6,0,B|475:326|475:326|522:289|522:289|506:236|506:236|504:241|504:241|480:170|480:170|478:177|478:177|462:137|462:137|517:156,1,320,14|0,3:2|1:2,0:0:0:0:
366,272,185045,6,0,P|388:261|412:254,1,50,10|0,3:2|0:0,0:0:0:0:
300,340,185289,2,0,P|324:342|349:348,1,50,2|0,1:2|1:0,0:0:0:0:
279,258,185533,2,0,P|260:240|240:226,2,50,0|8|2,1:0|1:2|1:2,0:0:0:0:
160,308,186021,1,10,3:2:0:0:
148,317,186143,1,2,1:2:0:0:
128,383,186265,6,0,P|93:285|37:196,1,209.999993591309,14|0,3:2|0:0,0:0:0:0:
18,40,186752,5,2,3:2:0:0:
6,42,186874,5,2,1:2:0:0:
0,57,186996,5,2,3:2:0:0:
9,83,187118,5,2,1:2:0:0:
41,114,187240,6,0,P|70:112|88:98,1,50,10|2,3:2|1:2,0:0:0:0:
186,136,187484,6,0,P|210:119|222:89,1,59.9999981689454,10|2,3:2|1:2,0:0:0:0:
353,86,187728,6,0,P|368:54|363:20,1,69.9999978637696,2|8,3:2|3:2,0:0:0:0:
512,8,187972,5,8,3:3:0:0:
470,61,188094,1,8,3:3:0:0:
441,107,188216,1,8,3:3:0:0:
441,147,188338,1,8,3:3:0:0:
503,183,188460,6,0,P|420:191|479:251,1,209.999993591309,6|0,3:2|0:0,0:0:0:0:
417,316,188948,2,0,P|379:360|437:360,1,139.999995727539,10|2,3:2|1:2,0:0:0:0:
354,258,189313,1,2,3:2:0:0:
325,274,189435,2,0,P|312:290|311:310,1,40,2|0,1:2|1:0,0:0:0:0:
209,324,189679,2,0,P|212:344|225:359,1,40,10|0,3:2|0:0,0:0:0:0:
258,215,189923,6,0,P|245:231|244:251,1,40,10|2,3:2|1:2,0:0:0:0:
51,366,190411,6,0,B|132:328|119:260|79:231|48:244|60:297,1,179.999994506836,2|0,3:2|0:0,0:0:0:0:
152,371,190899,2,0,B|212:392|239:351|234:316|212:307|191:340,1,119.999996337891,10|2,3:2|1:2,0:0:0:0:
153,208,191265,1,2,3:2:0:0:
153,208,191387,2,0,P|160:216|163:226,2,20,2|0|2,1:2|1:0|3:2,0:0:0:0:
51,366,191874,6,0,P|55:357|62:350,1,20,8|0,3:2|0:0,0:0:0:0:
58,274,192118,2,0,P|67:274|76:271,1,20,2|0,1:2|1:0,0:0:0:0:
230,183,192362,2,0,P|240:183|249:188,2,20,2|0|2,3:2|0:0|1:2,0:0:0:0:
130,186,192850,6,0,P|127:177|127:166,1,20,8|0,3:2|0:0,0:0:0:0:
157,21,193094,5,2,1:2:0:0:
145,24,193216,1,2,3:2:0:0:
145,36,193338,1,2,1:2:0:0:
157,40,193460,1,2,1:2:0:0:
164,30,193582,1,2,3:2:0:0:
130,186,193826,6,0,B|152:227|123:249|72:230|39:162|114:99,1,209.999993591309,10|0,3:2|1:0,0:0:0:0:
225,192,194313,6,0,P|214:181|207:168,1,29.9999990844727,2|0,3:2|1:0,0:0:0:0:
306,189,194557,2,0,P|290:189|276:184,1,29.9999990844727,2|0,1:2|0:0,0:0:0:0:
111,102,194801,2,0,P|122:91|135:84,1,29.9999990844727,10|0,3:2|0:0,0:0:0:0:
287,19,195045,6,0,L|287:6,2,10,2|2|2,1:2|3:2|1:2,0:0:0:0:
260,66,195411,1,8,3:2:0:0:
260,66,195533,1,2,3:2:0:0:
76,39,195777,5,10,3:2:0:0:
111,102,195899,5,0,3:0:0:0:
161,126,196021,5,10,3:3:0:0:
187,123,196143,5,8,3:3:0:0:
257,135,196265,6,0,P|335:164|262:206,1,209.999993591309,6|0,3:2|0:0,0:0:0:0:
267,48,196752,2,0,P|232:2|289:1,1,139.999995727539,10|2,3:2|1:2,0:0:0:0:
391,0,197118,1,2,3:2:0:0:
424,27,197240,2,0,P|431:46|427:66,1,40,2|0,1:2|1:0,0:0:0:0:
345,81,197484,2,0,P|337:100|322:112,1,40,10|0,3:2|0:0,0:0:0:0:
504,8,197728,6,0,P|511:27|507:47,1,40,10|2,3:2|1:2,0:0:0:0:
505,255,198216,6,0,P|430:304|374:374,1,179.999994506836,2|0,3:2|0:0,0:0:0:0:
512,331,198704,2,0,P|462:296|408:272,1,119.999996337891,10|2,3:2|1:2,0:0:0:0:
318,324,199070,1,2,3:2:0:0:
318,324,199191,2,0,P|320:333|321:343,2,20,0|8|10,1:0|3:2|3:2,0:0:0:0:
271,237,199679,6,0,P|278:230|283:221,1,20,10|0,3:2|0:0,0:0:0:0:
332,161,199923,2,0,P|324:153|315:149,1,20,2|0,1:2|1:0,0:0:0:0:
318,324,200167,2,0,P|317:314|314:304,2,20,10|0|2,3:2|1:0|1:2,0:0:0:0:
374,95,200655,6,0,P|381:88|386:79,1,20,10|0,3:2|0:0,0:0:0:0:
303,143,200899,1,2,1:2:0:0:
316,150,201021,2,0,P|325:154|332:161,1,20,0|2,3:0|1:2,0:0:0:0:
211,87,201265,1,8,3:2:0:0:
224,94,201387,2,0,P|233:98|240:105,1,20,10|0,3:2|0:0,0:0:0:0:
104,21,201631,6,0,B|15:-10|-24:49|-16:100|15:113|46:65,1,209.999993591309,10|0,3:2|0:0,0:0:0:0:
137,104,202118,6,0,P|116:103|99:91,1,29.9999990844727,10|0,3:2|1:0,0:0:0:0:
107,169,202362,2,0,P|93:154|89:134,1,29.9999990844727,2|0,1:2|0:0,0:0:0:0:
37,227,202606,1,10,3:2:0:0:
35,234,202728,1,2,1:2:0:0:
38,240,202850,1,2,1:2:0:0:
38,310,202972,2,0,P|44:323|55:333,2,29.9999990844727,0|2|8,3:0|1:2|3:2,0:0:0:0:
111,384,203338,6,0,P|148:337|177:284,2,119.999996337891,10|10|10,3:2|3:2|3:3,0:0:0:0:
217,212,203948,1,8,3:3:0:0:
230,172,204070,6,0,L|289:161,1,59.9999981689454,6|0,3:2|0:0,0:0:0:0:
397,16,204313,6,0,L|412:3,1,20,8|0,3:2|0:0,0:0:0:0:
358,113,204557,2,0,L|364:94,1,20,0|0,3:0|0:0,0:0:0:0:
504,233,204801,6,0,B|523:225|514:163|456:202|418:208|385:138|428:86|513:129|462:177,1,209.999993591309,6|0,3:2|0:0,0:0:0:0:
349,203,205289,6,0,L|372:198,1,20,2|8,3:2|3:3,0:0:0:0:
449,296,205777,6,0,L|393:272,1,60,6|0,3:2|0:0,0:0:0:0:
439,384,206265,6,0,L|387:257,1,120,10|0,3:2|0:0,0:0:0:0:
257,356,206752,6,0,L|345:147,1,209.999993591309,14|0,3:2|0:0,0:0:0:0:
451,37,207240,6,0,L|425:47,1,20,2|0,3:2|3:0,0:0:0:0:
243,130,207484,6,0,B|201:69|98:115|152:269|265:296|384:239|382:105|331:98|301:47|269:19|214:5|169:0|109:50|80:111|94:165|111:183,1,659.999979858399,14|0,3:2|0:0,0:0:0:0:
50,237,208948,6,0,L|22:265,1,40,2|2,3:2|1:2,0:0:0:0:
104,171,209435,2,0,L|111:163,2,10,0|0|2,3:0|1:0|1:2,0:0:0:0:
50,237,209923,2,0,L|22:265,1,40,2|2,3:2|1:2,0:0:0:0:
104,171,210411,1,0,3:0:0:0:
158,105,210655,2,0,L|165:97,2,10,2|0|2,1:2|1:0|3:2,0:0:0:0:
212,39,211143,1,2,1:2:0:0:
158,105,211387,2,0,L|165:97,2,10,2|0|0,3:2|1:0|1:0,0:0:0:0:
403,16,212118,6,0,L|442:26,1,40,2|2,1:2|3:2,0:0:0:0:
398,105,212606,2,0,L|394:120,2,10,2|0|2,1:2|1:0|3:2,0:0:0:0:
368,195,213094,1,2,1:2:0:0:
398,105,213338,2,0,L|394:120,2,10,0|0|2,3:0|1:0|1:2,0:0:0:0:
448,180,213826,6,0,L|487:190,2,40,2|2|0,3:2|1:2|3:0,0:0:0:0:
442,269,214557,2,0,L|438:284,2,10,2|0|2,1:2|1:0|3:2,0:0:0:0:
416,355,215045,1,2,1:2:0:0:
442,269,215289,2,0,L|438:284,2,10,2|0|0,3:2|1:0|1:0,0:0:0:0:
416,355,215777,1,2,3:2:0:0:
190,316,216265,6,0,L|104:292,1,89.9999972534181,2|0,3:2|0:0,0:0:0:0:
0,352,216752,6,0,L|104:292,1,120,2|0,3:2|0:0,0:0:0:0:
58,208,217240,1,2,3:2:0:0:
134,159,217484,2,0,L|139:178,2,20,2|2|0,1:2|1:2|3:0,0:0:0:0:
223,179,217972,1,2,1:2:0:0:
312,199,218216,1,0,3:0:0:0:
223,179,218460,1,0,1:0:0:0:
315,91,218704,6,0,L|419:31,1,120,2|0,3:2|0:0,0:0:0:0:
512,27,219191,1,2,3:2:0:0:
463,105,219435,2,0,L|474:122,2,20,2|2|0,1:2|1:2|3:0,0:0:0:0:
414,183,219923,1,2,1:2:0:0:
365,261,220167,6,0,L|337:279,1,30,0|0,3:0|0:0,0:0:0:0:
192,384,220655,6,0,B|168:384|153:360|170:297|236:301|281:291|283:251|233:227,2,200,10|8|2,3:2|3:2|3:2,0:0:0:0:
472,368,221387,2,0,P|376:280|252:240,1,262.500010013581,6|0,3:2|0:0,0:0:0:0:
252,240,221874,6,0,L|228:245,1,25,10|0,3:2|0:0,0:0:0:0:
187,171,222118,2,0,L|169:187,1,25,0|0,3:0|0:0,0:0:0:0:
413,82,222362,6,0,P|342:107|288:158,2,150.000005722046,6|0|2,3:2|3:0|3:2,0:0:0:0:
288,157,223094,2,0,L|265:165,1,25,2|0,3:2|0:0,0:0:0:0:
104,25,223338,6,0,P|158:75|228:100,1,150.000005722046,14|0,3:2|3:0,0:0:0:0:
355,33,223704,5,0,3:0:0:0:
365,33,223826,5,10,3:2:0:0:
389,41,223948,5,8,3:2:0:0:
413,82,224070,5,10,3:2:0:0:
432,141,224191,5,8,3:2:0:0:
410,210,224313,5,10,3:2:0:0:
356,264,224435,5,8,3:2:0:0:
382,345,224557,6,0,P|284:306|164:284,1,209.999993591309,4|0,3:2|0:0,0:0:0:0:
12,353,225045,2,0,P|80:357|108:299,1,139.999995727539,8|2,3:2|1:2,0:0:0:0:
65,124,225533,1,2,3:2:0:0:
65,124,225655,1,0,1:0:0:0:
46,105,225777,1,2,1:2:0:0:
55,233,226021,6,0,P|98:191|151:164,2,119.999996337891,8|2|2,3:2|1:2|3:2,0:0:0:0:
65,124,226631,1,0,1:0:0:0:
65,124,226752,1,2,1:2:0:0:
254,7,226996,1,10,3:2:0:0:
130,9,227240,6,0,P|200:86|286:146,1,209.999993591309,2|8,1:2|3:2,0:0:0:0:
401,103,227728,2,0,P|428:156|468:199,1,119.999996337891,2|10,1:2|3:2,0:0:0:0:
369,310,228216,1,2,1:2:0:0:
369,310,228338,1,0,1:0:0:0:
421,355,228460,6,0,P|453:358|484:351,2,59.9999981689454,2|8|2,3:2|1:2|1:2,0:0:0:0:
349,199,228826,1,2,1:2:0:0:
350,210,228948,2,0,P|406:240|447:288,1,119.999996337891,8|2,3:2|1:2,0:0:0:0:
311,126,229435,2,0,P|346:122|380:131,1,69.9999978637696,2|0,3:2|0:0,0:0:0:0:
264,310,229679,2,0,P|243:281|234:247,1,69.9999978637696,14|0,3:2|0:0,0:0:0:0:
149,74,229923,5,8,3:3:0:0:
149,74,230045,1,8,3:3:0:0:
158,88,230167,1,10,3:3:0:0:
184,117,230289,1,8,3:3:0:0:
224,158,230411,6,0,B|219:241|164:295|86:288|122:209|140:229,1,209.999993591309,6|0,3:2|1:0,0:0:0:0:
234,86,230899,2,0,B|239:2|294:-51|372:-44|336:34|318:14,1,209.999993591309,14|0,1:2|1:0,0:0:0:0:
163,45,231387,1,6,3:2:0:0:
124,5,231509,2,0,L|104:44,2,25,8|0|0,3:2|1:0|1:0,0:0:0:0:
112,168,231874,6,0,L|45:-11,1,179.999994506836,6|8,3:2|3:2,0:0:0:0:
163,45,232362,1,4,3:2:0:0:
218,169,232606,6,0,L|340:213,2,119.999996337891,2|10|2,1:2|3:2|1:2,0:0:0:0:
256,266,233216,6,0,L|257:276,1,10,0|2,1:0|3:2,0:0:0:0:
263,356,233460,1,8,3:2:0:0:
266,364,233582,1,0,1:0:0:0:
269,372,233704,1,2,0:2:0:0:
336,384,233826,2,0,L|343:354,1,29.9999990844727,8|0,3:2|0:0,0:0:0:0:
178,266,234070,1,2,1:2:0:0:
181,274,234191,1,0,1:0:0:0:
184,282,234313,1,2,3:2:0:0:
355,283,234557,6,0,L|356:273,1,10,2|0,1:2|0:0,0:0:0:0:
511,368,234801,2,0,L|512:358,1,10,10|0,3:2|0:0,0:0:0:0:
458,276,235045,6,0,L|424:183,1,100,2|2,1:2|3:2,0:0:0:0:
485,114,235411,1,0,1:0:0:0:
488,106,235533,1,0,1:0:0:0:
491,98,235655,1,2,1:2:0:0:
502,30,235777,2,0,L|495:0,1,29.9999990844727,8|0,3:2|0:0,0:0:0:0:
419,71,236021,2,0,L|412:41,1,29.9999990844727,2|0,1:2|1:0,0:0:0:0:
234,0,236265,6,0,L|222:48,1,50,4|0,3:2|0:0,0:0:0:0:
348,86,236509,6,0,L|341:56,1,29.9999990844727,2|2,1:2|3:2,0:0:0:0:
130,0,236996,6,0,L|110:81,1,75,14|0,3:2|0:0,0:0:0:0:
113,73,237240,6,0,L|118:81,1,10,2|0,3:2|0:0,0:0:0:0:
212,155,237484,2,0,L|213:174,1,20,0|0,1:0|0:0,0:0:0:0:
301,292,237728,2,0,L|271:330,1,40,0|0,3:0|0:0,0:0:0:0:
481,356,237972,6,0,P|464:282|486:351,1,240,14|0,3:2|0:0,0:0:0:0:
325,376,238460,5,10,3:3:0:0:
276,323,238582,5,8,3:3:0:0:
287,264,238704,5,10,3:3:0:0:
245,249,238826,5,8,3:3:0:0:
248,215,238948,5,10,3:3:0:0:
298,376,239191,5,2,3:3:0:0:
268,343,239313,5,0,3:3:0:0:
275,307,239435,5,0,3:3:0:0:
249,297,239557,5,2,3:3:0:0:
184,252,239679,6,0,P|138:280|192:257,1,179.999994506836,12|0,3:2|0:0,0:0:0:0:
126,384,240167,6,0,P|84:287|18:226,1,179.999994506836,6|0,3:2|0:0,0:0:0:0:
137,310,240655,5,10,3:2:0:0:
139,276,240777,5,2,1:2:0:0:
162,246,240899,5,2,1:2:0:0:
197,237,241021,5,2,1:2:0:0:
229,257,241143,6,0,P|257:277|267:310,2,59.9999981689454,2|8|0,3:2|3:2|1:0,0:0:0:0:
289,371,241509,6,0,L|292:381,2,10,2|8|0,1:2|3:2|1:0,0:0:0:0:
432,358,241874,6,0,P|451:302|487:255,1,119.999996337891,2|0,1:2|3:0,0:0:0:0:
481,110,242240,1,0,1:0:0:0:
481,110,242362,2,0,P|501:91|485:113,1,80,2|8,1:2|3:2,0:0:0:0:
444,188,242850,6,0,P|447:184|448:179,2,10,2|2|0,1:2|1:2|3:0,0:0:0:0:
344,325,243216,2,0,P|355:286|351:326,1,119.999996337891,10|2,1:2|1:2,0:0:0:0:
444,188,243582,6,0,P|447:184|448:179,1,10,10|2,3:2|1:2,0:0:0:0:
418,296,243948,1,2,1:2:0:0:
418,296,244070,2,0,P|321:258|274:318,1,179.999994506836,2|0,3:2|0:0,0:0:0:0:
345,207,244557,5,10,3:2:0:0:
370,181,244679,5,2,1:2:0:0:
372,144,244801,5,2,1:2:0:0:
353,113,244923,5,2,1:2:0:0:
316,104,245045,6,0,P|281:108|256:132,2,59.9999981689454,2|8|0,3:2|3:2|1:0,0:0:0:0:
115,113,245411,6,0,L|105:113,2,10,2|8|0,1:2|3:2|1:0,0:0:0:0:
171,227,245777,5,2,1:2:0:0:
171,227,245899,1,2,1:2:0:0:
193,158,246021,6,0,P|146:156|99:248,2,139.999995727539,2|2|8,3:2|1:2|3:2,0:0:0:0:
93,43,246752,6,0,P|87:41|83:38,1,10,2|0,1:2|1:0,0:0:0:0:
286,12,246996,6,0,B|265:31|256:11|207:20|190:29|180:65|237:129|319:147|316:35|329:41|382:106,1,240,2|0,3:2|1:0,0:0:0:0:
463,70,247484,5,10,3:2:0:0:
483,60,247606,1,8,3:2:0:0:
467,77,247728,1,10,3:3:0:0:
488,88,247850,1,8,3:3:0:0:
512,158,247972,6,0,P|504:185|483:202,8,55.0000005245209,6|2|2|2|2|2|10|2|2,3:2|0:2|0:2|1:2|0:2|0:2|3:2|0:2|0:2,0:0:0:0:
433,149,248704,6,0,P|411:153|395:169,8,45.0000001716614,2|2|2|2|2|2|2|2|2,1:2|0:2|0:2|3:2|0:2|0:2|1:2|0:2|0:2,0:0:0:0:
424,250,249435,6,0,P|406:246|390:251,8,34.9999989318848,10|2|2|2|2|2|10|2|2,3:2|0:2|0:2|1:2|0:2|0:2|3:2|0:2|0:2,0:0:0:0:
415,323,250167,6,0,P|431:326|445:337,8,25.0000009536744,2|2|2|10|2|2|2|2|2,1:2|0:2|0:2|3:2|0:2|0:2|1:2|0:2|0:2,0:0:0:0:
366,380,250899,6,0,L|348:386,1,12.5,2|0,3:2|0:0,0:0:0:0:
214,358,251143,6,0,L|192:346,1,25,10|0,3:2|0:0,0:0:0:0:
56,255,251387,6,0,L|44:219,1,37.5000014305115,10|0,3:2|0:0,0:0:0:0:
30,24,251631,6,0,B|109:66|109:66|67:93,1,139.999995727539,14|2,3:3|0:2,0:0:0:0:
