osu file format v14

[General]
AudioFilename: audio.ogg
AudioLeadIn: 0
PreviewTime: 75275
Countdown: 0
SampleSet: Soft
StackLeniency: 0.7
Mode: 0
LetterboxInBreaks: 0
WidescreenStoryboard: 1

[Editor]
Bookmarks: 21739,39300,54910,58812,99544,117349,121251,137836,149300,153446,169056,180519
DistanceSpacing: 1.1
BeatDivisor: 4
GridSize: 32
TimelineZoom: 2.3

[Metadata]
Title:Seiza ni Naretara (TV Size)
TitleUnicode:星座になれたら (TV Size)
Artist:kessoku band
ArtistUnicode:結束バンド
Creator:Mizunashi Akari
Version:Normal
Source:ぼっち・ざ・ろっく!
Tags:Bocchi the Rock ぼざろ If I could be a constellation live performance version 秀華祭 STARRY hitori gotou gotoh 後藤 ひとり kita ikuyo 喜多 郁代 nijika ijichi 伊地知 虹夏 ryou yamada 山田 リョウ za rokku bozaro japanese rock anime insert jasontime12345
BeatmapID:3967484
BeatmapSetID:1919446

[Difficulty]
HPDrainRate:6
CircleSize:3
OverallDifficulty:6
ApproachRate:6
SliderMultiplier:1.5
SliderTickRate:1

[Events]
//Background and Video events
0,0,"bg_normal.png",0,0
Video,0,"video1.avi"
//Break Periods
//Storyboard Layer 0 (Background)
//Storyboard Layer 1 (Fail)
//Storyboard Layer 2 (Pass)
//Storyboard Layer 3 (Foreground)
//Storyboard Layer 4 (Overlay)
//Storyboard Sound Samples

[TimingPoints]
276,487.80487804878,4,2,1,50,1,0
35641,-100,4,2,1,40,0,0
41251,-100,4,2,1,30,0,0
47105,-100,4,2,1,50,0,0
54910,-83.3333333333333,4,2,1,60,0,1
58782,-83.3333333333333,4,2,3,100,0,1
58934,-83.3333333333333,4,2,1,30,0,1
82958,-83.3333333333333,4,2,1,40,0,1
91007,-83.3333333333333,4,2,1,30,0,1
99544,-83.3333333333333,4,2,1,30,0,1
101128,-83.3333333333333,4,2,1,30,0,1
101251,-83.3333333333333,4,2,1,50,0,1
101739,-83.3333333333333,4,2,1,70,0,1
103446,-83.3333333333333,4,2,1,70,0,1
103934,-83.3333333333333,4,2,1,70,0,1
104422,-83.3333333333333,4,2,1,50,0,1
105641,-83.3333333333333,4,2,1,30,0,1
106373,-83.3333333333333,4,2,1,30,0,1
111495,-83.3333333333333,4,2,1,30,0,1
112227,-83.3333333333333,4,2,1,30,0,1
113202,-83.3333333333333,4,2,1,30,0,1
116129,-83.3333333333333,4,2,1,50,0,1
116373,-83.3333333333333,4,2,1,50,0,1
116616,-83.3333333333333,4,2,1,50,0,1
116861,-83.3333333333333,4,2,1,70,0,1
117349,-90.9090909090909,4,2,1,50,0,0
121251,-90.9090909090909,4,2,1,50,0,0
136373,-90.9090909090909,4,2,1,60,0,0
137836,487.80487804878,4,2,1,30,1,0
137836,-125,4,2,1,30,0,0
145640,-100,4,2,1,30,0,0
149300,-100,4,2,1,40,0,0
149543,-100,4,2,1,50,0,0
152714,-100,4,2,1,50,0,0
153445,-83.3333333333333,4,2,1,60,0,1
160762,-83.3333333333333,4,2,1,60,0,1
162714,-83.3333333333333,4,2,1,60,0,1
169055,-100,4,2,1,50,0,0
176860,-100,4,2,1,50,0,0
178323,-100,4,2,1,50,0,0
180640,-100,4,2,1,5,0,0

[Colours]
Combo1 : 233,194,235
Combo2 : 216,122,206
Combo3 : 112,133,207
Combo4 : 226,224,126
Combo5 : 213,128,128

[HitObjects]
55,139,276,37,2,0:2:0:0:
55,139,763,1,2,0:2:0:0:
55,139,1251,1,2,0:2:0:0:
127,98,1495,2,0,L|145:47,2,37.5,0|0|2,0:0|0:0|0:3,0:0:0:0:
168,258,2227,6,0,P|245:260|340:285,1,150,4|2,1:2|0:2,0:0:0:0:
448,177,3202,6,0,B|474:126|474:126|450:53,2,112.5,2|2|2,1:3|1:3|1:3,0:2:0:0:
317,278,4422,22,0,B|197:284|89:313|89:313|37:282|37:282|48:232|48:232|81:209,1,375,0|2,0:0|0:3,0:0:0:0:
120,55,6129,6,0,P|177:77|272:96,1,150,4|2,1:2|0:2,0:0:0:0:
406,178,7105,6,0,B|440:222|440:222|423:292,2,112.5,2|2|2,1:3|1:3|1:3,0:2:0:0:
302,49,8324,5,0,1:0:0:0:
231,92,8568,2,0,L|103:71,1,112.5,8|0,0:0|0:0,0:0:0:0:
88,101,9056,2,0,P|99:128|107:175,1,75,0|8,1:0|0:0,0:0:0:0:
66,245,9544,2,0,L|54:287,2,37.5,8|8|8,0:2|0:2|0:2,0:0:0:0:
148,249,10032,22,0,P|210:266|289:304,1,150,4|10,1:2|0:2,0:2:0:0:
437,235,11007,2,0,B|459:182|459:182|423:131,2,112.5,0|2|2,1:2|0:2|0:2,0:2:0:0:
335,365,12227,2,0,P|371:371|408:380,1,75,2|8,0:2|0:2,0:2:0:0:
469,324,12715,1,2,0:2:0:0:
408,268,12958,6,0,P|385:203|358:150,1,112.5,0|0,1:2|0:2,0:0:0:0:
325,173,13446,2,0,P|268:111|228:85,1,112.5,8|2,0:2|0:3,0:2:0:0:
204,101,13934,6,0,P|113:85|53:53,1,150,0|10,1:2|0:2,0:2:0:0:
7,216,14910,2,0,B|48:263|48:263|118:259,2,112.5,0|2|2,1:2|0:2|0:2,0:2:0:0:
29,136,15885,6,0,P|68:125|133:116,1,75,0|2,1:2|0:2,0:2:0:0:
182,139,16373,1,8,0:2:0:0:
261,161,16617,22,0,L|279:75,1,75,2|2,0:2|1:2,0:2:0:0:
349,49,17105,2,0,L|411:104,2,75,2|8|0,0:2|0:2|0:0,0:2:0:0:
278,5,17836,6,0,P|196:32|152:166,1,225,4|0,0:2|0:2,0:2:0:0:
191,224,18812,2,0,P|250:247|275:293,1,112.5,0|0,1:2|0:0,0:2:0:0:
306,313,19300,6,0,P|355:229|497:231,2,225,8|0|0,0:2|0:2|1:2,0:2:0:0:
229,344,21007,1,0,0:0:0:0:
151,373,21251,2,0,L|50:360,1,75,8|0,0:0|0:3,0:0:0:0:
24,298,21739,6,0,P|5:236|2:194,1,75
44,154,22227,1,10,0:2:0:0:
115,112,22471,1,0,0:0:0:0:
195,88,22715,2,0,P|258:114|360:132,1,150,2|8,1:2|0:0,0:0:0:0:
408,88,23446,1,0,0:0:0:0:
484,118,23690,2,0,P|491:179|470:277,1,150,0|8,1:0|0:0,0:0:0:0:
72,358,25397,22,0,P|85:317|93:262,1,75,0|0,0:0|1:0,0:0:0:0:
56,210,25885,1,0,0:0:0:0:
79,130,26129,2,0,P|136:97|171:88,1,75,10|2,0:2|0:2,0:0:0:0:
215,52,26617,2,0,P|279:74|376:98,1,150,2|8,1:2|0:0,0:0:0:0:
411,158,27349,1,0,0:0:0:0:
359,222,27593,2,0,P|238:263|205:287,1,150,0|8,1:0|0:0,0:0:0:0:
52,92,28812,6,0,L|66:9,1,75,0|8,1:0|0:0,0:0:0:0:
147,17,29300,2,0,P|236:42|281:77,2,150,0|0|0,1:0|0:0|0:0,0:0:0:0:
83,169,30763,6,0,L|98:250,1,75,2|8,1:2|0:0,0:0:0:0:
145,309,31251,2,0,P|222:303|288:276,1,150
360,233,31983,2,0,L|493:280,2,112.5,8|0|0,0:0|1:0|0:0,0:0:0:0:
296,180,32958,2,0,L|266:80,1,75,8|0,0:0|0:0,0:0:0:0:
249,29,33446,1,0,1:0:0:0:
61,190,34178,5,2,0:2:0:0:
11,255,34422,2,0,P|5:289|5:347,1,75,2|2,0:2|1:2,0:0:0:0:
68,380,34910,1,8,0:0:0:0:
137,334,35154,2,0,P|208:314|285:327,1,150,0|2,0:0|0:2,0:0:0:0:
442,285,36129,22,0,P|416:347|489:373,2,150,2|2|2,0:2|0:2|0:2,0:2:0:0:
465,205,37349,2,0,L|484:128,1,75,2|2,1:2|0:2,0:0:0:0:
473,50,37836,5,10,0:2:0:0:
315,1,38324,1,0,0:0:0:0:
160,59,38812,2,0,L|57:73,1,75,0|0,3:2|0:0,0:0:0:0:
36,135,39300,6,0,P|55:206|67:227,1,75,2|2,1:2|0:2,0:0:0:0:
118,261,39788,1,10,0:2:0:0:
276,217,40275,2,0,L|296:120,1,75,2|2,0:2|1:2,0:0:0:0:
307,62,40763,1,10,0:2:0:0:
385,37,41007,6,0,P|456:61|504:147,2,150,2|2|2,0:2|0:2|0:2,0:0:0:0:
307,62,42227,1,2,0:2:0:0:
224,56,42471,22,0,L|145:46,1,75,2|10,1:2|0:2,0:0:0:0:
104,115,42958,2,0,L|141:202,1,75,2|2,0:2|1:2,0:0:0:0:
214,201,43446,2,0,L|267:127,1,75,2|10,0:2|0:2,0:0:0:0:
338,159,43934,2,0,L|369:259,1,75,2|2,0:2|0:2,0:0:0:0:
313,298,44422,2,0,L|221:278,1,75,2|10,1:2|0:2,0:0:0:0:
166,321,44910,6,0,P|117:323|58:283,1,112.5,2|2,0:2|0:2,0:0:0:0:
25,275,45397,2,0,P|15:229|59:157,1,112.5,2|2,0:2|0:2,0:0:0:0:
34,129,45885,2,0,P|116:120|192:85,1,150,2|2,0:2|1:2,0:0:0:0:
233,32,46617,5,8,0:2:0:0:
315,37,46861,1,0,1:2:0:0:
370,99,47105,2,0,P|389:170|401:191,1,75,2|2,1:2|0:2,0:0:0:0:
456,219,47593,1,10,0:2:0:0:
377,363,48080,2,0,L|291:347,1,75,2|2,0:2|1:2,0:0:0:0:
244,291,48568,1,10,0:2:0:0:
179,239,48812,6,0,P|108:263|60:349,2,150,2|2|2,0:2|0:2|0:2,0:0:0:0:
235,177,50032,1,2,0:2:0:0:
238,94,50275,22,0,P|183:44|89:53,1,150,2|2,1:2|3:2,0:2:0:0:
32,71,51007,6,0,L|44:144,1,75,2|2,1:2|1:2,0:2:0:0:
206,175,51739,5,6,0:2:0:0:
347,89,52227,5,2,0:2:0:0:
420,125,52471,1,0,1:2:0:0:
434,206,52715,22,0,L|315:223,1,112.5,4|0,0:2|0:2,0:2:0:0:
281,219,53202,2,0,P|256:268|265:322,1,112.5,0|0,1:2|0:2,0:2:0:0:
235,352,53690,2,0,P|153:343|77:308,1,150,4|0,0:2|1:2,0:2:0:0:
47,246,54422,5,8,0:2:0:0:
55,163,54666,1,0,1:0:0:0:
5,77,54910,6,0,P|54:14|168:32,1,179.999994506836,4|8,1:2|0:2,0:2:0:0:
226,76,55641,1,2,0:3:0:0:
297,144,55885,2,0,P|340:97|425:108,2,134.999995880127,0|2|2,0:0|0:2|0:3,0:0:0:0:
217,204,56861,6,0,P|230:243|239:309,1,89.9999972534181,0|2,1:2|0:3,0:2:0:0:
309,359,57349,2,0,P|398:343|479:285,1,179.999994506836,8|0,0:0|1:2,0:0:0:0:
471,194,58080,1,2,0:3:0:0:
418,110,58324,1,8,0:2:0:0:
324,94,58568,1,2,0:3:0:0:
324,94,58812,5,2,2:1:0:0:
128,62,59300,6,0,P|107:141|105:160,1,89.9999972534181,8|2,0:2|0:3,0:2:0:0:
120,247,59788,2,0,P|191:256|247:194,2,134.999995880127,0|2|2,1:0|0:2|1:3,0:2:0:0:
45,182,60763,6,0,P|28:124|-3:64,1,89.9999972534181,0|2,1:2|0:3,0:2:0:0:
76,17,61251,2,0,P|167:23|214:72,1,134.999995880127,8|0,0:2|0:2,0:2:0:0:
226,89,61739,2,0,P|310:113|409:117,2,179.999994506836,0|8|0,1:2|0:2|1:2,0:2:0:0:
133,123,62958,1,2,0:3:0:0:
60,191,63202,2,0,P|64:275|86:347,2,134.999995880127,8|2|8,0:2|0:2|0:2,0:2:0:0:
158,169,64178,2,0,P|183:228|206:314,1,134.999995880127,8|0,0:2|0:2,0:2:0:0:
243,324,64666,5,0,1:2:0:0:
341,332,64910,1,2,0:3:0:0:
413,264,65154,2,0,P|410:198|388:110,2,134.999995880127,8|2|0,0:2|0:2|0:2,0:2:0:0:
320,297,66129,2,0,P|278:223|262:168,1,134.999995880127,8|0,0:2|0:2,0:2:0:0:
219,152,66617,6,0,L|13:184,1,179.999994506836,0|0,1:2|0:2,0:2:0:0:
10,85,67349,2,0,L|121:67,1,89.9999972534181,0|0,1:2|0:2,0:2:0:0:
197,59,67836,1,8,0:2:0:0:
97,230,68324,22,0,P|116:291|223:310,1,179.999994506836,12|0,0:2|0:2,0:2:0:0:
271,226,69056,1,0,0:2:0:0:
332,303,69300,2,0,P|385:317|461:252,1,134.999995880127,12|0,0:2|0:2,0:2:0:0:
444,227,69788,2,0,L|425:115,1,89.9999972534181,0|8,0:2|0:2,0:2:0:0:
415,40,70275,1,0,0:2:0:0:
336,99,70519,6,0,P|267:147|160:127,1,179.999994506836,4|8,1:2|0:2,0:2:0:0:
94,78,71251,1,2,0:3:0:0:
41,161,71495,2,0,P|29:227|24:294,2,134.999995880127,0|2|2,1:2|0:2|1:3,0:2:0:0:
120,220,72471,2,0,P|164:237|227:244,1,89.9999972534181,0|2,1:2|0:3,0:2:0:0:
270,319,72958,2,0,P|309:263|412:233,1,179.999994506836,8|0,0:2|1:2,0:2:0:0:
493,175,73690,5,2,0:3:0:0:
442,89,73934,1,0,0:2:0:0:
344,72,74178,1,2,0:3:0:0:
253,114,74422,6,0,P|258:44|269:-7,1,89.9999972534181,0|2,1:2|0:3,0:2:0:0:
162,16,74910,2,0,L|54:4,1,89.9999972534181,8|2,0:2|0:3,0:2:0:0:
24,92,75397,2,0,P|46:178|88:228,2,134.999995880127,0|2|2,1:2|0:2|0:3,0:2:0:0:
109,40,76373,22,0,L|205:26,1,89.9999972534181,0|2,0:2|0:3,0:2:0:0:
278,85,76861,2,0,P|369:101|422:120,1,134.999995880127,8|0,0:2|0:2,0:2:0:0:
446,148,77349,2,0,P|436:231|356:287,2,179.999994506836,0|8|4,1:2|0:2|1:2,0:2:0:0:
375,78,78568,21,2,0:3:0:0:
283,114,78812,2,0,L|163:93,1,89.9999972534181,8|2,0:2|0:3,0:2:0:0:
117,35,79300,2,0,P|59:78|57:172,2,134.999995880127,0|2|2,1:2|0:2|0:3,0:2:0:0:
186,105,80275,5,0,1:2:0:0:
173,198,80519,1,2,0:3:0:0:
94,258,80763,2,0,P|48:262|3:282,1,89.9999972534181,8|2,0:2|0:3,0:2:0:0:
53,367,81251,22,0,L|221:389,2,134.999995880127,0|2|2,1:2|0:2|0:3,0:2:0:0:
7,278,82227,1,0,1:2:0:0:
98,240,82471,1,2,0:3:0:0:
195,256,82715,1,0,0:2:0:0:
273,315,82958,6,0,P|366:344|469:326,1,179.999994506836,12|2,0:2|1:3,0:2:0:0:
481,241,83690,1,0,1:2:0:0:
466,143,83934,2,0,P|373:114|270:132,1,179.999994506836,12|0,0:2|1:2,0:2:0:0:
197,154,84666,2,0,L|174:63,1,89.9999972534181,0|8,1:2|0:2,0:2:0:0:
82,30,85154,2,0,L|27:18,2,44.999998626709,0|8|0,1:2|0:2|1:2,0:2:0:0:
27,112,85641,22,0,P|32:179|99:225,1,134.999995880127,0|0,1:3|1:2,0:2:0:0:
122,249,86129,22,0,B|160:227|160:227|207:239,1,89.9999972534181,4|2,1:2|0:3,0:2:0:0:
302,221,86617,1,8,0:2:0:0:
398,200,86861,6,0,B|445:232|445:232|474:361,1,179.999994506836,2|2,0:3|0:3,0:2:0:0:
374,371,87593,2,0,L|270:354,1,89.9999972534181,8|2,0:2|0:3,0:2:0:0:
186,343,88080,6,0,B|208:254|208:254|111:231,1,179.999994506836,0|8,1:2|0:2,0:2:0:0:
37,180,88812,38,0,B|15:91|15:91|112:68,1,179.999994506836,2|2,0:3|0:3,0:2:0:0:
200,75,89544,2,0,B|198:93|198:93|227:170,1,89.9999972534181,8|2,0:2|0:3,0:2:0:0:
309,209,90032,6,0,B|355:198|355:198|417:238,1,89.9999972534181,0|2,1:2|0:3,0:2:0:0:
331,300,90519,1,8,0:2:0:0:
233,316,90763,6,0,B|211:310|211:310|69:341,1,134.999995880127,2|0,0:3|0:2,0:2:0:0:
56,312,91251,6,0,B|62:290|62:290|31:148,1,134.999995880127,2|0,0:3|0:2,0:2:0:0:
75,147,91739,22,0,B|69:125|69:125|100:-17,1,134.999995880127,2|0,0:3|0:2,0:2:0:0:
142,8,92227,6,0,B|164:2|164:2|306:33,1,134.999995880127,2|0,0:3|0:2,0:2:0:0:
307,62,92715,6,0,L|331:152,1,89.9999972534181,2|0,0:3|0:2,0:2:0:0:
413,202,93202,1,2,0:3:0:0:
488,265,93446,2,0,B|452:329|452:329|364:339,1,134.999995880127,8|0,0:2|0:2,0:2:0:0:
347,311,93934,6,0,B|290:272|290:272|194:317,2,134.999995880127,6|2|2,0:2|0:2|0:3,0:2:0:0:
293,119,95154,21,2,0:3:0:0:
199,151,95397,1,10,0:2:0:0:
101,131,95641,1,2,0:3:0:0:
32,59,95885,6,0,B|84:16|84:16|180:54,2,134.999995880127,2|2|2,1:2|0:2|0:3,0:2:0:0:
97,246,97105,5,0,0:3:0:0:
180,277,97349,1,0,1:2:0:0:
243,352,97593,6,0,P|300:262|322:159,1,179.999994506836,12|2,0:2|0:3,0:2:0:0:
252,118,98324,2,0,P|244:73|252:29,1,89.9999972534181,0|2,0:2|0:3,0:2:0:0:
152,28,98812,38,0,P|159:72|151:116,1,89.9999972534181,0|2,1:2|0:3,0:2:0:0:
80,185,99300,1,0,0:2:0:0:
99,282,99544,22,2,B|144:277|185:237|201:189|245:168|292:188|309:240|368:275|415:286,1,359.999989013672,0|0,1:2|1:2,0:1:0:0:
493,229,100763,6,0,B|495:177|443:151|450:89,1,134.999995880127,0|0,1:0|1:2,0:0:0:0:
417,64,101251,2,0,B|385:110|359:125|329:94|323:31,1,134.999995880127,0|0,1:2|0:2,0:1:0:0:
285,28,101739,54,2,B|187:38|180:49|91:62,1,179.999994506836,0|8,1:2|0:2,0:1:0:0:
55,143,102471,2,2,B|212:162|162:195|345:215,1,269.999991760254,2|0,0:3|0:0,0:1:0:0:
412,197,103446,6,2,B|389:225|421:253|396:287,1,89.9999972534181,2|0,0:3|0:0,0:1:0:0:
345,367,103934,1,2,0:3:0:0:
256,323,104178,1,8,0:2:0:0:
158,339,104422,54,2,B|186:273|119:266|143:190,1,134.999995880127,2|0,0:3|0:2,0:1:0:0:
166,168,104910,2,2,B|195:110|103:56|151:-5,1,179.999994506836,2|2,0:3|0:3,0:1:0:0:
241,33,105641,6,2,P|334:47|393:130,1,179.999994506836,0|0,0:2|0:0,0:1:0:0:
348,201,106373,1,2,0:3:0:0:
252,226,106617,2,2,L|67:274,1,179.999994506836,0|8,1:2|0:2,0:1:0:0:
10,197,107349,54,2,B|-23:147|3:42|106:90,1,179.999994506836,2|2,0:3|0:3,0:1:0:0:
159,142,108080,1,8,0:2:0:0:
247,97,108324,2,2,B|356:107|313:153|427:169,2,179.999994506836,2|2|2,0:3|0:3|0:3,0:1:0:0:
156,138,109544,5,2,1:2:0:0:
115,280,109910,53,2,0:2:0:0:
240,358,110275,5,2,0:3:0:0:
373,292,110641,53,2,0:2:0:0:
328,150,111007,6,2,P|286:98|294:14,1,134.999995880127,8|0,0:2|0:0,0:1:0:0:
239,12,111495,1,0,0:2:0:0:
161,73,111739,2,2,B|107:75|118:51|55:48,1,89.9999972534181,2|0,0:3|0:0,0:1:0:0:
32,139,112227,54,2,P|70:267|213:302,1,269.999991760254,2|0,0:3|0:0,0:1:0:0:
284,334,113202,6,2,P|286:278|405:220,1,179.999994506836,2|2,1:2|0:2,0:2:0:0:
470,171,113934,53,10,0:2:0:0:
396,104,114178,1,2,0:2:0:0:
301,75,114422,1,2,1:2:0:0:
201,75,114666,1,2,0:2:0:0:
108,111,114910,1,10,0:2:0:0:
42,185,115154,6,2,P|31:285|116:302,1,179.999994506836,6|10,1:2|0:2,0:2:0:0:
174,255,115885,53,10,0:2:0:0:
269,227,116129,1,8,0:2:0:0:
357,271,116373,6,0,B|354:289|354:289|376:313|380:374,1,89.9999972534181,0|0,0:0|1:2,0:0:0:0:
460,299,116861,2,0,B|457:281|457:281|479:257|483:196,1,89.9999972534181,0|0,1:2|1:2,0:0:0:0:
441,133,117349,22,0,P|333:137|286:93,1,165.000005035401,4|8,1:2|0:0,0:0:0:0:
212,62,118080,1,0,0:0:0:0:
123,80,118324,2,0,L|142:194,1,82.5000025177003,0|0,1:2|0:0,0:0:0:0:
67,220,118812,2,0,L|52:328,1,82.5000025177003,8|0,0:0|0:0,0:0:0:0:
4,377,119300,6,0,P|98:343|182:362,1,165.000005035401,0|8,1:0|0:0,0:0:0:0:
247,325,120032,1,0,0:0:0:0:
333,352,120275,2,0,P|343:280|345:247,1,82.5000025177003,0|0,1:0|0:0,0:0:0:0:
417,216,120763,2,0,P|423:158|405:110,1,82.5000025177003,8|0,0:0|0:0,0:0:0:0:
353,70,121251,6,0,P|271:102|175:96,1,165.000005035401,0|8,1:2|0:2,0:2:0:0:
120,48,121983,2,0,P|54:86|53:175,1,165.000005035401,2|2,0:3|1:3,0:2:0:0:
120,224,122715,21,8,0:2:0:0:
173,296,122958,1,2,0:3:0:0:
258,327,123202,6,0,P|259:285|268:245,1,82.5000025177003,0|2,1:2|0:3,0:2:0:0:
348,201,123690,1,8,0:2:0:0:
398,125,123934,2,0,L|382:21,2,82.5000025177003,2|0|2,1:3|0:2|1:3,0:2:0:0:
440,205,124666,2,0,L|502:251,2,41.2500012588501,8|8|2,0:2|0:2|1:3,0:2:0:0:
348,201,125154,6,0,P|248:169|169:192,1,165.000005035401,4|8,0:2|0:2,0:2:0:0:
131,248,125885,1,2,0:3:0:0:
54,297,126129,2,0,L|31:203,1,82.5000025177003,0|2,0:2|1:3,0:2:0:0:
78,137,126617,2,0,L|93:46,1,82.5000025177003,8|2,0:2|0:3,0:2:0:0:
13,9,127105,6,0,P|129:41|208:21,1,165.000005035401,0|8,1:2|0:2,0:2:0:0:
258,9,127836,1,2,0:3:0:0:
335,56,128080,2,0,L|322:151,1,82.5000025177003,0|2,0:2|0:3,0:2:0:0:
376,211,128568,2,0,L|389:306,1,82.5000025177003,8|2,0:2|0:3,0:2:0:0:
437,369,129056,22,0,P|369:339|266:324,1,165.000005035401,0|8,1:2|0:2,0:2:0:0:
193,294,129788,2,0,P|87:341|26:312,1,165.000005035401,2|2,0:3|1:3,0:2:0:0:
22,239,130519,2,0,L|43:142,1,82.5000025177003,8|2,0:2|0:3,0:2:0:0:
63,70,131007,5,0,1:2:0:0:
150,95,131251,1,2,0:3:0:0:
234,61,131495,2,0,L|252:158,1,82.5000025177003,8|2,0:2|0:3,0:2:0:0:
327,188,131983,1,0,1:2:0:0:
405,142,132227,6,0,P|481:133|524:137,2,82.5000025177003,2|8|8,1:3|0:2|0:2,0:2:0:0:
330,89,132958,5,4,1:2:0:0:
313,0,133202,1,8,0:2:0:0:
141,58,133690,21,4,1:2:0:0:
155,239,134178,5,0,1:2:0:0:
331,283,134666,5,8,0:2:0:0:
438,125,135154,5,8,0:2:0:0:
305,1,135641,21,12,0:2:0:0:
139,76,136129,5,2,1:2:0:0:
158,164,136373,1,12,0:2:0:0:
158,164,137836,5,0,1:0:0:0:
158,164,138323,5,0,1:0:0:0:
256,252,138811,22,0,P|354:243|400:170,1,180,0|0,1:0|0:0,0:0:0:0:
424,120,139787,5,0,1:0:0:0:
317,42,140275,2,0,P|243:36|185:46,1,120,0|0,1:0|1:0,0:0:0:0:
141,76,141006,1,0,0:0:0:0:
108,133,141250,2,0,L|188:151,1,60,0|0,1:0|0:0,0:0:0:0:
235,163,141738,5,0,1:0:0:0:
235,163,142226,5,0,1:0:0:0:
256,293,142714,22,0,P|332:307|408:223,1,180,0|0,1:0|0:0,0:0:0:0:
384,179,143689,5,0,1:0:0:0:
340,129,143933,1,0,0:0:0:0:
274,123,144177,1,0,1:0:0:0:
143,105,144665,6,0,L|157:234,1,120,0|0,1:0|1:0,0:0:0:0:
122,299,145396,1,0,0:0:0:0:
184,352,145640,6,0,P|255:343|341:360,1,150,0|0,1:0|1:0,0:0:0:0:
407,323,146372,1,0,0:0:0:0:
478,281,146616,2,0,P|490:237|494:181,2,75,0|0|0,1:0|0:0|1:0,0:0:0:0:
405,240,147348,1,0,0:0:0:0:
331,202,147592,22,0,P|262:229|192:199,1,150,0|0,1:0|1:0,0:0:0:0:
118,171,148323,1,0,0:0:0:0:
50,123,148567,2,0,P|32:81|24:41,2,75,0|0|0,1:0|0:0|1:0,0:0:0:0:
123,84,149299,1,2,0:2:0:0:
203,64,149543,5,8,0:2:0:0:
277,100,149787,2,0,L|368:91,1,75,8|0,0:2|1:2,0:2:0:0:
419,139,150275,6,0,L|402:220,1,75,12|0,0:2|0:2,0:2:0:0:
385,293,150762,1,8,0:2:0:0:
234,360,151250,6,0,P|149:339|105:263,1,150,12|0,0:2|1:2,0:2:0:0:
87,212,151982,1,0,1:2:0:0:
12,175,152226,22,0,P|37:130|72:110,1,75,12|0,0:2|0:0,0:2:0:0:
133,88,152714,1,8,0:2:0:0:
205,126,152957,1,8,0:2:0:0:
277,165,153201,1,0,0:0:0:0:
338,87,153445,6,0,P|396:56|472:48,1,134.999995880127,0|0,1:2|0:2,0:2:0:0:
495,85,153933,2,0,L|479:189,1,89.9999972534181,8|2,0:2|0:3,0:0:0:0:
463,271,154421,5,0,1:2:0:0:
368,301,154665,1,2,0:3:0:0:
287,242,154909,2,0,P|216:262|185:283,1,89.9999972534181,8|2,0:2|0:3,0:0:0:0:
124,330,155396,2,0,L|101:218,1,89.9999972534181,0|2,1:2|0:2,0:2:0:0:
16,197,155884,1,8,0:2:0:0:
76,118,156128,6,0,P|83:52|156:6,1,134.999995880127,2|8,0:3|0:2,0:2:0:0:
181,22,156616,2,0,L|292:43,1,89.9999972534181,2|8,1:3|0:2,0:2:0:0:
367,55,157104,1,2,0:3:0:0:
444,116,157348,22,0,P|396:144|305:131,1,134.999995880127,0|0,1:2|0:2,0:2:0:0:
279,167,157835,2,0,L|296:269,1,89.9999972534181,8|2,0:2|0:3,0:0:0:0:
227,330,158323,5,0,0:2:0:0:
133,296,158567,1,12,0:2:0:0:
92,205,158811,2,0,L|36:189,2,44.999998626709,0|0|0,1:2|1:2|1:2,0:2:0:0:
166,139,159299,6,0,P|238:97|260:41,1,134.999995880127,4|0,0:2|1:2,0:2:0:0:
306,36,159787,2,0,P|351:90|436:98,1,134.999995880127,12|0,0:2|1:2,0:2:0:0:
444,140,160275,2,0,P|408:210|419:289,1,134.999995880127,4|0,1:2|0:0,0:2:0:0:
369,293,160762,2,0,L|174:330,1,179.999994506836,12|4,0:2|1:2,0:2:0:0:
99,290,161494,5,2,0:3:0:0:
27,221,161738,2,0,P|39:166|85:130,1,89.9999972534181,8|2,0:2|0:3,0:0:0:0:
119,61,162226,2,0,P|193:95|236:103,1,89.9999972534181,0|0,1:2|0:0,0:2:0:0:
281,155,162714,2,0,P|344:110|347:40,1,134.999995880127,8|0,0:2|0:2,0:2:0:0:
311,28,163201,21,0,1:2:0:0:
214,7,163445,1,2,0:3:0:0:
170,95,163689,2,0,L|161:202,1,89.9999972534181,8|2,0:2|0:3,0:0:0:0:
206,273,164177,6,0,P|252:281|305:313,1,89.9999972534181,0|2,1:2|0:3,0:2:0:0:
374,247,164665,2,0,P|410:219|425:167,1,89.9999972534181,8|2,0:2|0:3,0:0:0:0:
360,102,165153,5,4,0:2:0:0:
265,130,165396,1,2,0:3:0:0:
170,160,165640,1,0,1:2:0:0:
82,114,165884,6,0,L|73:228,1,89.9999972534181,8|0,0:2|1:2,0:2:0:0:
147,271,166372,2,0,L|173:378,1,89.9999972534181,2|0,0:3|1:2,0:2:0:0:
263,328,166860,22,0,P|337:365|450:370,1,179.999994506836,8|0,0:2|1:2,0:2:0:0:
496,295,167592,1,8,0:2:0:0:
420,232,167835,1,8,0:2:0:0:
376,142,168079,2,0,P|388:66|406:35,1,89.9999972534181,0|0,1:2|1:2,0:0:0:0:
476,0,168567,6,0,L|496:152,1,134.999995880127,12|0,0:2|0:2,0:2:0:0:
472,169,169055,6,0,P|397:170|324:187,1,150,4|10,1:2|0:2,0:2:0:0:
187,278,170031,6,0,B|134:295|134:295|83:269,2,112.5,0|2|2,1:2|0:2|0:2,0:2:0:0:
200,113,171250,22,0,L|293:126,1,75,2|8,0:2|0:2,0:2:0:0:
355,103,171738,1,2,0:2:0:0:
430,139,171982,2,0,P|475:211|486:254,1,112.5,0|0,0:2|0:2,0:0:0:0:
465,275,172470,2,0,P|434:341|378:382,1,112.5,8|2,0:2|0:3,0:2:0:0:
365,362,172957,22,0,P|308:340|213:321,1,150,0|10,1:2|0:2,0:2:0:0:
106,206,173933,6,0,B|72:162|72:162|89:92,2,112.5,0|2|2,1:2|0:2|0:2,0:2:0:0:
185,233,174909,54,0,L|282:207,1,75,0|2,1:2|0:2,0:2:0:0:
337,190,175396,1,8,0:2:0:0:
394,130,175640,1,2,0:2:0:0:
373,51,175884,6,0,L|280:28,1,75,2|2,1:2|0:2,0:2:0:0:
223,0,176372,2,0,L|161:12,2,37.5,8|0|0,0:2|0:0|0:0,0:2:0:0:
227,83,176860,22,0,P|198:188|99:232,1,225,4|0,0:2|0:2,0:2:0:0:
47,297,177835,2,0,P|78:344|130:361,1,112.5,0|0,1:2|0:0,0:2:0:0:
168,344,178323,6,0,P|277:331|328:228,2,225,8|0|0,0:2|0:2|1:2,0:2:0:0:
132,270,180031,5,0,1:2:0:0:
173,199,180275,5,0,1:2:0:0:
256,192,180518,5,8,0:2:0:0:
