osu file format v14

[General]
AudioFilename: audio.ogg
AudioLeadIn: 0
PreviewTime: 75275
Countdown: 0
SampleSet: Soft
StackLeniency: 0.7
Mode: 0
LetterboxInBreaks: 0
WidescreenStoryboard: 0

[Editor]
Bookmarks: 21739,39300,54910,58812,99544,117349,121251,137836,149300,153446,169056,180519
DistanceSpacing: 0.5
BeatDivisor: 4
GridSize: 32
TimelineZoom: 4.299998

[Metadata]
Title:Seiza ni Naretara (TV Size)
TitleUnicode:星座になれたら (TV Size)
Artist:kessoku band
ArtistUnicode:結束バンド
Creator:Mizunashi Akari
Version:LIVE at Shukasai (Insane)
Source:ぼっち・ざ・ろっく!
Tags:Bocchi the Rock ぼざろ If I could be a constellation live performance version 秀華祭 STARRY hitori gotou gotoh 後藤 ひとり kita ikuyo 喜多 郁代 nijika ijichi 伊地知 虹夏 ryou yamada 山田 リョウ za rokku bozaro japanese rock anime insert jasontime12345
BeatmapID:3961178
BeatmapSetID:1919446

[Difficulty]
HPDrainRate:9
CircleSize:4
OverallDifficulty:9
ApproachRate:9
SliderMultiplier:2
SliderTickRate:1

[Events]
//Background and Video events
0,0,"bg.PNG",0,0
Video,0,"video1.avi"
//Break Periods
2,86129,98324
2,137914,148699
//Storyboard Layer 0 (Background)
//Storyboard Layer 1 (Fail)
//Storyboard Layer 2 (Pass)
//Storyboard Layer 3 (Foreground)
//Storyboard Layer 4 (Overlay)
//Storyboard Sound Samples

[TimingPoints]
276,487.80487804878,4,2,1,50,1,0
35641,-100,4,2,1,40,0,0
41251,-100,4,2,1,30,0,0
47105,-100,4,2,1,50,0,0
54910,-100,4,2,1,60,0,0
58731,-1000,4,2,2,100,0,0
58751,-50,4,2,1,30,0,0
58812,-100,4,2,1,30,0,0
82958,-100,4,2,1,40,0,0
91007,-100,4,2,1,30,0,0
98324,-100,4,2,1,60,0,1
99544,-100,4,2,1,30,0,1
101251,-100,4,2,1,50,0,1
101739,-100,4,2,1,70,0,1
104422,-100,4,2,1,50,0,1
105641,-100,4,2,1,30,0,1
116129,-100,4,2,1,50,0,1
116861,-100,4,2,1,70,0,1
117349,-100,4,2,1,50,0,0
136373,-100,4,2,1,60,0,0
137836,487.80487804878,4,2,1,30,1,0
137836,-100,4,2,1,30,0,0
149299,-100,4,2,1,40,0,0
149543,-100,4,2,1,50,0,0
153446,-100,4,2,1,60,0,0
169055,-100,4,2,1,50,0,0
180640,-100,4,2,1,5,0,0

[Colours]
Combo1 : 233,194,235
Combo2 : 216,122,206
Combo3 : 112,133,207
Combo4 : 226,224,126
Combo5 : 213,128,128

[HitObjects]
434,363,2227,5,4,1:2:0:0:
53,289,2715,53,2,0:2:0:0:
89,278,2836,1,2,0:2:0:0:
51,207,2958,1,2,0:2:0:0:
59,180,3080,1,2,0:2:0:0:
1,121,3202,6,0,L|-18:64,1,50,2|0,1:3|0:2,0:2:0:0:
194,218,3568,54,0,L|186:267,1,50,2|0,1:3|0:2,0:2:0:0:
492,145,3934,6,0,L|516:79,1,50,2|0,1:3|0:2,0:2:0:0:
434,363,6129,53,4,1:2:0:0:
53,289,6617,5,2,0:2:0:0:
89,278,6738,1,2,0:2:0:0:
51,207,6860,1,2,0:2:0:0:
59,180,6982,1,2,0:2:0:0:
1,121,7104,54,0,L|-18:64,1,50,2|0,1:3|0:2,0:2:0:0:
194,218,7470,6,0,L|186:267,1,50,2|0,1:3|0:2,0:2:0:0:
462,326,7836,54,0,L|444:372,1,50,2|0,1:3|0:2,0:2:0:0:
435,378,9544,5,8,0:2:0:0:
430,365,9666,1,8,0:2:0:0:
425,355,9788,1,8,0:2:0:0:
420,345,9910,1,8,0:2:0:0:
460,277,10032,54,0,L|478:212,1,50,4|0,1:2|0:2,0:2:0:0:
177,308,10397,5,2,0:2:0:0:
106,348,10519,1,10,0:2:0:0:
85,339,10641,1,2,0:2:0:0:
109,263,10763,1,2,0:2:0:0:
100,242,10885,1,2,0:2:0:0:
160,185,11007,54,0,L|178:118,1,50,0|8,1:2|0:2,0:2:0:0:
0,324,11373,6,0,L|13:385,1,50,2|8,0:2|0:2,0:2:0:0:
340,218,11739,54,0,P|349:142|393:76,1,150,2|0,0:2|0:2,0:2:0:0:
458,6,12227,2,0,P|466:29|482:48,2,50,2|0|8,0:2|0:2|0:2,0:2:0:0:
264,82,12715,5,2,0:2:0:0:
267,64,12836,1,2,0:2:0:0:
195,22,12958,53,0,0:2:0:0:
98,6,13080,2,0,L|116:65,1,50,8|0,0:2|0:2,0:2:0:0:
105,178,13324,5,0,0:2:0:0:
12,157,13446,2,0,P|18:214|49:254,1,100,8|0,0:2|0:2,0:2:0:0:
212,287,13812,53,2,0:3:0:0:
95,352,13934,2,0,L|149:364,1,50,0|0,1:2|0:2,0:2:0:0:
491,316,14300,5,2,0:2:0:0:
408,314,14422,1,10,0:2:0:0:
388,291,14544,1,2,0:2:0:0:
456,238,14666,1,2,0:2:0:0:
448,210,14788,1,2,0:2:0:0:
510,147,14910,54,0,L|524:82,1,50,0|8,1:2|0:2,0:2:0:0:
295,227,15275,6,0,L|315:290,1,50,2|8,0:2|0:2,0:2:0:0:
48,332,15641,53,2,0:2:0:0:
68,361,15763,1,2,0:3:0:0:
135,309,15885,6,0,L|148:254,1,50,0|0,1:2|0:2,0:2:0:0:
81,196,16129,2,0,P|39:167|4:132,1,100,2|8,0:2|0:2,0:2:0:0:
262,28,16617,54,0,L|321:16,1,50,2|0,0:2|0:2,0:2:0:0:
197,102,16861,2,0,L|183:193,1,50,2|0,1:2|0:2,0:2:0:0:
364,248,17105,6,0,L|352:184,1,50,2|0,0:2|0:2,0:2:0:0:
489,29,17349,2,0,P|505:71|462:183,1,150,8|0,0:2|0:2,0:2:0:0:
464,168,17836,54,0,L|415:157,8,33.3333333333333,4|0|0|0|0|0|8|0|0,0:2|0:2|0:2|0:2|0:2|0:2|0:2|0:2|0:2,0:2:0:0:
351,240,18568,5,0,0:2:0:0:
275,217,18690,1,0,0:2:0:0:
184,247,18812,54,0,L|175:279,5,33.3333333333333,0|0|0|0|0|0,1:2|0:2|0:2|0:2|0:2|0:2,0:2:0:0:
16,205,19300,6,0,L|7:163,8,33.3333333333333,8|0|0|0|0|0|0|0|0,0:2|0:2|0:2|0:2|0:2|0:2|1:2|0:2|0:2,0:2:0:0:
79,294,20032,54,0,L|72:326,8,33.3333333333333,0|0|0|8|0|0|0|0|0,0:2|0:2|0:2|0:2|0:2|0:2|0:2|0:2|0:2,0:2:0:0:
160,251,20763,6,0,P|313:241|447:340,1,300,0|0,1:2|0:3,0:2:0:0:
512,337,21617,53,2,0:2:0:0:
510,322,21861,1,2,0:2:0:0:
480,245,22105,1,2,0:2:0:0:
489,222,22227,1,10,0:2:0:0:
499,199,22349,1,2,0:2:0:0:
459,128,22593,5,2,1:2:0:0:
451,105,22715,1,2,0:2:0:0:
382,40,22958,1,2,0:2:0:0:
378,59,23080,1,2,0:2:0:0:
404,378,25519,53,2,0:2:0:0:
399,359,25763,1,2,0:2:0:0:
337,303,26007,1,2,0:2:0:0:
339,281,26129,1,10,0:2:0:0:
344,259,26251,1,2,0:2:0:0:
351,237,26373,1,2,0:2:0:0:
254,169,26617,5,2,0:2:0:0:
307,88,26861,1,2,1:2:0:0:
312,106,26983,1,2,0:2:0:0:
302,384,29422,53,2,0:2:0:0:
294,370,29666,1,2,0:2:0:0:
236,311,29910,1,2,0:2:0:0:
235,287,30032,1,10,0:2:0:0:
236,262,30154,1,2,0:2:0:0:
171,212,30398,5,2,1:2:0:0:
155,194,30520,1,2,0:2:0:0:
66,161,30763,1,2,0:2:0:0:
70,180,30885,1,2,0:2:0:0:
215,384,33324,53,2,0:2:0:0:
210,365,33568,1,2,0:2:0:0:
127,366,33812,1,2,0:2:0:0:
129,344,33934,1,10,0:2:0:0:
134,322,34056,1,2,0:2:0:0:
141,300,34178,1,2,0:2:0:0:
58,218,34422,5,2,0:2:0:0:
0,275,34666,1,2,1:2:0:0:
5,293,34788,1,2,0:2:0:0:
0,384,35641,54,0,P|61:362|124:355,1,100,2|8,0:2|0:2,0:2:0:0:
223,167,36129,6,0,P|287:138|330:194,1,150,2|8,0:2|0:2,0:2:0:0:
441,159,36617,2,0,L|460:56,1,100,2|8,0:2|0:2,0:2:0:0:
512,347,37105,53,2,0:2:0:0:
451,321,37227,1,2,0:2:0:0:
403,334,37349,1,2,1:2:0:0:
374,359,37471,1,2,0:2:0:0:
364,380,37593,1,2,0:2:0:0:
229,213,37836,5,10,0:2:0:0:
222,196,37958,1,2,0:2:0:0:
271,129,38080,2,0,P|350:117|498:267,1,300,2|0,0:2|3:2,0:2:0:0:
19,384,39300,53,2,1:2:0:0:
34,379,39422,1,2,0:2:0:0:
50,364,39544,1,2,0:2:0:0:
66,338,39666,1,2,0:2:0:0:
81,304,39788,1,10,0:2:0:0:
107,259,39910,1,2,0:2:0:0:
140,223,40032,1,2,0:2:0:0:
187,207,40154,1,2,1:2:0:0:
234,215,40275,1,2,0:2:0:0:
265,242,40397,1,10,0:2:0:0:
280,266,40519,1,2,1:2:0:0:
295,288,40641,1,2,0:2:0:0:
310,298,40763,2,2,P|341:306|383:311,3,50,10|2|2|2,0:2|0:2|0:2|0:2,0:2:0:0:
501,206,41251,5,2,1:2:0:0:
486,201,41373,1,2,0:2:0:0:
470,186,41495,1,2,0:2:0:0:
454,160,41617,1,2,0:2:0:0:
439,126,41739,1,10,0:2:0:0:
413,81,41861,1,2,0:2:0:0:
380,45,41983,1,2,0:2:0:0:
333,29,42105,1,2,1:2:0:0:
286,37,42226,1,2,0:2:0:0:
255,64,42348,1,10,0:2:0:0:
240,88,42470,1,2,1:2:0:0:
225,110,42592,1,2,0:2:0:0:
210,120,42714,2,2,P|179:128|137:133,3,50,10|2|2|2,0:2|0:2|0:2|0:2,0:2:0:0:
37,54,43202,53,2,1:2:0:0:
44,64,43324,1,2,0:2:0:0:
51,83,43446,1,2,0:2:0:0:
47,115,43568,1,2,0:2:0:0:
24,154,43690,1,10,0:2:0:0:
8,201,43812,1,2,0:2:0:0:
26,250,43934,1,2,0:2:0:0:
69,284,44056,1,2,1:2:0:0:
124,285,44178,1,2,0:2:0:0:
154,271,44300,1,10,0:2:0:0:
174,243,44422,1,2,1:2:0:0:
177,217,44544,1,2,0:2:0:0:
169,202,44666,2,2,P|139:192|99:187,3,50,10|2|2|2,0:2|0:2|0:2|0:2,0:2:0:0:
258,242,45154,5,2,1:2:0:0:
265,232,45276,1,2,0:2:0:0:
272,213,45398,1,2,0:2:0:0:
268,181,45520,1,2,0:2:0:0:
245,142,45642,1,10,0:2:0:0:
229,95,45764,1,2,0:2:0:0:
247,46,45886,1,2,0:2:0:0:
290,12,46008,1,2,1:2:0:0:
345,11,46130,1,2,0:2:0:0:
375,25,46252,1,10,0:2:0:0:
395,53,46374,1,2,1:2:0:0:
398,79,46496,1,2,0:2:0:0:
390,94,46618,2,8,P|360:104|320:109,3,50,8|8|0|2,0:2|0:2|1:2|0:2,0:2:0:0:
478,143,47105,53,2,1:2:0:0:
463,148,47227,1,2,0:2:0:0:
447,163,47349,1,2,0:2:0:0:
431,189,47471,1,2,0:2:0:0:
416,223,47593,1,10,0:2:0:0:
390,268,47715,1,2,0:2:0:0:
357,304,47837,1,2,0:2:0:0:
310,320,47959,1,2,1:2:0:0:
263,312,48080,1,2,0:2:0:0:
232,285,48202,1,10,0:2:0:0:
217,261,48324,1,2,1:2:0:0:
202,239,48446,1,2,0:2:0:0:
187,229,48568,2,2,P|156:221|114:216,3,50,10|2|2|2,0:2|0:2|0:2|0:2,0:2:0:0:
0,260,49056,5,2,1:2:0:0:
15,255,49178,1,2,0:2:0:0:
31,240,49300,1,2,0:2:0:0:
47,214,49422,1,2,0:2:0:0:
62,180,49544,1,10,0:2:0:0:
88,135,49666,1,2,0:2:0:0:
135,92,49788,1,2,0:2:0:0:
203,93,49910,1,2,1:2:0:0:
257,138,50031,1,2,0:2:0:0:
254,214,50153,1,10,0:2:0:0:
191,259,50275,54,0,P|273:230|397:205,1,200,2|2,1:2|3:2,0:2:0:0:
474,151,51007,6,0,L|489:78,1,50,2|0,1:2|0:2,0:2:0:0:
311,306,51251,54,0,L|291:383,1,50,2|0,1:2|0:2,0:2:0:0:
45,150,51739,6,0,L|7:-15,1,150,6|0,0:2|0:2,0:2:0:0:
201,228,52227,54,0,L|221:304,1,50,2|0,0:2|0:2,0:2:0:0:
299,315,52471,1,0,1:2:0:0:
379,97,52715,6,0,L|406:-14,1,100,4|0,0:2|0:0,0:2:0:0:
58,268,53202,54,0,L|31:157,1,100,0|0,1:2|0:0,0:2:0:0:
398,382,53690,6,0,L|430:222,1,150,4|8,0:2|0:2,0:2:0:0:
399,156,54178,53,0,1:2:0:0:
276,134,54300,1,0,0:2:0:0:
345,220,54422,2,0,P|265:233|181:262,1,150,8|0,0:2|0:2,0:2:0:0:
177,372,54910,6,0,L|102:355,1,50,4|0,1:2|0:2,0:2:0:0:
23,223,55154,2,0,L|33:271,1,50,2|0,0:3|0:2,0:2:0:0:
48,348,55397,1,8,0:2:0:0:
272,132,55641,2,0,P|345:145|417:168,1,150,2|8,0:3|0:2,0:2:0:0:
483,129,56129,54,0,L|492:79,1,50,2|0,0:3|0:2,0:2:0:0:
512,0,56373,1,8,0:2:0:0:
398,75,56617,2,0,L|332:59,1,50,2|0,0:3|0:2,0:2:0:0:
174,25,56861,6,0,L|189:106,1,50,0|0,1:2|0:2,0:2:0:0:
124,161,57105,2,0,P|34:150|-3:89,1,150,2|0,0:3|0:2,0:2:0:0:
135,173,57593,2,0,L|201:186,1,50,2|0,0:3|0:2,0:2:0:0:
301,288,57836,54,0,L|364:270,1,50,0|0,1:2|0:0,0:0:0:0:
506,384,58080,2,0,L|433:366,1,50,2|0,0:3|0:2,0:2:0:0:
376,349,58324,1,8,0:2:0:0:
505,276,58568,2,0,L|491:201,1,50,2|0,0:3|0:2,0:2:0:0:
288,373,58731,6,0,L|287:374,1,1.25,2|0,2:1|0:0,0:0:0:0:
262,217,99544,54,2,B|268:220|268:220|314:222|314:222|321:229|321:229|432:245|432:245|439:243|439:243|508:270,1,250,0|0,1:2|0:2,0:1:0:0:
477,143,100275,6,0,P|451:159|416:170,1,50,0|0,1:2|0:2,0:1:0:0:
463,382,100519,2,2,B|448:308|331:291|317:364|356:396,1,200,0|0,1:2|0:0,0:1:0:0:
154,374,101251,54,0,P|82:352|8:340,1,150,0|0,1:2|0:2,0:1:0:0:
0,330,101739,6,0,L|62:318,1,50,0|0,1:2|0:2,0:1:0:0:
200,149,101983,2,0,P|172:135|129:136,1,50,2|0,0:3|0:2,0:1:0:0:
83,195,102227,2,0,P|82:218|102:259,1,50,8|0,0:2|0:2,0:1:0:0:
295,366,102471,54,2,B|390:353|442:313|496:258|400:339|291:356,1,300,2|0,0:3|0:0,0:1:0:0:
23,123,103446,6,2,B|-28:92|-7:-6|74:47|74:47,1,150,2|0,0:3|0:2,0:1:0:0:
120,120,103934,54,0,P|108:144|101:193,1,50,2|0,0:3|0:2,0:1:0:0:
328,271,104178,2,0,P|321:246|310:224,1,50,8|0,0:2|0:2,0:1:0:0:
419,271,104422,6,2,B|470:302|449:400|368:347|368:347,1,150,2|0,0:3|0:2,0:1:0:0:
291,361,104910,2,2,P|207:341|73:325,1,200,2|2,0:3|0:3,0:1:0:0:
15,76,105641,54,2,B|86:67|134:2|134:2|147:63|222:90,1,250,0|0,0:2|0:2,0:1:0:0:
99,176,106373,6,0,P|118:130|135:111,1,50,2|8,0:3|0:0,0:0:0:0:
270,26,106617,2,2,B|315:28|361:58|361:58|374:27|404:9,1,150,0|0,1:2|0:2,0:1:0:0:
446,87,107105,54,2,P|445:108|436:136,1,50,8|0,0:2|0:2,0:2:0:0:
197,165,107349,2,2,P|167:240|170:320,1,150,2|0,0:3|0:2,0:1:0:0:
80,358,107836,6,0,P|51:354|23:341,1,50,2|0,0:3|0:2,0:1:0:0:
442,302,108080,2,0,P|471:306|499:319,1,50,8|0,0:2|0:2,0:1:0:0:
260,360,108324,54,2,P|296:287|393:281,1,150,2|0,0:3|0:2,0:1:0:0:
472,212,108812,2,2,P|406:202|376:102,1,150,2|0,0:3|0:2,0:1:0:0:
429,72,109300,2,2,P|442:47|438:12,1,50,2|0,0:3|0:2,0:2:0:0:
186,122,109544,6,2,L|285:106,1,100,0|2,1:2|0:3,0:1:0:0:
108,333,109910,54,2,L|-7:352,1,100,0|0,0:2|0:2,0:1:0:0:
390,221,110275,6,2,L|489:205,1,100,2|0,0:3|1:2,0:1:0:0:
103,48,110641,54,2,L|-12:67,1,100,0|0,0:2|0:2,0:1:0:0:
251,315,111007,6,2,L|350:299,1,100,8|2,0:2|0:3,0:1:0:0:
187,210,111495,54,0,P|180:233|178:260,1,50,0|0,0:2|0:2,0:1:0:0:
488,351,111739,2,2,P|508:263|512:188,1,150,2|0,0:3|0:2,0:1:0:0:
338,374,112227,6,2,P|347:208|424:27,1,350,2|0,0:3|0:2,0:1:0:0:
433,36,113202,54,2,L|472:45,5,33.3333333333333,2|2|2|2|2|2,1:2|0:2|0:2|0:2|0:2|0:2,0:2:0:0:
354,80,113690,6,2,L|315:89,2,33.3333333333333,2|2|2,0:2|0:2|0:2,0:2:0:0:
451,148,113934,2,2,L|460:179,2,33.3333333333333,10|2|2,0:2|0:2|0:2,0:2:0:0:
378,191,114178,2,2,L|367:235,2,33.3333333333333,2|2|2,0:2|0:2|0:2,0:2:0:0:
280,197,114422,2,2,L|264:233,2,33.3333333333333,2|2|2,1:2|0:2|0:2,0:2:0:0:
327,299,114666,54,2,L|286:324,2,33.3333333333333,2|2|2,0:2|0:2|0:2,0:2:0:0:
191,177,114910,2,2,L|153:169,2,33.3333333333333,10|2|2,0:2|0:2|0:2,0:2:0:0:
90,26,115154,6,2,L|122:18,2,33.3333333333333,6|2|2,1:2|0:2|0:2,0:2:0:0:
39,204,115397,54,2,L|0:213,2,33.3333333333333,2|2|2,1:2|0:2|0:2,0:2:0:0:
140,273,115641,6,2,L|172:265,2,33.3333333333333,10|2|2,0:2|0:2|0:2,0:2:0:0:
54,331,115885,53,10,0:2:0:0:
62,336,115967,5,2,0:2:0:0:
63,345,116048,53,2,0:2:0:0:
71,350,116129,6,2,P|141:362|228:388,1,150,8|0,0:2|0:2,0:1:0:0:
291,364,116617,53,0,1:2:0:0:
323,291,116739,1,0,1:2:0:0:
259,248,116861,1,0,1:2:0:0:
182,234,116983,1,0,1:2:0:0:
220,166,117105,1,0,1:2:0:0:
293,136,117227,1,0,1:2:0:0:
256,59,117349,5,4,1:2:0:0:
256,57,121251,54,0,L|324:41,1,50,0|0,1:2|0:2,0:2:0:0:
372,129,121495,2,0,L|440:108,1,50,2|0,0:3|0:2,0:2:0:0:
304,177,121739,2,0,L|369:158,1,50,8|0,0:2|0:2,0:2:0:0:
470,326,121983,6,0,L|480:262,1,50,2|0,0:3|1:2,0:2:0:0:
354,374,122227,2,0,L|363:324,1,50,0|8,1:2|0:2,0:2:0:0:
330,307,122471,2,0,L|344:241,1,50,2|0,1:3|0:2,0:2:0:0:
194,362,122715,54,0,L|176:289,1,50,8|0,0:2|0:2,0:2:0:0:
34,251,122958,2,0,L|51:327,1,50,2|0,0:3|0:2,0:2:0:0:
185,200,123202,6,0,L|121:185,1,50,0|0,1:2|0:2,0:2:0:0:
75,87,123446,2,0,L|17:73,1,50,2|0,0:3|0:2,0:2:0:0:
170,82,123690,2,0,L|106:68,1,50,8|0,0:2|0:2,0:2:0:0:
283,9,123934,54,0,L|297:76,1,50,2|8,1:3|1:2,0:2:0:0:
436,87,124178,2,0,L|450:154,1,50,0|8,0:2|0:2,0:2:0:0:
361,147,124422,2,0,L|375:214,1,50,2|0,1:3|1:2,0:2:0:0:
504,378,124666,6,0,L|516:302,1,50,8|8,0:2|0:2,0:2:0:0:
349,274,124910,2,0,L|341:323,1,50,2|0,1:3|1:2,0:2:0:0:
174,221,125154,54,0,L|102:232,1,50,4|0,0:2|0:2,0:2:0:0:
67,307,125397,2,0,L|-5:318,1,50,2|0,0:3|0:2,0:2:0:0:
147,331,125641,2,0,L|75:342,1,50,8|0,0:2|0:2,0:2:0:0:
53,120,125885,6,0,L|35:44,1,50,2|0,0:3|1:2,0:2:0:0:
185,140,126129,2,0,L|167:64,1,50,0|8,0:2|0:2,0:2:0:0:
202,75,126373,2,0,L|184:-1,1,50,2|0,1:3|0:2,0:2:0:0:
357,0,126617,54,0,L|346:75,1,50,8|0,0:2|0:2,0:2:0:0:
443,150,126861,2,0,L|450:100,1,50,2|0,0:3|0:2,0:2:0:0:
290,230,127105,6,0,L|302:303,1,50,0|0,1:2|0:2,0:2:0:0:
416,329,127349,2,0,L|428:402,1,50,2|0,0:3|0:2,0:2:0:0:
443,271,127593,2,0,L|455:344,1,50,8|0,0:2|0:2,0:2:0:0:
219,369,127836,54,0,L|141:349,1,50,2|0,0:3|1:2,0:2:0:0:
131,255,128080,2,0,L|53:235,1,50,0|8,0:2|0:2,0:2:0:0:
48,314,128324,2,0,L|-30:294,1,50,2|0,0:3|0:2,0:2:0:0:
77,140,128568,6,0,L|64:67,1,50,8|0,0:2|0:2,0:2:0:0:
183,18,128812,2,0,L|174:67,1,50,2|0,0:3|0:2,0:2:0:0:
327,145,129056,54,0,L|399:134,1,50,0|0,1:2|0:2,0:2:0:0:
441,55,129300,2,0,L|513:44,1,50,2|0,0:3|0:2,0:2:0:0:
379,36,129544,2,0,L|451:25,1,50,8|0,0:2|0:2,0:2:0:0:
374,240,129788,6,0,L|302:229,1,50,2|0,0:3|1:2,0:2:0:0:
468,351,130032,2,0,L|396:340,1,50,0|8,0:2|0:2,0:2:0:0:
405,374,130275,2,0,L|333:363,1,50,2|0,1:3|0:2,0:2:0:0:
174,236,130519,54,0,L|186:308,1,50,8|0,0:2|0:2,0:2:0:0:
48,363,130763,2,0,L|56:313,1,50,2|0,0:3|0:2,0:2:0:0:
14,89,131007,6,0,L|23:160,1,50,0|0,1:2|0:2,0:2:0:0:
162,58,131251,2,0,L|171:129,1,50,2|0,0:3|0:2,0:2:0:0:
122,3,131495,2,0,L|131:74,1,50,8|0,0:2|0:2,0:2:0:0:
318,126,131739,54,0,L|330:54,1,50,2|0,0:3|1:2,0:2:0:0:
479,167,131983,2,0,L|491:95,1,50,0|8,1:2|0:2,0:2:0:0:
422,83,132227,2,0,L|434:11,1,50,2|0,1:3|1:2,0:2:0:0:
325,238,132471,6,0,L|337:310,1,50,8|0,0:2|0:2,0:2:0:0:
450,384,132715,2,0,L|462:312,1,50,8|0,0:2|1:2,0:2:0:0:
472,250,132958,53,4,1:2:0:0:
182,48,133202,2,0,P|124:26|68:18,1,100,8|0,0:2|0:2,0:2:0:0:
403,158,133690,2,0,P|451:119|486:74,1,100,4|0,1:2|0:2,0:2:0:0:
196,282,134178,2,0,P|205:343|227:395,1,100,0|8,1:2|0:2,0:2:0:0:
16,374,134666,6,0,L|-12:293,1,50,8|0,0:2|0:2,0:2:0:0:
216,279,135154,54,0,L|208:219,1,50,8|0,0:2|0:2,0:2:0:0:
452,256,135641,6,0,L|463:196,1,50,12|0,0:2|0:2,0:2:0:0:
45,53,136129,53,2,1:2:0:0:
0,118,136373,6,0,B|166:6|390:45|390:45|435:77|435:77|480:30|480:30|456:75,1,550,12|0,0:2|0:2,0:2:0:0:
78,273,149299,53,2,0:2:0:0:
160,227,149543,2,0,P|187:234|223:252,1,50,8|0,0:2|0:2,0:2:0:0:
388,280,149787,2,0,P|409:301|434:344,1,50,8|0,0:2|0:2,0:2:0:0:
382,384,150031,1,0,1:2:0:0:
304,375,150275,6,0,P|290:347|280:312,1,50,12|0,0:2|0:2,0:2:0:0:
259,176,150518,2,0,P|268:146|292:106,1,50,0|0,0:2|0:2,0:2:0:0:
397,48,150762,2,0,P|443:25|509:13,1,100,8|0,0:2|0:2,0:2:0:0:
106,278,151250,54,0,P|89:202|64:131,1,150,12|0,0:2|0:2,0:2:0:0:
99,49,151738,2,0,P|124:61|170:77,1,50,0|0,1:2|0:2,0:2:0:0:
366,284,151982,6,0,P|338:288|313:296,1,50,0|0,1:2|0:2,0:2:0:0:
219,317,152226,2,0,P|244:253|273:163,1,150,12|0,0:2|0:2,0:2:0:0:
352,145,152714,53,8,0:2:0:0:
315,62,152835,1,8,0:2:0:0:
432,173,152957,2,0,P|448:93|472:15,1,150,8|8,0:2|0:2,0:2:0:0:
462,19,153445,6,0,L|391:5,1,50,0|0,1:2|0:2,0:2:0:0:
140,112,153689,2,0,L|158:185,1,50,2|0,0:3|0:2,0:2:0:0:
210,76,153933,1,8,0:2:0:0:
50,18,154177,2,0,L|39:78,1,50,2|8,0:3|0:2,0:2:0:0:
58,297,154421,54,0,L|73:230,1,50,0|0,1:2|0:2,0:2:0:0:
251,144,154665,2,0,L|324:129,1,50,2|0,0:3|0:2,0:2:0:0:
217,68,154909,1,8,0:2:0:0:
353,232,155153,2,0,L|427:253,1,50,2|0,0:3|0:2,0:2:0:0:
509,122,155396,6,0,L|490:34,1,50,0|0,1:2|1:2,0:2:0:0:
484,255,155640,2,0,L|465:167,1,50,2|0,0:2|0:2,0:2:0:0:
448,384,155884,2,0,L|429:296,1,50,8|0,0:2|0:2,0:2:0:0:
218,223,156128,54,0,L|194:383,1,150,2|8,0:3|0:2,0:2:0:0:
3,305,156616,6,0,L|76:291,1,50,2|0,1:3|0:2,0:2:0:0:
85,208,156860,2,0,L|158:194,1,50,8|0,0:2|0:2,0:2:0:0:
181,115,157104,2,0,L|254:101,1,50,2|0,0:3|0:2,0:2:0:0:
64,33,157348,54,0,L|50:121,1,50,0|8,1:2|0:2,0:2:0:0:
254,231,157592,2,0,L|316:243,1,50,2|0,0:3|0:2,0:2:0:0:
371,190,157835,1,8,0:2:0:0:
462,334,158079,6,0,L|452:383,1,50,2|0,0:3|0:2,0:2:0:0:
455,195,158323,2,0,L|445:244,1,50,0|0,0:2|0:2,0:2:0:0:
442,58,158567,2,0,L|432:107,1,50,12|0,0:2|0:2,0:2:0:0:
297,155,158811,54,0,L|309:90,1,50,0|0,1:2|1:2,0:2:0:0:
263,17,159055,1,0,1:2:0:0:
263,17,159177,1,0,1:2:0:0:
180,36,159299,6,0,L|195:108,1,50,4|0,0:2|0:0,0:2:0:0:
93,124,159543,1,0,0:2:0:0:
93,124,159665,1,0,1:2:0:0:
15,87,159787,54,0,L|4:135,1,50,12|0,0:2|0:0,0:2:0:0:
77,212,160031,1,0,0:2:0:0:
77,212,160153,1,0,1:2:0:0:
153,190,160275,6,0,L|178:312,1,100,4|0,1:2|0:2,0:2:0:0:
433,381,160762,2,0,P|477:331|470:247,1,150,12|0,0:2|0:2,0:2:0:0:
457,246,161250,54,0,L|380:263,1,50,4|0,1:2|0:2,0:2:0:0:
169,85,161494,2,0,L|184:7,1,50,2|0,0:3|0:2,0:2:0:0:
243,125,161738,1,8,0:2:0:0:
43,28,161982,2,0,L|56:105,1,50,2|0,0:3|0:2,0:2:0:0:
155,266,162226,6,0,L|4:240,1,150,0|0,1:2|0:2,0:2:0:0:
159,357,162714,2,0,L|221:341,1,50,8|0,0:2|0:2,0:2:0:0:
356,185,162957,2,0,L|342:266,1,50,2|0,0:2|0:2,0:2:0:0:
483,380,163201,54,0,L|468:303,1,50,0|8,1:2|0:2,0:2:0:0:
201,171,163445,2,0,L|151:161,1,50,2|0,0:3|0:2,0:2:0:0:
151,250,163689,1,8,0:2:0:0:
463,75,163933,2,0,L|529:66,1,50,2|0,0:3|0:2,0:2:0:0:
420,178,164177,6,0,L|340:167,1,50,0|0,1:2|0:2,0:2:0:0:
226,31,164421,2,0,L|146:20,1,50,2|0,0:3|0:2,0:2:0:0:
99,67,164665,53,8,0:2:0:0:
15,2,164787,1,0,0:2:0:0:
57,136,164909,2,0,L|46:208,1,50,2|0,0:3|0:2,0:2:0:0:
32,264,165153,5,4,0:2:0:0:
381,372,165396,2,0,L|506:355,1,100,2|0,0:3|1:2,0:2:0:0:
23,363,165884,54,0,L|144:350,1,100,8|0,0:2|1:2,0:2:0:0:
15,373,166372,2,0,L|136:360,1,100,2|0,0:3|1:2,0:2:0:0:
437,33,166860,6,0,P|409:46|370:170,1,150,8|0,0:2|0:2,0:2:0:0:
432,187,167348,2,8,L|504:175,1,50,8|8,0:2|1:2,0:2:0:0:
144,57,167592,2,8,L|216:45,1,50,8|8,0:2|0:2,0:2:0:0:
54,140,167835,2,8,L|126:128,1,50,8|0,0:2|0:2,0:2:0:0:
315,256,168079,2,0,L|387:244,1,50,0|0,1:2|1:2,0:0:0:0:
434,177,168323,1,0,1:2:0:0:
432,187,168445,1,0,1:2:0:0:
482,378,168567,54,0,P|515:316|466:266,1,150,12|0,0:2|0:2,0:2:0:0:
400,330,169055,6,0,L|389:388,1,50,4|0,1:2|0:2,0:2:0:0:
313,377,169299,1,0,0:0:0:0:
303,347,169421,1,2,0:2:0:0:
234,279,169543,53,10,0:2:0:0:
202,312,169665,1,2,0:2:0:0:
120,257,169787,1,2,0:2:0:0:
129,229,169909,1,2,0:2:0:0:
62,156,170031,6,0,L|43:99,1,50,0|8,1:2|0:2,0:2:0:0:
90,0,170275,1,0,0:2:0:0:
179,27,170396,54,0,L|171:76,1,50,2|8,0:2|0:2,0:2:0:0:
250,165,170640,1,0,0:2:0:0:
333,139,170762,6,0,P|366:60|402:-1,1,150,2|0,0:2|0:2,0:2:0:0:
473,23,171250,2,0,L|487:87,1,50,2|0,0:2|0:2,0:2:0:0:
392,203,171494,1,8,0:2:0:0:
389,212,171616,1,0,0:2:0:0:
453,258,171738,1,2,0:2:0:0:
425,333,171860,1,2,0:2:0:0:
352,346,171982,53,0,0:2:0:0:
262,290,172104,2,0,L|253:238,1,50,8|0,0:2|0:2,0:2:0:0:
108,187,172348,5,0,0:2:0:0:
12,233,172470,2,0,P|-6:280|10:351,1,100,8|0,0:2|0:2,0:2:0:0:
177,285,172835,53,2,0:3:0:0:
75,367,172957,2,0,L|122:381,1,50,0|0,1:2|0:2,0:2:0:0:
242,366,173201,1,0,0:0:0:0:
250,382,173323,1,2,0:2:0:0:
345,313,173445,5,10,0:2:0:0:
313,292,173567,1,2,0:2:0:0:
375,215,173689,1,2,0:2:0:0:
401,210,173811,1,2,0:2:0:0:
478,144,173933,54,0,L|497:87,1,50,0|8,1:2|0:2,0:2:0:0:
419,3,174177,1,0,0:2:0:0:
340,33,174299,6,0,L|336:84,1,50,2|8,0:2|0:2,0:2:0:0:
262,190,174543,1,0,0:2:0:0:
177,214,174665,54,0,L|166:165,1,50,2|2,0:2|0:3,0:0:0:0:
40,364,174909,6,0,L|53:315,1,50,0|0,1:2|0:2,0:2:0:0:
138,302,175153,2,0,P|217:325|286:371,1,150,2|0,0:2|0:0,0:2:0:0:
357,369,175640,54,0,L|433:352,1,50,2|0,0:2|0:2,0:2:0:0:
499,208,175884,2,0,L|487:279,1,50,2|0,1:2|0:2,0:2:0:0:
311,135,176128,6,0,L|302:86,1,50,2|0,0:2|0:2,0:2:0:0:
211,219,176372,2,0,P|166:159|161:85,1,150,8|0,0:2|0:2,0:2:0:0:
148,76,176860,54,0,L|99:67,8,33.3333333333333,4|0|0|0|0|0|8|0|0,0:2|0:2|0:2|0:2|0:2|0:2|0:2|0:2|0:2,0:2:0:0:
138,211,177592,5,0,0:2:0:0:
84,144,177714,1,0,0:2:0:0:
10,172,177835,54,0,L|1:204,5,33.3333333333333,0|0|0|0|0|0,1:2|0:2|0:2|0:2|0:2|0:2,0:2:0:0:
154,321,178323,6,0,L|145:279,8,33.3333333333333,8|0|0|0|0|0|0|0|0,0:2|0:2|0:2|0:2|0:2|0:2|1:2|0:2|0:2,0:2:0:0:
276,319,179055,54,0,L|269:351,8,33.3333333333333,0|0|0|8|0|0|0|0|0,0:2|0:2|0:2|0:2|0:2|0:2|0:2|0:2|0:2,0:2:0:0:
348,382,179787,5,0,1:2:0:0:
220,252,180031,1,0,1:2:0:0:
33,349,180275,1,0,1:2:0:0:
142,66,180518,53,8,0:2:0:0:
256,192,180640,12,0,181738,0:2:0:0:
