osu file format v14

[General]
AudioFilename: audio.ogg
AudioLeadIn: 0
PreviewTime: 75275
Countdown: 0
SampleSet: Soft
StackLeniency: 0.7
Mode: 0
LetterboxInBreaks: 0
WidescreenStoryboard: 1

[Editor]
Bookmarks: 21739,39300,54910,58812,99544,117349,121251,137836,149300,153446,169056,180519
DistanceSpacing: 0.5
BeatDivisor: 4
GridSize: 32
TimelineZoom: 5.999997

[Metadata]
Title:Seiza ni Naretara (TV Size)
TitleUnicode:星座になれたら (TV Size)
Artist:kessoku band
ArtistUnicode:結束バンド
Creator:Mizunashi Akari
Version:LIVE at Shukasai (Hard)
Source:ぼっち・ざ・ろっく!
Tags:Bocchi the Rock ぼざろ If I could be a constellation live performance version 秀華祭 STARRY hitori gotou gotoh 後藤 ひとり kita ikuyo 喜多 郁代 nijika ijichi 伊地知 虹夏 ryou yamada 山田 リョウ za rokku bozaro japanese rock anime insert jasontime12345
BeatmapID:3963406
BeatmapSetID:1919446

[Difficulty]
HPDrainRate:8
CircleSize:3.5
OverallDifficulty:8
ApproachRate:8
SliderMultiplier:2
SliderTickRate:1

[Events]
//Background and Video events
0,0,"bg.PNG",0,0
Video,0,"video1.avi"
//Break Periods
2,86129,98324
2,137914,148549
//Storyboard Layer 0 (Background)
//Storyboard Layer 1 (Fail)
//Storyboard Layer 2 (Pass)
//Storyboard Layer 3 (Foreground)
//Storyboard Layer 4 (Overlay)
//Storyboard Sound Samples

[TimingPoints]
276,487.80487804878,4,2,1,50,1,0
35641,-100,4,2,1,40,0,0
41251,-100,4,2,1,30,0,0
47105,-100,4,2,1,50,0,0
54910,-100,4,2,1,60,0,0
58731,-1000,4,2,2,100,0,0
58751,-50,4,2,1,30,0,0
58812,-100,4,2,1,30,0,0
82958,-100,4,2,1,40,0,0
91007,-100,4,2,1,30,0,0
98324,-100,4,2,1,60,0,1
99544,-100,4,2,1,30,0,1
101251,-100,4,2,1,50,0,1
101739,-100,4,2,1,70,0,1
104422,-100,4,2,1,50,0,1
105641,-100,4,2,1,30,0,1
116129,-100,4,2,1,50,0,1
116861,-100,4,2,1,70,0,1
117349,-100,4,2,1,50,0,0
136373,-100,4,2,1,60,0,0
137836,487.80487804878,4,2,1,30,1,0
137836,-100,4,2,1,30,0,0
149299,-100,4,2,1,40,0,0
149543,-100,4,2,1,50,0,0
153445,-100,4,2,1,60,0,0
169055,-100,4,2,1,50,0,0
180640,-100,4,2,1,5,0,0

[Colours]
Combo1 : 233,194,235
Combo2 : 216,122,206
Combo3 : 112,133,207
Combo4 : 226,224,126
Combo5 : 213,128,128

[HitObjects]
434,363,2227,5,4,1:2:0:0:
255,307,2715,53,2,0:2:0:0:
238,309,2836,1,2,0:2:0:0:
222,317,2958,1,2,0:2:0:0:
210,332,3080,1,2,0:2:0:0:
207,346,3202,6,0,L|152:328,1,50,2|0,1:3|0:2,0:2:0:0:
19,272,3568,54,0,L|33:327,1,50,2|0,1:3|0:2,0:2:0:0:
126,201,3934,6,0,L|150:135,1,50,2|0,1:3|0:2,0:2:0:0:
434,363,6129,53,4,1:2:0:0:
255,307,6617,5,2,0:2:0:0:
238,309,6738,1,2,0:2:0:0:
222,317,6860,1,2,0:2:0:0:
210,332,6982,1,2,0:2:0:0:
207,346,7104,54,0,L|152:328,1,50,2|0,1:3|0:2,0:2:0:0:
19,272,7470,6,0,L|33:327,1,50,2|0,1:3|0:2,0:2:0:0:
200,335,7836,54,0,L|182:381,1,50,2|0,1:3|0:2,0:2:0:0:
434,363,9544,5,8,0:2:0:0:
434,363,9666,1,8,0:2:0:0:
434,363,9788,1,8,0:2:0:0:
434,363,9910,1,8,0:2:0:0:
434,363,10032,54,0,L|369:342,1,50,4|0,1:2|0:2,0:2:0:0:
255,307,10519,5,10,0:2:0:0:
238,309,10640,1,2,0:2:0:0:
222,317,10762,1,2,0:2:0:0:
210,332,10884,1,2,0:2:0:0:
207,346,11006,54,0,L|152:328,1,50,0|8,1:2|0:2,0:2:0:0:
19,272,11373,6,0,L|32:333,1,50,2|8,0:2|0:2,0:2:0:0:
118,207,11739,54,0,P|127:131|171:65,1,150,2|0,0:2|0:2,0:2:0:0:
208,65,12227,2,0,P|217:33|286:24,2,100,2|8|2,0:2|0:2|0:2,0:2:0:0:
284,124,12958,5,0,0:2:0:0:
284,124,13080,2,0,L|336:139,1,50,8|0,0:2|0:2,0:2:0:0:
388,222,13324,53,0,0:2:0:0:
388,222,13446,2,0,P|331:228|291:259,1,100,8|0,0:2|0:2,0:2:0:0:
270,343,13934,6,0,L|321:357,2,50,0|0|0,1:2|0:2|0:0,0:2:0:0:
126,304,14422,53,10,0:2:0:0:
105,294,14544,1,2,0:2:0:0:
90,275,14666,1,2,0:2:0:0:
83,255,14788,1,2,0:2:0:0:
89,235,14910,6,0,L|102:168,1,50,0|8,1:2|0:2,0:2:0:0:
1,69,15275,54,0,L|21:132,1,50,2|8,0:2|0:2,0:2:0:0:
152,88,15641,5,2,0:2:0:0:
152,88,15763,1,2,0:3:0:0:
152,88,15885,2,0,L|165:33,1,50,0|0,1:2|0:2,0:2:0:0:
200,17,16129,2,0,P|235:52|276:80,1,100,2|8,0:2|0:2,0:2:0:0:
446,127,16617,53,2,0:2:0:0:
428,267,16861,2,0,L|414:358,1,50,2|0,1:2|0:2,0:2:0:0:
345,363,17105,2,0,L|329:282,1,50,2|0,0:2|0:2,0:2:0:0:
251,278,17349,2,0,P|209:262|97:305,1,150,8|0,0:2|0:2,0:2:0:0:
76,364,17836,6,0,L|27:353,7,33.3333333333333,4|0|0|0|0|0|8|0,0:2|0:2|0:2|0:2|0:2|0:2|0:2|0:2,0:2:0:0:
162,367,18568,54,0,L|221:359,1,50,0|0,0:2|0:2,0:0:0:0:
299,331,18812,6,0,L|334:338,4,33.3333333333333,0|0|0|0|0,1:2|0:2|0:2|0:2|0:2,0:2:0:0:
208,268,19300,54,0,L|215:230,7,33.3333333333333,8|0|0|0|0|0|0|0,0:2|0:2|0:2|0:2|0:2|0:2|1:2|0:2,0:2:0:0:
113,266,20032,6,0,L|121:298,7,33.3333333333333,0|0|0|8|0|0|0|0,0:2|0:2|0:2|0:2|0:2|0:2|0:2|0:2,0:2:0:0:
197,252,20763,54,0,P|339:237|482:329,1,300,0|0,1:2|0:3,0:2:0:0:
511,330,21617,5,2,0:2:0:0:
503,233,21861,1,2,0:2:0:0:
448,152,22105,1,2,0:2:0:0:
448,152,22227,1,10,0:2:0:0:
448,152,22349,1,2,0:2:0:0:
362,99,22593,53,2,1:2:0:0:
362,99,22715,2,0,P|307:68|254:53,1,100,2|2,0:2|0:2,0:0:0:0:
237,55,23080,1,2,0:2:0:0:
414,353,25519,5,2,0:2:0:0:
389,264,25763,1,2,0:2:0:0:
333,189,26007,1,2,0:2:0:0:
333,189,26129,1,10,0:2:0:0:
333,189,26251,2,0,P|316:164|295:139,1,50,2|2,0:2|0:2,0:0:0:0:
214,85,26617,53,2,0:2:0:0:
114,57,26861,2,0,P|78:60|45:69,1,50,2|2,1:2|0:2,0:0:0:0:
317,367,29422,5,2,0:2:0:0:
309,270,29666,1,2,0:2:0:0:
245,198,29910,1,2,0:2:0:0:
245,198,30032,1,10,0:2:0:0:
245,198,30154,1,2,0:2:0:0:
151,158,30398,53,2,1:2:0:0:
151,158,30520,2,0,P|89:145|34:147,1,100,2|2,0:2|0:2,0:0:0:0:
11,163,30885,1,2,0:2:0:0:
217,383,33324,5,2,0:2:0:0:
186,309,33568,1,2,0:2:0:0:
123,261,33812,1,2,0:2:0:0:
123,261,33934,1,10,0:2:0:0:
123,261,34056,2,0,P|106:236|85:211,1,50,2|2,0:2|0:2,0:0:0:0:
18,291,34422,53,2,0:2:0:0:
92,371,34666,2,0,P|56:374|23:383,1,50,2|2,1:2|0:2,0:0:0:0:
0,384,35641,6,0,P|61:362|127:359,1,100,2|8,0:2|0:2,0:2:0:0:
222,314,36129,54,0,P|265:368|329:339,1,150,2|8,0:2|0:2,0:2:0:0:
416,364,36617,2,0,P|412:320|435:261,1,100,2|8,0:2|0:2,0:2:0:0:
498,203,37105,5,2,0:2:0:0:
487,185,37227,1,2,0:2:0:0:
469,167,37349,1,2,1:2:0:0:
448,157,37471,1,2,0:2:0:0:
425,149,37593,1,2,0:2:0:0:
370,64,37836,53,10,0:2:0:0:
370,64,37958,1,2,0:2:0:0:
370,64,38080,2,0,P|291:52|143:202,1,300,2|0,0:2|3:2,0:2:0:0:
19,384,39300,5,2,1:2:0:0:
34,379,39422,1,2,0:2:0:0:
46,370,39544,1,2,0:2:0:0:
53,356,39666,1,2,0:2:0:0:
56,339,39788,2,0,P|47:310|33:281,3,50,10|2|2|2,0:2|0:2|0:2|1:2,0:0:0:0:
88,228,40275,1,2,0:2:0:0:
124,230,40397,1,10,0:2:0:0:
154,245,40519,1,2,1:2:0:0:
173,274,40641,1,2,0:2:0:0:
180,300,40763,2,2,P|211:308|253:313,3,50,10|2|2|2,0:2|0:2|0:2|0:2,0:2:0:0:
295,239,41251,53,2,1:2:0:0:
310,244,41373,1,2,0:2:0:0:
322,253,41495,1,2,0:2:0:0:
329,267,41617,1,2,0:2:0:0:
329,284,41739,2,0,P|326:306|312:344,3,50,10|2|2|2,0:2|0:2|0:2|1:2,0:0:0:0:
372,384,42226,1,2,0:2:0:0:
408,382,42348,1,10,0:2:0:0:
438,367,42470,1,2,1:2:0:0:
457,338,42592,1,2,0:2:0:0:
464,312,42714,2,2,P|495:304|537:299,3,50,10|2|2|2,0:2|0:2|0:2|0:2,0:2:0:0:
486,216,43202,5,2,1:2:0:0:
469,207,43324,1,2,0:2:0:0:
458,194,43446,1,2,0:2:0:0:
452,179,43568,1,2,0:2:0:0:
454,164,43690,2,0,P|464:132|481:107,3,50,10|2|2|2,0:2|0:2|0:2|1:2,0:0:0:0:
460,33,44178,1,2,0:2:0:0:
428,39,44300,1,10,0:2:0:0:
400,58,44422,1,2,1:2:0:0:
381,88,44544,1,2,0:2:0:0:
374,117,44666,2,2,P|349:111|325:103,3,50,10|2|2|2,0:2|0:2|0:2|0:2,0:2:0:0:
264,40,45154,53,2,1:2:0:0:
247,49,45276,1,2,0:2:0:0:
236,62,45398,1,2,0:2:0:0:
230,77,45520,1,2,0:2:0:0:
232,92,45642,2,0,P|242:124|259:149,3,50,10|2|2|2,0:2|0:2|0:2|1:2,0:0:0:0:
238,223,46130,1,2,0:2:0:0:
206,217,46252,1,10,0:2:0:0:
178,198,46374,1,2,1:2:0:0:
159,168,46496,1,2,0:2:0:0:
152,139,46618,2,8,P|127:145|103:153,3,50,8|8|0|2,0:2|0:2|1:2|0:2,0:2:0:0:
46,224,47105,5,2,1:2:0:0:
61,229,47227,1,2,0:2:0:0:
73,238,47349,1,2,0:2:0:0:
80,252,47471,1,2,0:2:0:0:
83,269,47593,2,0,P|74:298|60:327,3,50,10|2|2|2,0:2|0:2|0:2|1:2,0:0:0:0:
115,380,48080,1,2,0:2:0:0:
151,378,48202,1,10,0:2:0:0:
181,363,48324,1,2,1:2:0:0:
200,334,48446,1,2,0:2:0:0:
207,308,48568,2,2,P|238:300|280:295,3,50,10|2|2|2,0:2|0:2|0:2|0:2,0:2:0:0:
333,337,49056,53,2,1:2:0:0:
355,340,49178,1,2,0:2:0:0:
375,335,49300,1,2,0:2:0:0:
391,323,49422,1,2,0:2:0:0:
402,309,49544,2,0,P|395:278|381:251,3,50,10|2|2|2,0:2|0:2|0:2|1:2,0:0:0:0:
309,226,50031,5,2,0:2:0:0:
286,187,50153,1,10,0:2:0:0:
293,146,50275,54,0,P|371:105|502:111,1,200,2|2,1:2|3:2,0:2:0:0:
480,104,51007,6,0,L|495:31,1,50,2|0,1:2|0:2,0:2:0:0:
461,190,51251,54,0,L|446:268,1,50,2|0,1:2|0:2,0:2:0:0:
370,219,51739,6,0,L|215:180,1,150,6|0,0:2|0:2,0:2:0:0:
451,239,52227,54,0,L|521:255,1,50,2|0,0:2|0:2,0:2:0:0:
388,303,52471,1,0,1:2:0:0:
309,333,52715,6,0,L|189:366,1,100,4|0,0:2|0:0,0:2:0:0:
58,268,53202,54,0,L|31:157,1,100,0|0,1:2|0:0,0:2:0:0:
120,33,53690,6,0,L|269:-1,1,150,4|8,0:2|0:2,0:2:0:0:
347,35,54178,53,0,1:2:0:0:
383,56,54300,1,0,0:2:0:0:
400,92,54422,2,0,P|323:102|240:132,1,150,8|0,0:2|0:2,0:2:0:0:
223,201,54910,6,0,L|273:213,1,50,4|0,1:2|0:2,0:2:0:0:
345,261,55154,2,0,L|366:317,1,50,2|0,0:3|0:2,0:2:0:0:
395,384,55397,1,8,0:2:0:0:
207,335,55641,2,0,P|134:348|62:371,1,150,2|8,0:3|0:2,0:2:0:0:
8,313,56129,54,0,L|17:263,1,50,2|0,0:3|0:2,0:2:0:0:
97,231,56373,1,8,0:2:0:0:
39,131,56617,2,0,L|27:81,1,50,2|0,0:3|0:2,0:2:0:0:
96,15,56861,6,0,L|111:96,1,50,0|0,1:2|0:2,0:2:0:0:
178,106,57105,2,0,P|268:95|305:34,1,150,2|0,0:3|0:2,0:2:0:0:
382,55,57593,2,0,L|389:116,1,50,2|0,0:3|0:2,0:2:0:0:
448,172,57836,54,0,L|498:192,1,50,0|0,1:2|0:0,0:0:0:0:
502,294,58080,2,0,L|436:314,1,50,2|0,0:3|0:2,0:2:0:0:
387,244,58324,1,8,0:2:0:0:
319,183,58568,2,0,L|259:168,1,50,2|0,0:3|0:2,0:2:0:0:
195,195,58731,6,0,L|194:196,1,1.66666666666667,2|0,0:1|0:0,0:0:0:0:
108,200,99544,54,2,L|411:251,1,300,0|0,1:2|1:2,0:1:0:0:
452,319,100519,2,2,B|437:393|320:410|306:337|345:305,1,200,0|0,1:2|0:0,0:1:0:0:
415,237,101251,6,0,P|437:165|449:91,1,150,0|0,1:2|0:2,0:1:0:0:
394,29,101739,54,0,L|341:37,1,50,0|0,1:2|0:2,0:1:0:0:
273,98,101983,2,0,P|246:92|211:61,1,50,2|0,0:3|0:2,0:1:0:0:
131,48,102227,2,0,P|130:71|150:112,1,50,8|0,0:2|0:2,0:1:0:0:
229,185,102471,6,2,B|310:221|313:315|313:315|275:276|178:259,1,300,2|0,0:3|0:0,0:1:0:0:
89,183,103446,54,2,B|94:186|13:133|-7:231|43:262,1,150,2|0,0:3|0:2,0:1:0:0:
76,336,103934,6,0,P|101:326|142:320,1,50,2|0,0:3|0:2,0:1:0:0:
223,274,104178,2,0,P|241:278|266:296,1,50,8|0,0:2|0:2,0:1:0:0:
327,368,104422,54,2,B|321:364|402:417|423:319|372:288,1,150,2|0,0:3|0:2,0:1:0:0:
322,213,104910,2,2,B|375:201|408:167|408:167|416:220|474:266,1,200,2|2,0:3|0:3,0:1:0:0:
318,117,105641,6,2,B|247:126|199:191|199:191|180:127|219:70,1,250,0|0,0:2|0:2,0:1:0:0:
142,1,106373,54,0,P|136:24|132:64,1,50,2|8,0:3|0:2,0:1:0:0:
100,127,106617,2,2,B|60:122|33:85|33:85|23:121|45:153,1,150,0|0,1:2|0:2,0:1:0:0:
103,214,107105,6,2,P|102:235|93:263,1,50,8|0,0:2|0:2,0:2:0:0:
128,339,107349,2,2,P|202:338|271:309,1,150,2|0,0:3|0:2,0:1:0:0:
353,307,107836,54,0,P|370:315|399:342,1,50,2|0,0:3|0:2,0:1:0:0:
478,306,108080,2,0,P|478:274|487:256,1,50,8|0,0:2|0:2,0:1:0:0:
415,208,108324,6,2,P|452:125|548:129,1,150,2|0,0:3|0:2,0:1:0:0:
509,103,108812,2,2,P|433:43|352:55,1,150,2|0,0:3|0:2,0:1:0:0:
285,86,109300,2,2,P|298:61|294:26,1,50,2|0,0:3|0:2,0:2:0:0:
213,9,109544,54,2,L|114:25,1,100,0|2,1:2|0:3,0:1:0:0:
71,123,109910,6,2,L|170:107,1,100,0|0,0:2|0:2,0:1:0:0:
293,179,110275,54,2,L|194:195,1,100,2|0,0:3|1:2,0:1:0:0:
71,288,110641,6,2,L|169:271,1,100,0|0,0:2|0:2,0:1:0:0:
369,300,111007,54,2,L|270:316,1,100,8|2,0:2|0:3,0:1:0:0:
409,194,111495,6,0,P|410:169|418:145,1,50,0|0,0:2|0:2,0:1:0:0:
511,113,111739,2,2,P|504:187|482:262,1,150,2|0,0:3|0:2,0:1:0:0:
502,367,112227,54,2,P|341:299|167:289,1,350,2|0,0:3|0:2,0:1:0:0:
96,355,113202,6,2,L|135:364,4,33.3333333333333,2|2|2|2|2,1:2|0:2|0:2|0:2|0:2,0:2:0:0:
45,279,113690,54,2,L|6:288,2,33.3333333333333,2|2|2,0:2|0:2|0:2,0:2:0:0:
92,211,113934,2,2,L|186:231,1,66.6666666666667,10|2,0:2|0:2,0:2:0:0:
174,214,114178,6,2,L|182:181,2,33.3333333333333,2|2|2,0:2|0:2|0:2,0:2:0:0:
238,274,114422,2,2,L|311:255,1,66.6666666666667,2|2,1:2|0:2,0:2:0:0:
317,266,114666,54,2,L|329:309,2,33.3333333333333,2|2|2,0:2|0:2|0:2,0:2:0:0:
388,209,114910,2,2,L|403:128,1,66.6666666666667,10|2,0:2|0:2,0:2:0:0:
336,57,115154,6,2,L|316:146,1,66.6666666666667,6|2,1:2|0:2,0:2:0:0:
305,130,115397,54,2,L|288:166,2,33.3333333333333,2|2|2,1:2|0:2|0:2,0:2:0:0:
226,92,115641,2,2,L|194:100,2,33.3333333333333,10|2|2,0:2|0:2|0:2,0:2:0:0:
145,32,115885,2,0,L|107:20,2,33.3333333333333,10|2|2,0:2|0:2|0:2,0:0:0:0:
130,43,116129,6,2,P|105:104|96:215,1,150,8|0,0:2|0:2,0:1:0:0:
136,217,116617,53,0,1:2:0:0:
188,218,116739,1,0,1:2:0:0:
235,241,116861,1,0,1:2:0:0:
286,238,116983,1,0,1:2:0:0:
330,260,117105,1,0,1:2:0:0:
370,253,117227,1,0,1:2:0:0:
411,271,117349,5,4,1:2:0:0:
411,271,121251,54,0,L|424:204,1,50,0|0,1:2|0:2,0:2:0:0:
360,160,121495,2,0,L|371:104,1,50,2|0,0:3|0:2,0:2:0:0:
433,47,121739,1,8,0:2:0:0:
326,5,121983,6,0,L|227:26,2,100,2|0|2,0:3|1:2|1:3,0:2:0:0:
354,86,122715,1,8,0:2:0:0:
277,135,122958,2,0,L|216:119,1,50,2|0,0:3|0:2,0:2:0:0:
130,97,123202,54,0,L|139:146,1,50,0|0,1:2|0:2,0:2:0:0:
102,220,123446,2,0,L|112:268,1,50,2|0,0:3|0:2,0:2:0:0:
171,333,123690,1,8,0:2:0:0:
270,291,123934,6,0,L|383:323,2,100,2|0|2,1:3|0:2|1:3,0:2:0:0:
241,203,124666,1,8,0:2:0:0:
313,147,124910,2,0,L|327:77,1,50,2|0,1:3|1:2,0:2:0:0:
275,32,125154,54,0,L|204:44,1,50,4|0,0:2|0:2,0:2:0:0:
153,82,125397,2,0,L|81:93,1,50,2|0,0:3|0:2,0:2:0:0:
18,76,125641,1,8,0:2:0:0:
55,171,125885,6,0,L|31:289,2,100,2|0|2,0:3|0:2|1:3,0:2:0:0:
133,249,126617,1,8,0:2:0:0:
218,199,126861,2,0,L|222:248,1,50,2|0,0:3|0:2,0:2:0:0:
278,317,127105,54,0,L|357:305,1,50,0|0,1:2|0:2,0:2:0:0:
383,243,127349,2,0,L|440:232,1,50,2|0,0:3|0:2,0:2:0:0:
501,282,127593,1,8,0:2:0:0:
495,162,127836,6,0,L|515:52,2,100,2|0|2,0:3|0:2|0:3,0:2:0:0:
406,86,128568,1,8,0:2:0:0:
325,139,128812,2,0,L|234:150,1,50,2|0,0:3|0:2,0:2:0:0:
190,99,129056,54,0,L|180:151,1,50,0|0,1:2|0:2,0:2:0:0:
129,223,129300,2,0,L|119:286,1,50,2|0,0:3|0:2,0:2:0:0:
172,340,129544,1,8,0:2:0:0:
275,287,129788,6,0,L|389:267,2,100,2|0|2,0:3|0:2|1:3,0:2:0:0:
325,182,130519,1,8,0:2:0:0:
259,110,130763,2,0,L|209:106,1,50,2|0,0:3|0:2,0:2:0:0:
107,79,131007,54,0,L|117:151,1,50,0|0,1:2|0:2,0:2:0:0:
171,202,131251,2,0,L|183:273,1,50,2|0,0:3|0:2,0:2:0:0:
130,334,131495,1,8,0:2:0:0:
249,334,131739,6,0,L|370:360,2,100,2|0|2,0:3|1:2|1:3,0:2:0:0:
337,268,132471,54,0,L|328:218,1,50,8|0,0:2|0:2,0:2:0:0:
428,152,132715,2,0,L|419:201,1,50,8|0,0:2|1:2,0:2:0:0:
434,291,132958,5,4,1:2:0:0:
335,133,133202,2,0,P|277:111|221:103,1,100,8|0,0:2|0:2,0:2:0:0:
101,293,133690,2,0,P|149:254|184:209,1,100,4|0,1:2|0:2,0:2:0:0:
47,37,134178,2,0,P|56:98|78:150,1,100,0|8,1:2|0:2,0:2:0:0:
151,85,134666,54,0,L|134:37,1,50,8|0,0:2|0:2,0:2:0:0:
289,61,135154,6,0,L|281:1,1,50,8|0,0:2|0:2,0:2:0:0:
432,56,135641,54,0,L|443:-4,1,50,12|0,0:2|0:2,0:2:0:0:
64,19,136129,5,2,1:2:0:0:
22,101,136373,54,0,B|188:-11|412:28|412:28|459:17|459:17|440:115,1,550,12|0,0:2|0:2,0:2:0:0:
126,222,149299,5,2,0:2:0:0:
207,196,149543,2,0,P|231:206|260:232,1,50,8|0,0:2|0:2,0:2:0:0:
279,301,149787,2,0,P|278:324|261:366,1,50,8|0,0:2|0:2,0:2:0:0:
191,375,150031,1,0,1:2:0:0:
108,346,150275,54,0,P|94:318|84:283,1,50,12|0,0:2|0:2,0:2:0:0:
21,234,150518,2,0,P|30:204|54:164,1,50,0|0,0:2|0:2,0:2:0:0:
36,102,150762,2,0,P|82:79|148:67,1,100,8|0,0:2|0:2,0:2:0:0:
368,173,151250,6,0,P|351:97|326:26,1,150,12|0,0:2|0:2,0:2:0:0:
357,0,151738,2,0,P|382:12|428:28,1,50,0|0,1:2|0:2,0:2:0:0:
481,90,151982,54,0,P|453:94|428:102,1,50,0|0,1:2|0:2,0:2:0:0:
283,147,152226,2,0,P|239:189|232:288,1,150,12|0,0:2|0:2,0:2:0:0:
221,365,152714,5,8,0:2:0:0:
197,378,152835,1,8,0:2:0:0:
173,379,152957,2,0,P|118:330|47:341,1,150,8|8,0:2|0:2,0:2:0:0:
17,327,153445,54,0,L|32:271,1,50,0|0,1:2|0:2,0:2:0:0:
115,240,153689,2,0,P|110:213|97:187,1,50,2|0,0:3|0:2,0:2:0:0:
15,171,153933,1,8,0:2:0:0:
93,94,154177,2,0,L|107:41,1,50,2|8,0:3|0:2,0:2:0:0:
198,3,154421,6,0,L|210:64,1,50,0|0,1:2|0:2,0:2:0:0:
297,69,154665,2,0,P|289:93|283:138,1,50,2|0,0:3|0:2,0:2:0:0:
207,164,154909,1,8,0:2:0:0:
264,245,155153,2,0,L|273:294,1,50,2|0,0:3|0:2,0:2:0:0:
338,358,155396,54,0,P|391:356|459:334,2,100,0|2|8,1:2|0:2|0:2,0:2:0:0:
263,297,156128,6,0,P|190:274|111:288,1,150,2|8,0:3|0:2,0:2:0:0:
76,257,156616,54,0,L|87:194,1,50,2|0,1:3|0:2,0:2:0:0:
156,152,156860,2,0,L|231:135,1,50,8|0,0:2|0:2,0:2:0:0:
287,92,157104,2,0,L|303:15,1,50,2|0,0:3|0:2,0:2:0:0:
388,1,157348,6,0,L|405:79,1,50,0|8,1:2|0:2,0:2:0:0:
486,82,157592,2,0,P|488:105|472:135,1,50,2|0,0:3|0:2,0:2:0:0:
390,142,157835,1,8,0:2:0:0:
455,224,158079,2,0,L|469:278,1,50,2|0,0:3|0:2,0:2:0:0:
433,348,158323,53,0,0:2:0:0:
256,275,158567,1,12,0:2:0:0:
85,357,158811,1,0,1:2:0:0:
8,286,159055,5,0,1:2:0:0:
14,255,159177,1,0,1:2:0:0:
48,235,159299,2,0,P|71:225|100:221,1,50,4|0,0:2|0:0,0:2:0:0:
178,179,159543,53,0,0:2:0:0:
210,167,159665,1,0,1:2:0:0:
228,137,159787,2,0,P|238:107|241:75,1,50,12|0,0:2|0:0,0:2:0:0:
328,33,160031,5,0,0:2:0:0:
358,36,160153,1,0,1:2:0:0:
381,57,160275,2,0,P|393:93|398:178,1,100,4|0,1:2|0:2,0:2:0:0:
448,355,160762,2,0,P|492:305|485:221,1,150,12|0,0:2|0:2,0:2:0:0:
474,222,161250,54,0,L|397:239,1,50,4|0,1:2|0:2,0:2:0:0:
338,285,161494,2,0,L|270:274,1,50,2|0,0:3|0:2,0:2:0:0:
222,211,161738,1,8,0:2:0:0:
125,320,161982,2,0,L|116:270,1,50,2|0,0:3|0:2,0:2:0:0:
47,210,162226,6,0,P|38:135|101:76,1,150,0|0,1:2|0:2,0:2:0:0:
129,78,162714,2,0,L|179:81,1,50,8|0,0:2|0:2,0:2:0:0:
274,168,162957,2,0,L|342:157,1,50,2|0,0:2|0:2,0:2:0:0:
316,65,163201,54,0,L|238:79,1,50,0|8,1:2|0:2,0:2:0:0:
173,175,163445,2,0,L|123:165,1,50,2|0,0:3|0:2,0:2:0:0:
33,110,163689,1,8,0:2:0:0:
63,243,163933,2,0,L|76:317,1,50,2|0,0:3|0:2,0:2:0:0:
159,358,164177,6,0,L|171:287,1,50,0|0,1:2|0:2,0:2:0:0:
259,226,164421,2,0,L|269:298,1,50,2|0,0:3|0:2,0:2:0:0:
356,349,164665,53,8,0:2:0:0:
410,328,164787,1,0,0:2:0:0:
437,285,164909,2,0,L|444:235,1,50,2|0,0:3|0:2,0:2:0:0:
457,137,165153,5,4,0:2:0:0:
378,32,165396,2,0,L|278:45,1,100,2|0,0:3|1:2,0:2:0:0:
0,177,165884,54,0,L|121:164,1,100,8|0,0:2|1:2,0:2:0:0:
8,186,166372,2,0,L|129:173,1,100,2|0,0:3|1:2,0:2:0:0:
418,308,166860,6,0,P|403:236|345:191,1,150,8|0,0:2|0:2,0:2:0:0:
326,178,167348,2,8,L|329:122,1,50,8|8,0:2|1:2,0:2:0:0:
251,73,167592,2,8,L|199:68,1,50,8|8,0:2|0:2,0:2:0:0:
140,135,167835,2,8,L|130:202,1,50,8|0,0:2|0:2,0:2:0:0:
200,249,168079,2,0,L|272:258,1,50,0|0,1:2|1:2,0:0:0:0:
332,196,168323,1,0,1:2:0:0:
332,196,168445,1,0,1:2:0:0:
332,196,168567,54,0,P|381:246|348:308,1,150,12|0,0:2|0:2,0:2:0:0:
320,330,169055,6,0,L|309:388,2,50,4|0|0,1:2|0:2|0:0,0:2:0:0:
143,346,169543,53,10,0:2:0:0:
126,333,169665,1,2,0:2:0:0:
119,312,169787,1,2,0:2:0:0:
119,292,169909,1,2,0:2:0:0:
131,278,170031,6,0,L|119:216,1,50,0|8,1:2|0:2,0:2:0:0:
202,201,170275,53,0,0:2:0:0:
202,201,170396,2,0,L|210:152,1,50,2|8,0:2|0:2,0:2:0:0:
297,167,170640,5,0,0:2:0:0:
297,167,170762,2,0,P|326:90|366:27,1,150,2|0,0:2|0:2,0:2:0:0:
378,32,171250,2,0,P|420:42|456:101,2,100,2|8|2,0:2|0:2|0:2,0:2:0:0:
258,28,171982,53,0,0:2:0:0:
258,28,172104,2,0,L|205:42,1,50,8|0,0:2|0:2,0:2:0:0:
127,112,172348,5,0,0:2:0:0:
127,112,172470,2,0,P|174:126|232:160,1,100,8|0,0:2|0:2,0:2:0:0:
237,241,172835,53,2,0:3:0:0:
237,241,172957,2,0,L|229:299,2,50,0|0|0,1:2|0:2|0:0,0:2:0:0:
384,296,173445,5,10,0:2:0:0:
400,282,173567,1,2,0:2:0:0:
408,263,173689,1,2,0:2:0:0:
408,240,173811,1,2,0:2:0:0:
397,223,173933,54,0,L|372:164,1,50,0|8,1:2|0:2,0:2:0:0:
296,123,174177,5,0,0:2:0:0:
296,123,174299,2,0,L|282:171,1,50,2|8,0:2|0:2,0:2:0:0:
189,204,174543,53,0,0:2:0:0:
189,204,174665,2,0,L|175:155,1,50,2|2,0:2|0:3,0:0:0:0:
87,103,174909,6,0,L|78:153,1,50,0|0,1:2|0:2,0:2:0:0:
25,220,175153,2,0,P|52:252|78:304,1,100,2|8,0:2|0:2,0:2:0:0:
209,360,175640,53,2,0:2:0:0:
355,309,175884,2,0,L|421:299,1,50,2|0,1:2|0:2,0:2:0:0:
496,225,176128,2,0,L|429:210,1,50,2|0,0:2|0:2,0:2:0:0:
354,128,176372,2,0,P|355:51|438:-1,1,150,8|0,0:2|0:2,0:2:0:0:
425,5,176860,6,0,L|457:11,7,33.3333333333333,4|0|0|0|0|0|8|0,0:2|0:2|0:2|0:2|0:2|0:2|0:2|0:2,0:2:0:0:
451,92,177592,54,0,L|440:147,1,50,0|0,0:2|0:2,0:0:0:0:
378,207,177835,6,0,L|367:175,4,33.3333333333333,0|0|0|0|0,1:2|0:2|0:2|0:2|0:2,0:2:0:0:
465,277,178323,54,0,L|457:309,7,33.3333333333333,8|0|0|0|0|0|0|0,0:2|0:2|0:2|0:2|0:2|0:2|1:2|0:2,0:2:0:0:
377,353,179055,6,0,L|367:321,7,33.3333333333333,0|0|0|8|0|0|0|0,0:2|0:2|0:2|0:2|0:2|0:2|0:2|0:2,0:2:0:0:
283,309,179787,53,0,1:2:0:0:
182,284,180031,1,0,1:2:0:0:
66,332,180275,1,0,1:2:0:0:
18,165,180518,5,8,0:2:0:0:
256,192,180640,12,0,181738,0:2:0:0:
