osu file format v14

[General]
AudioFilename: audio.mp3
AudioLeadIn: 0
PreviewTime: -1
Countdown: 0
SampleSet: Normal
StackLeniency: 0.7
Mode: 0
LetterboxInBreaks: 0
WidescreenStoryboard: 1

[Editor]
DistanceSpacing: 1
BeatDivisor: 8
GridSize: 16
TimelineZoom: 2.3

[Metadata]
Title:Seishun Complex (TV Size)
TitleUnicode:Seishun Complex (TV Size)
Artist:kessoku band
ArtistUnicode:kessoku band
Creator:uno patato
Version:Guitar HERO!
Source:
Tags:
BeatmapID:4603646
BeatmapSetID:2106081

[Difficulty]
HPDrainRate:6
CircleSize:4
OverallDifficulty:6
ApproachRate:9
SliderMultiplier:1.4
SliderTickRate:1

[Events]
//Background and Video events
0,0,"bg.jpg",0,0
Video,0,"hitoribocchee.mp4"
//Break Periods
//Storyboard Layer 0 (Background)
//Storyboard Layer 1 (Fail)
//Storyboard Layer 2 (Pass)
//Storyboard Layer 3 (Foreground)
//Storyboard Layer 4 (Overlay)
//Storyboard Sound Samples

[TimingPoints]
32,315.789473684211,4,1,0,100,1,0
545,-66.6666666666667,4,1,0,100,0,0
2124,-100,4,1,0,100,0,0
6110,-66.6666666666667,4,1,0,100,0,0
6584,-76.9230769230769,4,1,0,100,0,0
12505,-83.3333333333333,4,1,0,100,0,0
13176,-66.6666666666667,4,1,0,100,0,0
15703,-52.6315789473684,4,1,0,100,0,0
16176,-62.5,4,1,0,100,0,0
18229,-100,4,1,0,100,0,0
19176,-76.9230769230769,4,1,0,100,0,0
23597,-66.6666666666667,4,1,0,100,0,0
26282,-52.6315789473684,4,1,0,100,0,0
28808,-58.8235294117647,4,1,0,100,0,0
33860,-62.5,4,1,0,100,0,0
34650,-55.5555555555556,4,1,0,100,0,0
35124,-62.5,4,1,0,100,0,0
39663,-55.5555555555556,4,1,0,100,0,0
42229,-62.5,4,1,0,100,0,0
43176,-55.5555555555556,4,1,0,100,0,0
43492,-62.5,4,1,0,100,0,0
43847,-55.5555555555556,4,1,0,100,0,0
44479,-66.6666666666667,4,1,0,100,0,0
44755,-55.5555555555556,4,1,0,100,0,0
47282,-62.5,4,1,0,100,0,0
48229,-66.6666666666667,4,1,0,100,0,0
48545,-55.5555555555556,4,1,0,100,0,0
49808,-58.8235294117647,4,1,0,100,0,0
53597,-55.5555555555556,4,1,0,100,0,0
54545,-66.6666666666667,4,1,0,100,0,0
54863,-83.3333333333333,4,1,0,100,0,0
56124,-66.6666666666667,4,1,0,100,0,0
56439,-62.5,4,1,0,100,0,0
57387,-76.9230769230769,4,1,0,100,0,0
57701,-62.5,4,1,0,100,0,0
62439,-66.6666666666667,4,1,0,100,0,0
62755,-58.8235294117647,4,1,0,100,0,0
68439,-62.5,4,1,0,100,0,0
71282,-55.5555555555556,4,1,0,100,0,0
73808,-66.6666666666667,4,1,0,100,0,0
82532,-66.6666666666667,4,1,0,100,0,1
82532,-66.6666666666667,4,1,0,100,0,1
85966,-76.9230769230769,4,1,0,100,0,0

[HitObjects]
124,148,545,6,0,P|154:154|222:198,1,105.000004005432,0|0,1:0|0:0,0:0:0:0:
363,131,1018,6,0,P|342:153|270:183,1,105.000004005432,0|0,1:0|0:0,0:0:0:0:
266,329,1492,6,0,P|245:288|257:221,1,105.000004005432,0|0,1:0|0:0,0:0:0:0:
488,237,2124,6,0,L|479:275,2,30.0000011444092
509,221,2387,2,0,B|438:240|438:172|344:214,1,165.000006294251,2|0,0:3|0:0,0:0:0:0:
139,331,3071,5,0,0:0:0:0:
282,102,3229,1,0,0:0:0:0:
139,331,3426,1,0,0:0:0:0:
139,331,3584,2,0,P|124:256|138:221,1,105
374,55,4137,1,0,0:0:0:0:
187,298,4453,1,0,0:0:0:0:
152,133,4768,5,0,0:0:0:0:
168,109,4847,1,0,0:0:0:0:
188,87,4926,2,0,P|233:61|275:71,1,87.5
363,160,5282,1,0,0:0:0:0:
363,160,5439,1,0,0:0:0:0:
319,301,5597,1,0,0:0:0:0:
168,170,5755,1,0,0:0:0:0:
315,297,5953,5,0,0:0:0:0:
319,301,6110,2,0,P|238:305|137:238,1,183.750007009506
59,122,6703,2,0,P|145:113|245:199,1,204.749990627289
355,180,7374,5,0,0:0:0:0:
358,209,7453,1,0,0:0:0:0:
359,242,7532,2,0,P|326:281|283:288,1,70
74,271,7847,1,0,0:0:0:0:
290,88,8124,1,0,0:0:0:0:
290,88,8282,1,0,0:0:0:0:
318,258,8439,5,0,0:0:0:0:
318,258,8597,2,0,P|227:274|156:248,1,159.249992710114
384,80,9229,1,0,0:0:0:0:
86,185,9584,1,0,0:0:0:0:
404,267,9860,5,0,0:0:0:0:
370,288,9939,1,0,0:0:0:0:
336,287,10018,1,0,0:0:0:0:
125,281,10176,1,0,0:0:0:0:
120,110,10334,1,0,0:0:0:0:
296,55,10492,2,0,P|361:57|392:97,1,113.749994792938
392,204,10847,1,0,0:0:0:0:
236,291,11005,1,0,0:0:0:0:
392,204,11163,6,0,P|357:166|255:98,1,159.249992710114
339,303,11795,1,0,0:0:0:0:
113,301,12032,1,0,0:0:0:0:
240,342,12268,5,0,0:0:0:0:
253,290,12347,1,0,0:0:0:0:
291,266,12426,2,0,P|292:235|325:218,1,52.5000020027161
350,226,12584,1,0,0:0:0:0:
383,192,12663,1,0,0:0:0:0:
392,142,12742,1,0,0:0:0:0:
352,105,12821,2,0,P|357:67|401:33,1,83.9999974365235
249,24,13169,6,0,B|287:48|287:48|254:94,1,83.9999974365235,6|0,3:2|0:0,0:0:0:0:
293,244,13485,1,0,1:0:0:0:
114,252,13643,2,0,P|93:205|118:146,1,105.000004005432,0|0,1:2|0:0,0:0:0:0:
165,52,13959,5,2,3:2:0:0:
244,245,14116,2,0,P|277:255|344:221,1,105.000004005432,0|0,1:0|0:0,0:0:0:0:
367,43,14432,5,2,3:2:0:0:
203,320,14748,1,0,1:2:0:0:
382,322,14913,1,0,0:0:0:0:
463,190,15064,1,0,3:0:0:0:
463,190,15222,1,0,3:0:0:0:
463,190,15380,2,0,P|424:201|350:222,1,105.000004005432,0|0,1:0|0:0,0:0:0:0:
403,379,15703,6,0,L|264:355,1,132.999996448517,2|0,3:2|0:0,0:0:0:0:
249,290,16011,1,0,1:0:0:0:
106,92,16169,2,0,P|157:86|227:128,1,132.999996448517,0|0,1:2|0:0,0:0:0:0:
23,178,16485,5,2,3:2:0:0:
140,341,16643,2,0,P|95:331|48:278,1,112,0|0,1:2|0:0,0:0:0:0:
278,320,16959,5,2,3:2:0:0:
279,124,17242,1,0,0:0:0:0:
63,126,17439,1,0,0:0:0:0:
38,81,17518,1,0,0:0:0:0:
48,40,17597,1,0,3:0:0:0:
229,38,17755,1,0,3:0:0:0:
352,110,17913,2,0,L|466:101,1,112,0|0,1:0|0:0,0:0:0:0:
238,174,18229,6,0,P|261:208|258:263,1,87.5,2|0,3:2|0:0,0:0:0:0:
116,324,18538,1,0,1:0:0:0:
433,349,18695,2,0,P|460:304|448:255,1,105,0|0,1:0|0:0,0:0:0:0:
399,233,19011,5,0,3:2:0:0:
142,112,19176,2,0,P|156:165|187:202,1,90.9999958343508,2|0,1:2|0:0,0:0:0:0:
356,291,19485,5,2,3:2:0:0:
117,242,19801,1,0,1:0:0:0:
156,83,19966,1,0,0:0:0:0:
295,119,20116,1,0,3:0:0:0:
295,119,20274,1,0,3:0:0:0:
295,119,20439,2,0,B|298:130|298:130|263:224,1,90.9999958343508,0|0,1:0|0:0,0:0:0:0:
35,158,20755,6,0,P|66:142|132:142,1,90.9999958343508,2|0,3:2|0:0,0:0:0:0:
147,176,21064,1,0,1:0:0:0:
356,37,21229,2,0,P|304:33|265:65,1,105,0|0,1:0|0:0,0:0:0:0:
224,74,21538,5,2,3:2:0:0:
119,268,21695,2,0,L|216:247,1,90.9999958343508,0|0,1:0|0:0,0:0:0:0:
294,37,22011,5,2,3:2:0:0:
507,171,22169,1,0,3:0:0:0:
479,82,22327,5,2,1:2:0:0:
305,319,22485,1,0,3:0:0:0:
423,311,22643,5,2,1:2:0:0:
184,102,22801,1,0,3:0:0:0:
386,56,22959,6,0,P|343:60|267:94,1,113.749994792938,4|0,0:3|0:0,0:0:0:0:
26,112,23321,1,0,0:0:0:0:
66,119,23400,1,0,0:0:0:0:
100,141,23511,1,4,0:3:0:0:
125,170,23597,2,0,P|109:196|117:232,1,52.5000020027161,0|0,3:0|0:0,0:0:0:0:
250,327,23748,6,0,B|219:197|219:197,1,131.25000500679,4|0,3:2|0:0,0:0:0:0:
186,194,24064,5,0,3:0:0:0:
432,169,24222,1,0,1:0:0:0:
243,306,24387,1,0,0:0:0:0:
402,89,24545,1,0,0:0:0:0:
170,116,24695,5,0,1:0:0:0:
154,325,24853,1,0,3:0:0:0:
184,126,25011,6,0,B|186:118|186:118|171:69,1,52.5000020027161,4|0,1:2|0:0,0:0:0:0:
136,62,25169,1,0,3:0:0:0:
24,127,25327,5,0,1:0:0:0:
0,154,25406,1,0,3:0:0:0:
34,196,25485,2,0,L|64:317,1,105.000004005432,0|0,3:0|0:0,0:0:0:0:
317,326,25801,6,0,P|343:304|342:268,1,52.5000020027161,0|0,3:0|0:0,0:0:0:0:
351,230,25959,1,0,1:0:0:0:
332,174,26038,1,0,1:0:0:0:
272,146,26116,1,0,1:0:0:0:
101,234,26274,6,0,B|133:221|133:221|236:251,1,131.25000500679,4|0,3:2|0:0,0:0:0:0:
392,267,26590,6,0,L|261:285,1,132.999996448517,4|0,3:2|1:0,0:0:0:0:
118,245,26906,6,0,B|164:256|183:246|144:173|250:241|283:178,1,166.249995560646,4|0,3:2|1:0,0:0:0:0:
403,269,27268,5,0,3:0:0:0:
340,74,27426,1,0,1:0:0:0:
159,131,27584,1,0,3:0:0:0:
206,310,27742,1,0,0:0:0:0:
436,73,27853,5,0,1:0:0:0:
458,109,27932,1,0,1:0:0:0:
444,148,28011,1,0,1:0:0:0:
405,163,28090,2,0,L|294:129,1,99.7499973363877,0|4,3:0|0:3,0:0:0:0:
199,40,28327,5,6,3:2:0:0:
173,256,28485,1,4,0:3:0:0:
43,89,28643,1,0,1:0:0:0:
185,155,28808,6,0,P|234:161|294:105,1,119.000002269745,2|0,3:2|0:0,0:0:0:0:
387,299,29116,1,0,3:0:0:0:
167,68,29282,2,0,P|114:88|106:160,1,119.000002269745,0|0,1:0|0:0,0:0:0:0:
270,275,29590,6,0,P|268:222|221:169,1,119.000002269745,2|0,3:2|0:0,0:0:0:0:
127,326,29906,1,0,1:2:0:0:
373,200,30071,6,0,L|395:74,1,119.000002269745,2|0,3:2|0:0,0:0:0:0:
259,188,30380,1,0,3:0:0:0:
454,188,30538,6,0,L|499:242,1,59.5000011348725,2|0,1:3|0:0,0:0:0:0:
467,267,30742,1,0,0:0:0:0:
419,262,30853,5,2,3:2:0:0:
286,175,31011,1,0,0:0:0:0:
158,291,31169,1,0,1:0:0:0:
0,140,31334,6,0,P|54:165|113:127,1,119.000002269745,2|0,3:2|0:0,0:0:0:0:
285,260,31643,1,0,3:0:0:0:
52,287,31801,2,0,P|50:253|96:220,1,89.2500017023087,0|0,1:0|0:0,0:0:0:0:
120,204,32005,1,0,0:0:0:0:
207,41,32163,6,0,L|155:135,1,89.2500017023087,2|0,3:2|0:0,0:0:0:0:
207,276,32432,1,0,1:0:0:0:
318,96,32590,2,0,P|345:138|334:201,1,105,2|0,3:2|0:0,0:0:0:0:
211,101,32906,1,0,3:2:0:0:
397,192,33064,6,0,B|406:202|406:202|440:243,1,59.5000011348725,0|0,1:0|0:0,0:0:0:0:
381,273,33222,1,0,1:0:0:0:
340,292,33301,1,0,1:0:0:0:
325,328,33380,1,6,3:2:0:0:
204,250,33538,1,4,0:3:0:0:
381,273,33695,1,0,1:0:0:0:
308,214,33860,6,0,P|258:208|204:262,1,112,2|0,3:2|0:0,0:0:0:0:
347,291,34169,1,0,3:0:0:0:
187,150,34334,2,0,P|167:121|88:105,1,112,0|0,1:0|0:0,0:0:0:0:
0,283,34650,6,0,L|139:252,1,140,2|0,3:2|0:0,0:0:0:0:
166,135,34959,1,0,1:0:0:0:
78,25,35124,2,0,P|33:98|60:158,1,140,2|0,3:2|0:0,0:0:0:0:
293,172,35479,1,0,3:0:0:0:
135,265,35590,6,0,L|275:337,1,140,2|0,1:3|0:0,0:0:0:0:
158,202,35906,5,2,3:2:0:0:
383,257,36064,1,0,0:0:0:0:
445,60,36222,1,0,1:0:0:0:
293,121,36387,6,0,L|297:244,1,112,2|0,3:2|0:2,0:2:0:0:
135,166,36695,1,0,3:0:0:0:
348,311,36853,2,0,P|413:283|458:315,1,112,2|0,1:2|0:0,0:0:0:0:
417,198,37169,5,2,3:2:0:0:
362,74,37327,1,0,3:0:0:0:
235,140,37485,2,0,B|140:122|140:122|140:137|108:158,1,140,0|0,1:0|0:0,0:0:0:0:
28,160,37801,5,2,1:2:0:0:
13,123,37880,1,0,1:0:0:0:
19,86,37959,1,0,1:0:0:0:
34,53,38038,1,0,1:0:0:0:
68,39,38116,5,2,1:2:0:0:
116,51,38195,1,0,1:0:0:0:
139,94,38274,1,0,1:0:0:0:
128,138,38353,1,0,1:0:0:0:
128,138,38432,6,0,L|172:231,1,84,0|0,3:0|0:0,0:0:0:0:
351,37,38748,6,0,L|286:120,1,84,0|0,3:0|0:0,0:0:0:0:
114,212,39071,6,0,L|204:158,1,84,0|0,3:0|0:0,0:0:0:0:
350,127,39387,6,0,L|289:211,1,84,0|0,3:0|0:0,0:0:0:0:
256,351,39703,2,0,P|201:296|218:210,1,157.499995193482
411,99,40011,2,0,P|376:88|285:136,1,125.999996154785,0|0,1:2|0:0,0:0:0:0:
275,239,40327,5,2,3:2:0:0:
102,297,40485,1,0,3:0:0:0:
36,105,40643,1,0,1:0:0:0:
213,47,40801,1,0,0:0:0:0:
213,143,40966,6,0,B|242:95|175:28,1,125.999996154785,2|0,3:2|0:0,0:0:0:0:
95,198,41282,2,0,B|81:239|100:277|100:277|121:256|157:274,1,125.999996154785,0|0,1:0|0:0,0:0:0:0:
369,60,41590,5,2,3:2:0:0:
241,191,41755,1,0,3:0:0:0:
481,186,41913,2,0,P|499:250|473:311,1,125.999996154785,0|0,1:2|0:0,0:0:0:0:
128,89,42229,2,0,P|221:92|338:165,1,224
403,294,42695,1,0,0:0:0:0:
251,177,42853,5,0,3:0:0:0:
196,335,43011,1,0,3:0:0:0:
48,224,43176,2,0,P|91:189|151:178,1,94.499997116089,0|0,1:2|0:2,0:2:0:0:
243,295,43492,6,0,B|263:334|323:337|323:337|356:283,1,140,2|0,3:2|0:0,0:0:0:0:
422,33,43847,2,0,B|437:41|437:41|415:153,1,125.999996154785,2|0,1:2|0:0,0:0:0:0:
373,297,44116,1,2,3:2:0:0:
320,284,44195,1,0,1:0:0:0:
317,243,44274,2,0,P|320:214|347:159,1,62.9999980773926,0|0,3:0|0:0,0:0:0:0:
187,55,44479,2,0,L|244:178,1,131.25000500679,2|0,1:2|0:0,0:0:0:0:
212,278,44755,6,0,B|173:287|173:287|157:321|157:321|76:304,1,157.499995193482,4|0,3:2|0:0,0:0:0:0:
289,98,45071,2,0,P|343:96|384:159,1,125.999996154785,2|0,1:2|0:0,0:0:0:0:
276,277,45380,1,0,3:2:0:0:
456,125,45538,1,0,3:0:0:0:
320,230,45703,6,0,L|383:343,1,125.999996154785,2|0,1:2|0:0,0:0:0:0:
149,292,45979,1,0,0:0:0:0:
295,91,46137,1,0,0:0:0:0:
405,294,46295,1,0,0:0:0:0:
184,130,46453,1,0,0:0:0:0:
29,214,46643,5,0,3:0:0:0:
14,152,46722,1,0,1:0:0:0:
48,108,46808,2,0,L|114:118,1,62.9999980773926,0|0,3:0|0:0,0:0:0:0:
161,67,46966,2,0,P|218:83|255:114,1,94.499997116089,2|0,1:2|0:0,0:0:0:0:
347,224,47282,6,0,P|402:188|389:127,1,112,2|0,3:2|0:0,0:0:0:0:
268,61,47597,2,0,B|251:74|251:74|234:189,1,125.999996154785,2|0,1:2|0:0,0:0:0:0:
431,134,47906,5,2,3:2:0:0:
297,315,48064,1,0,3:0:0:0:
154,140,48229,2,0,P|148:217|194:276,1,131.25000500679,2|0,1:2|0:0,0:0:0:0:
359,337,48545,6,0,L|349:263,1,62.9999980773926,0|0,3:0|0:0,0:0:0:0:
427,235,48703,2,0,L|412:170,1,62.9999980773926,0|0,3:0|0:0,0:0:0:0:
296,112,48860,6,0,B|313:55|313:55|199:45,1,157.499995193482,6|0,1:2|0:0,0:0:0:0:
188,170,49176,6,0,P|188:198|158:217,1,62.9999980773926,0|0,3:0|1:3,0:0:0:0:
134,233,49327,1,0,1:0:0:0:
107,250,49406,1,0,1:0:0:0:
63,241,49485,1,4,1:3:0:0:
36,203,49564,1,0,1:0:0:0:
45,150,49643,1,0,1:3:0:0:
96,126,49722,1,0,1:0:0:0:
148,154,49808,6,0,B|224:138|224:138|298:160,1,148.750002837181,6|0,3:2|0:0,0:0:0:0:
344,219,50124,2,0,B|374:209|374:209|347:123,1,119.000002269745,0|0,1:0|0:0,0:0:0:0:
77,153,50432,5,2,3:2:0:0:
150,233,50590,1,0,3:0:0:0:
245,134,50748,1,0,1:0:0:0:
304,230,50906,1,0,0:0:0:0:
286,312,51071,6,0,B|255:314|228:331|228:331|239:301|179:274,1,119.000002269745,2|0,3:2|0:0,0:0:0:0:
264,199,51387,2,0,P|308:163|385:177,1,119.000002269745,0|0,1:2|0:0,0:0:0:0:
206,155,51695,5,2,3:2:0:0:
73,130,51853,1,0,3:0:0:0:
207,300,52011,1,0,1:0:0:0:
308,79,52169,1,0,0:0:0:0:
18,164,52334,6,0,B|25:150|-18:103|84:115|181:145,1,178.500003404617,2|0,3:2|1:0,0:0:0:0:
202,119,52689,1,0,0:0:0:0:
116,334,52959,5,0,3:0:0:0:
341,147,53116,1,0,3:0:0:0:
311,341,53282,2,0,P|245:339|205:297,1,119.000002269745,2|0,1:2|0:0,0:0:0:0:
214,123,53597,6,0,B|299:98|342:162,1,125.999996154785,2|0,3:2|0:0,0:0:0:0:
504,217,53913,2,0,B|529:206|529:206|482:116,1,125.999996154785,2|0,1:2|0:0,0:0:0:0:
363,12,54222,1,2,3:2:0:0:
358,16,54301,1,0,1:0:0:0:
348,41,54387,2,0,L|338:109,1,62.9999980773926
315,247,54545,2,0,P|262:257|200:206,1,131.25000500679,2|0,1:2|0:0,0:0:0:0:
95,106,54860,6,0,B|138:161|73:228,1,131.25000500679,6|0,3:2|0:0,0:0:0:0:
40,127,55169,2,0,P|84:87|136:84,1,104.999996795654,2|0,1:2|0:0,0:0:0:0:
455,102,55485,5,0,3:0:0:0:
199,236,55643,1,0,3:0:0:0:
322,64,55801,1,2,1:2:0:0:
400,251,55959,1,2,0:0:0:0:
230,303,56124,6,0,P|194:309|116:333,1,105.000004005432,0|0,3:0|0:0,0:0:0:0:
299,205,56439,2,0,P|348:212|405:191,1,112,2|0,1:2|0:0,0:0:0:0:
488,210,56748,1,0,3:0:0:0:
334,324,56906,1,0,3:0:0:0:
322,171,57071,6,0,L|259:54,1,112,2|0,1:2|0:0,0:0:0:0:
148,19,57387,6,0,B|104:48|113:109|113:109|131:154,1,140,2|0,3:2|0:0,0:0:0:0:
220,118,57703,2,0,P|157:126|121:167,1,112,2|0,1:2|0:0,0:0:0:0:
65,242,58011,5,2,3:2:0:0:
264,135,58169,1,0,3:0:0:0:
80,299,58334,2,0,B|98:288|98:288|123:304|195:302,1,112,2|0,1:2|0:2,0:2:0:0:
291,285,58643,5,0,3:0:0:0:
291,285,58801,1,0,3:0:0:0:
151,187,58966,6,0,B|157:197|157:197|183:313,1,105,6|0,1:2|0:0,0:0:0:0:
216,174,59282,1,0,0:0:0:0:
250,138,59360,1,0,0:0:0:0:
299,165,59432,1,8,0:3:0:0:
385,279,59590,5,0,1:0:0:0:
441,261,59668,1,0,1:0:0:0:
479,224,59747,1,0,1:0:0:0:
490,165,59826,1,0,1:0:0:0:
432,146,59913,2,0,B|374:141|374:141|359:159|307:123|307:123,1,112,6|0,3:2|0:0,0:0:0:0:
274,309,60229,2,0,B|267:290|267:290|278:189,1,112,0|0,1:0|0:0,0:0:0:0:
415,105,60538,5,2,3:2:0:0:
356,192,60695,1,0,3:0:0:0:
291,112,60853,1,0,1:0:0:0:
193,168,61011,1,0,0:0:0:0:
108,160,61176,6,0,B|38:92|19:184|19:184,1,105,2|0,3:2|0:0,0:0:0:0:
29,177,61492,2,0,P|49:147|29:77,1,112,0|0,1:0|0:0,0:0:0:0:
0,256,61801,5,2,3:2:0:0:
207,335,61959,1,0,3:0:0:0:
53,292,62124,2,0,B|103:251|107:304|188:267,1,140,0|0,1:2|0:0,0:0:0:0:
266,288,62439,6,0,B|289:217|289:217|252:162,1,131.25000500679,6|0,3:2|0:0,0:0:0:0:
86,107,62755,2,0,P|137:135|157:199,1,119.000002269745,0|0,1:2|0:0,0:0:0:0:
361,322,63064,5,0,3:2:0:0:
268,98,63222,1,0,3:0:0:0:
412,217,63380,1,2,1:2:0:0:
161,124,63538,1,0,0:0:0:0:
464,149,63703,6,0,B|479:159|479:159|447:257,1,119.000002269745,4|0,3:2|0:0,0:0:0:0:
220,335,64018,2,0,L|193:203,1,119.000002269745,2|0,1:2|0:0,0:0:0:0:
251,148,64327,1,2,3:2:0:0:
98,254,64485,1,0,3:0:0:0:
251,148,64650,2,0,P|273:103|235:29,1,119.000002269745,2|0,1:2|0:0,0:0:0:0:
145,37,64966,6,0,P|172:79|159:130,1,89.2500017023087,4|0,3:2|0:0,0:0:0:0:
158,166,65282,2,0,B|116:136|68:159|68:159|54:186,1,105,2|0,1:2|0:0,0:0:0:0:
30,82,65590,5,0,3:0:0:0:
99,254,65748,1,0,3:0:0:0:
37,352,65913,6,0,B|21:333|21:333|73:286,1,89.2500017023087,2|0,1:2|0:0,0:0:0:0:
170,168,66143,1,2,0:0:0:0:
180,142,66229,2,0,B|191:110|172:110|172:110|201:76|253:69,1,119.000002269745,6|0,3:2|0:0,0:0:0:0:
302,255,66545,2,0,B|305:226|305:226|205:197,1,119.000002269745,2|0,1:2|0:0,0:0:0:0:
406,324,66853,5,0,3:2:0:0:
446,109,67011,1,0,3:0:0:0:
423,321,67176,2,0,P|469:280|460:215,1,105,2|0,1:2|0:0,0:0:0:0:
474,295,67485,5,2,3:2:0:0:
272,23,67643,1,0,0:0:0:0:
467,97,67801,5,2,1:2:0:0:
265,296,67959,1,0,0:0:0:0:
217,209,68116,5,2,3:2:0:0:
86,97,68274,1,0,3:0:0:0:
101,220,68439,6,0,B|5:191|5:191|3:235,1,140,2|0,1:2|0:0,0:0:0:0:
178,182,68755,6,0,P|201:174|227:157,1,56,0|0,3:0|0:0,0:0:0:0:
344,76,68913,2,0,P|328:94|323:129,1,56,0|0,3:0|0:0,0:0:0:0:
447,298,69071,6,0,B|443:271|450:248|450:248|396:260|380:207,1,140,2|0,1:2|0:0,0:0:0:0:
357,160,69380,5,0,1:0:0:0:
299,171,69459,1,0,1:0:0:0:
276,217,69538,1,0,1:0:0:0:
289,267,69616,1,0,1:0:0:0:
297,310,69695,5,0,1:3:0:0:
266,359,69774,1,0,1:3:0:0:
210,375,69853,1,0,1:3:0:0:
160,345,69932,1,0,1:3:0:0:
133,292,70018,6,0,B|84:271|59:298|59:298|58:223,1,140,6|0,3:2|0:0,0:0:0:0:
28,105,70334,2,0,B|19:124|19:124|79:211,1,112,0|0,1:2|0:0,0:0:0:0:
333,69,70643,5,2,3:2:0:0:
122,216,70801,1,0,3:0:0:0:
163,77,70959,1,0,1:0:0:0:
247,146,71116,1,0,0:0:0:0:
373,127,71282,6,0,P|445:133|474:79,1,125.999996154785,2|0,3:2|0:0,0:0:0:0:
435,22,71597,2,0,P|419:65|455:136,1,125.999996154785,0|0,1:0|0:0,0:0:0:0:
512,321,71906,5,2,3:2:0:0:
295,181,72064,1,0,3:0:0:0:
504,235,72229,2,0,B|367:254|367:254,1,125.999996154785,0|0,1:0|0:0,0:0:0:0:
353,353,72545,6,0,B|363:323|382:318|382:318|324:306|297:258,1,125.999996154785,6|0,3:2|0:0,0:0:0:0:
223,345,72860,2,0,L|235:212,1,125.999996154785,0|0,1:0|0:0,0:0:0:0:
48,74,73169,5,0,3:2:0:0:
285,165,73327,1,0,3:0:0:0:
53,201,73485,1,0,1:0:0:0:
137,26,73643,1,0,0:0:0:0:
138,234,73808,6,0,B|147:301|115:346|115:346|85:324,1,131.25000500679,6|0,3:2|0:0,0:0:0:0:
214,285,74124,2,0,P|212:236|234:186,1,105.000004005432,2|0,1:2|0:0,0:0:0:0:
142,131,74432,5,2,3:2:0:0:
354,236,74590,1,0,3:0:0:0:
449,35,74755,6,0,B|386:53|386:53|366:79|366:79|331:71,1,105,2|0,1:2|0:0,0:0:0:0:
245,42,75071,6,0,P|297:42|344:77,1,105.000004005432,4|0,3:2|0:0,0:0:0:0:
316,188,75387,2,0,B|285:259|325:254|298:319,1,105,2|0,1:2|0:0,0:0:0:0:
226,361,75695,5,0,3:0:0:0:
392,282,75853,1,0,3:0:0:0:
236,159,76011,1,2,1:2:0:0:
370,364,76169,1,2,0:0:0:0:
156,312,76334,6,0,P|107:324|40:308,1,105.000004005432,4|0,3:2|0:0,0:0:0:0:
11,119,76610,2,0,P|90:110|137:161,1,131.25000500679,2|0,1:2|0:0,0:0:0:0:
108,238,76959,1,0,3:0:0:0:
236,159,77116,1,0,3:0:0:0:
108,238,77274,1,2,1:2:0:0:
331,279,77432,5,0,3:0:0:0:
362,301,77511,1,0,3:0:0:0:
328,332,77590,1,6,1:2:0:0:
237,313,77748,1,0,3:0:0:0:
412,162,77906,5,2,1:2:0:0:
137,244,78064,1,0,3:0:0:0:
53,70,78222,5,2,1:2:0:0:
360,131,78380,1,0,3:0:0:0:
113,82,78538,5,2,1:2:0:0:
384,34,78695,1,0,3:0:0:0:
100,121,78860,6,0,B|92:119|92:119|133:230,1,105.000004005432,4|0,1:2|0:0,0:0:0:0:
131,234,79097,1,0,0:0:0:0:
167,224,79175,1,0,0:0:0:0:
196,201,79254,1,0,0:0:0:0:
219,171,79333,1,0,0:0:0:0:
245,143,79412,1,0,0:0:0:0:
268,122,79491,1,0,0:0:0:0:
302,110,79570,1,0,0:0:0:0:
338,146,79649,1,0,0:0:0:0:
344,192,79728,1,0,0:0:0:0:
358,234,79807,1,0,0:0:0:0:
395,257,79886,1,0,0:0:0:0:
440,266,79965,1,0,0:0:0:0:
488,260,80044,1,0,0:0:0:0:
508,228,80124,6,0,B|499:201|499:201|480:162|480:162,1,52.5000020027161,4|0,3:2|0:0,0:0:0:0:
382,32,80282,2,0,B|412:77|412:77|360:150,1,131.25000500679,2|0,0:2|1:0,0:0:0:0:
88,77,80637,2,0,P|72:134|111:174,1,105.000004005432
184,159,80913,2,0,P|181:131|204:105,1,52.5000020027161,0|0,3:0|0:0,0:0:0:0:
226,105,81064,1,0,1:0:0:0:
229,251,81229,6,0,B|275:240|275:240|293:262|348:263,1,105.000004005432,2|0,0:0|3:0,0:0:0:0:
414,169,81538,5,0,3:0:0:0:
222,319,81703,2,0,B|197:327|198:326|189:336|161:323,1,52.5000020027161,0|0,1:0|0:0,0:0:0:0:
104,295,81860,2,0,B|147:259|111:251|111:251|133:198,1,105.000004005432,2|0,3:2|0:0,0:0:0:0:
319,85,82169,1,0,3:0:0:0:
279,178,82327,5,0,1:0:0:0:
85,132,82532,2,0,P|98:151|103:173,1,45.4999979171754,2|0,0:0|0:0,0:0:0:0:
117,208,82689,1,0,0:0:0:0:
116,227,82767,1,0,0:0:0:0:
120,246,82846,1,0,0:0:0:0:
128,264,82925,1,0,0:0:0:0:
139,280,83004,1,0,0:0:0:0:
153,294,83083,1,0,0:0:0:0:
169,306,83162,1,0,0:0:0:0:
186,315,83241,1,0,0:0:0:0:
204,323,83320,1,0,0:0:0:0:
223,328,83399,1,0,0:0:0:0:
242,331,83478,1,0,0:0:0:0:
262,333,83557,1,0,0:0:0:0:
281,332,83636,1,0,0:0:0:0:
301,328,83715,1,0,0:0:0:0:
320,323,83794,1,0,0:0:0:0:
337,315,83873,1,0,0:0:0:0:
354,305,83952,1,0,0:0:0:0:
370,293,84031,1,0,0:0:0:0:
383,279,84110,1,0,0:0:0:0:
395,263,84189,1,0,0:0:0:0:
404,246,84267,1,0,0:0:0:0:
412,228,84346,1,0,0:0:0:0:
417,209,84425,1,0,0:0:0:0:
419,189,84504,1,0,0:0:0:0:
418,170,84583,1,0,0:0:0:0:
415,150,84662,1,0,0:0:0:0:
409,132,84741,1,0,0:0:0:0:
400,114,84820,1,0,0:0:0:0:
389,98,84899,1,0,0:0:0:0:
375,84,84978,1,0,0:0:0:0:
360,72,85057,1,0,0:0:0:0:
233,51,85169,5,6,3:2:0:0:
271,292,85327,1,0,0:0:0:0:
132,140,85485,1,0,1:0:0:0:
73,312,85643,5,2,3:2:0:0:
205,263,85966,2,0,L|190:146,1,113.749994792938,2|0,3:2|1:0,0:0:0:0:
322,76,86282,2,0,L|318:177,1,90.9999958343508,2|0,0:0|3:0,0:0:0:0:
241,141,86597,1,0,0:0:0:0:
410,224,86755,1,0,1:0:0:0:
258,331,86913,1,0,0:0:0:0:
132,324,87064,5,8,0:3:0:0:
126,296,87142,1,4,1:3:0:0:
121,270,87221,1,0,1:0:0:0:
117,244,87300,1,0,1:0:0:0:
112,218,87379,1,0,1:0:0:0:
46,167,87538,1,0,3:0:0:0:
294,83,87695,5,0,1:2:0:0:
88,161,87853,1,0,1:0:0:0:
88,161,88011,1,0,3:0:0:0:
178,55,88169,5,0,1:0:0:0:
295,316,88327,1,0,1:0:0:0:
295,316,88485,1,0,3:0:0:0:
329,191,88643,5,0,1:0:0:0:
119,306,88801,1,0,1:0:0:0:
