osu file format v14

[General]
AudioFilename: audio.mp3
AudioLeadIn: 0
PreviewTime: 39616
Countdown: 0
SampleSet: Soft
StackLeniency: 0.7
Mode: 0
LetterboxInBreaks: 0
WidescreenStoryboard: 1

[Editor]
Bookmarks: 25794,39693,59903,80114,85170,88803
DistanceSpacing: 1.14
BeatDivisor: 4
GridSize: 32
TimelineZoom: 2.5

[Metadata]
Title:Seishun Complex (TV Size)
TitleUnicode:青春コンプレックス (TV Size)
Artist:kessoku band
ArtistUnicode:結束バンド
Creator:chaser01
Version:hard
Source:ぼっち・ざ・ろっく!
Tags:xiqingwa tin frog lewski mocaotic _karaage anime opening bocchi the rock 音羽 otoha 樋口愛 higuchi ai 三井律郎 mitsui ritsuo japanese jrock
BeatmapID:3907130
BeatmapSetID:1891901

[Difficulty]
HPDrainRate:4
CircleSize:3.8
OverallDifficulty:7
ApproachRate:7.8
SliderMultiplier:1.4
SliderTickRate:1

[Events]
//Background and Video events
Video,0,"hitoribocchee.mp4"
0,0,"bo.jpg",0,0
//Break Periods
//Storyboard Layer 0 (Background)
//Storyboard Layer 1 (Fail)
//Storyboard Layer 2 (Pass)
//Storyboard Layer 3 (Foreground)
//Storyboard Layer 4 (Overlay)
//Storyboard Sound Samples

[TimingPoints]
527,321.500334896182,4,2,2,60,1,0
1491,307.692307692308,4,2,2,60,1,0
2106,285.714285714286,4,2,2,60,1,0
2106,-133.333333333333,4,2,2,60,0,0
2391,335.664335664336,4,2,2,60,1,0
3062,315.789473684211,4,2,2,60,1,0
3062,-133.333333333333,4,2,2,60,0,0
5588,320.855614973262,4,2,2,60,1,0
5748,-133.333333333333,4,2,2,60,0,0
6871,310.880829015544,4,2,2,60,1,0
7337,-133.333333333333,4,2,2,60,0,0
8114,319.148936170213,4,2,2,60,1,0
8114,-133.333333333333,4,2,2,60,0,0
9390,315.789473684211,4,2,2,60,1,0
9390,-133.333333333333,4,2,2,60,0,0
11916,300,4,2,2,60,1,0
12216,317.460317460317,4,2,2,60,1,0
12850,-133.333333333333,4,2,2,60,0,0
13168,315.789473684211,4,2,2,55,1,0
13168,-121.951219512195,4,2,2,55,0,0
20746,318.302387267905,4,2,2,55,1,0
20746,-121.951219512195,4,2,2,55,0,0
22337,314.96062992126,4,2,2,55,1,0
22966,304.568527918782,4,2,2,55,1,0
23270,295.566502463054,4,2,2,65,1,0
23713,324.324324324324,4,2,2,65,1,0
23875,324.324324324324,4,2,2,65,1,0
24523,324.324324324324,4,2,2,65,1,0
24847,315.789473684211,4,2,2,65,1,0
25794,303.030303030303,4,2,2,65,1,0
26248,324.324324324324,4,2,2,65,1,0
26410,324.324324324324,4,2,2,65,1,0
26734,315.789473684211,4,2,2,65,1,0
27049,315.789473684211,4,2,2,65,1,0
27996,329.67032967033,4,2,2,65,1,0
28325,315.789473684211,4,2,2,60,1,0
28325,-111.111111111111,4,2,2,60,0,0
39693,-90.9090909090909,4,2,2,75,0,0
59903,-100,4,2,2,75,0,0
80114,-100,4,2,2,70,0,0
84219,285.714285714286,4,2,2,70,1,0
84504,319.148936170213,4,2,2,70,1,0
85142,342.857142857143,4,2,2,55,1,0
85484,315.789473684211,4,2,2,55,1,0
86431,311.688311688312,4,2,2,55,1,0
87366,338.983050847458,4,2,2,55,1,0
87704,321.71581769437,4,2,2,60,1,0

[Colours]
Combo1 : 255,233,72
Combo2 : 237,35,176
Combo3 : 241,48,37
Combo4 : 71,126,254

[HitObjects]
107,186,527,5,8,2:0:0:0:
399,191,1009,5,8,2:0:0:0:
117,193,1491,5,8,2:0:0:0:
252,197,2106,6,0,L|256:163,3,35.0000013351441,0|0|0|0,2:0|2:0|2:0|2:0,2:0:0:0:
421,278,3062,6,0,P|373:339|338:41,1,840.000032043458,4|0,1:2|1:2,2:0:0:0:
402,89,5748,2,0,P|441:86|466:81,1,52.5000000000001,0|8,2:0|2:0,2:0:0:0:
512,151,6069,2,0,P|481:154|395:189,1,105,8|0,2:0|1:2,2:0:0:0:
454,243,6550,2,0,P|493:251|529:251,1,52.5000000000001,8|0,2:0|2:0,2:0:0:0:
490,329,6871,5,0,1:2:0:0:
259,377,7181,1,8,2:0:0:0:
191,333,7337,2,0,L|194:302,2,26.2500000000001,8|4|0,1:3|1:3|1:3,2:0:0:0:
123,375,7648,1,0,1:3:0:0:
59,331,7803,2,0,L|-1:316,1,52.5000000000001,8|0,2:0|1:3,2:0:0:0:
111,246,8114,6,0,P|156:239|185:227,1,52.5000000000001,4|0,1:2|2:0,2:0:0:0:
176,161,8433,1,8,2:0:0:0:
176,161,8592,2,0,P|228:168|281:182,1,105,8|0,2:0|1:2,2:0:0:0:
291,257,9071,2,0,P|318:264|361:268,1,52.5000000000001,8|0,2:0|2:0,2:0:0:0:
440,282,9390,6,0,L|464:400,2,105,0|8|0,1:2|2:0|1:2,2:0:0:0:
396,217,10179,1,0,1:2:0:0:
478,187,10337,1,8,2:0:0:0:
250,188,10653,6,0,P|201:180|185:175,2,52.5000000000001,0|0|8,1:2|2:0|2:0,2:0:0:0:
227,104,11126,2,0,P|178:96|162:91,1,52.5000000000001,8|0,2:0|2:0,2:0:0:0:
199,19,11442,1,0,1:0:0:0:
199,19,11600,2,0,P|150:10|130:4,1,52.5000000000001,8|0,2:0|2:0,2:0:0:0:
64,46,11916,5,0,1:2:0:0:
293,21,12216,1,8,2:0:0:0:
356,80,12374,1,8,1:3:0:0:
356,80,12454,1,4,1:3:0:0:
356,80,12533,1,0,1:3:0:0:
414,27,12692,1,0,1:3:0:0:
480,66,12850,2,0,L|495:132,1,52.5000000000001,8|2,2:0|1:2,2:0:0:0:
415,192,13168,6,0,P|415:236|394:317,1,114.8,6|10,1:2|2:0,2:0:0:0:
312,345,13641,2,0,P|312:301|333:220,1,114.8,10|2,2:0|1:2,2:0:0:0:
254,206,14115,2,0,P|216:225|190:231,1,57.4000000000001,8|2,2:0|2:0,2:0:0:0:
120,197,14431,2,0,P|77:173|64:101,2,114.8,2|8|2,1:2|2:0|1:2,2:0:0:0:
96,276,15220,1,0,1:2:0:0:
96,276,15378,2,0,L|35:290,1,57.4000000000001,8|2,2:0|2:0,2:0:0:0:
146,354,15694,6,0,P|226:370|276:376,1,114.8,2|10,1:2|2:0,2:0:0:0:
367,316,16168,2,0,P|287:300|237:294,1,114.8,10|2,2:0|1:2,2:0:0:0:
373,236,16641,2,0,P|402:238|442:236,1,57.4000000000001,8|2,2:0|2:0,2:0:0:0:
486,163,16957,2,0,P|501:130|448:58,1,114.8,2|10,1:2|2:0,2:0:0:0:
393,38,17431,1,8,1:3:0:0:
393,38,17589,2,0,P|349:44|323:46,1,57.4000000000001,2|0,1:2|1:2,2:0:0:0:
270,7,17904,2,0,P|240:8|203:9,1,57.4000000000001,8|2,2:0|2:0,2:0:0:0:
278,97,18220,6,0,B|281:154|301:143|306:228,1,114.8,2|10,1:2|2:0,2:0:0:0:
380,246,18694,1,10,2:0:0:0:
380,246,18852,2,0,P|388:288|394:316,1,57.4000000000001,2|2,2:0|1:2,2:0:0:0:
469,299,19168,2,0,P|477:341|483:369,1,57.4000000000001,10|2,2:0|2:0,2:0:0:0:
366,379,19483,2,0,P|315:375|272:315,1,114.8,2|10,1:2|2:0,2:0:0:0:
206,361,19957,1,2,2:0:0:0:
206,361,20115,2,0,P|159:368|73:391,1,114.8,2|8,1:2|2:0,2:0:0:0:
0,138,20746,6,0,P|47:131|82:122,1,57.4000000000001,2|2,1:2|2:0,2:0:0:0:
123,39,21064,2,0,P|76:46|41:55,1,57.4000000000001,10|10,2:0|2:0,2:0:0:0:
181,105,21382,1,2,2:0:0:0:
181,105,21541,1,0,1:2:0:0:
268,55,21700,2,0,P|278:29|283:-7,1,57.4000000000001,10|0,2:0|2:0,2:0:0:0:
232,161,22019,2,0,P|249:191|276:220,1,57.4000000000001,0|0,1:2|1:2,2:0:0:0:
360,188,22337,5,8,2:0:0:0:
122,240,22651,1,8,2:0:0:0:
409,292,22966,1,8,1:3:0:0:
59,357,23270,6,0,L|125:368,1,35,4|0,1:2|2:0,2:0:0:0:
105,373,23417,2,0,P|153:371|198:363,1,70,0|8,2:0|1:3,2:0:0:0:
258,296,23713,2,0,P|270:255|256:148,1,140,4|0,1:2|1:2,2:0:0:0:
195,114,24199,1,8,2:0:0:0:
307,51,24361,2,0,P|329:80|339:117,2,70,0|0|8,1:2|2:0|2:0,2:0:0:0:
212,11,24847,5,0,1:2:0:0:
212,11,25004,1,8,2:0:0:0:
116,67,25162,1,0,1:2:0:0:
116,67,25320,1,8,2:0:0:0:
14,34,25478,1,8,1:3:0:0:
14,34,25636,1,0,2:0:0:0:
0,160,25794,5,8,1:2:0:0:
0,160,25869,1,8,1:2:0:0:
0,160,25945,2,0,L|50:174,2,35,8|0|0,1:3|1:0|1:0,2:0:0:0:
83,260,26248,2,0,P|93:292|97:333,1,70,4|0,1:2|2:0,2:0:0:0:
219,315,26572,2,0,P|224:357|223:392,1,70,4|8,1:2|2:0,2:0:0:0:
346,299,26891,2,0,P|353:261|336:144,1,140,4|0,1:2|1:2,2:0:0:0:
276,108,27364,6,0,P|240:104|203:96,1,70,0|8,1:2|1:2,2:0:0:0:
187,9,27680,2,0,P|241:21|274:27,1,70,0|0,1:2|1:2,2:0:0:0:
359,48,27996,1,0,1:2:0:0:
370,50,28078,1,8,1:3:0:0:
379,52,28160,1,12,1:3:0:0:
388,54,28243,1,0,2:0:0:0:
397,57,28325,6,0,P|431:79|457:170,1,126,6|8,1:2|2:0,2:0:0:0:
511,211,28798,1,2,1:2:0:0:
420,239,28956,2,0,P|370:247|346:249,1,63.0000000000001,2|2,2:0|1:2,2:0:0:0:
353,327,29272,2,0,P|309:325|273:315,1,63.0000000000001,10|2,2:0|2:0,2:0:0:0:
237,379,29588,2,0,B|178:361|192:385|102:358,2,126,2|10|2,1:2|2:0|2:0,2:0:0:0:
281,317,30377,1,0,1:2:0:0:
356,338,30535,2,0,P|386:356|417:394,1,63.0000000000001,8|2,2:0|2:0,2:0:0:0:
312,242,30851,6,0,P|314:207|326:169,1,63.0000000000001,0|2,1:2|2:0,2:0:0:0:
412,132,31167,2,0,P|410:167|398:205,1,63.0000000000001,8|2,2:0|1:2,2:0:0:0:
334,102,31482,1,2,2:0:0:0:
334,102,31640,1,2,1:2:0:0:
228,128,31798,2,0,L|155:145,1,63.0000000000001,8|2,2:0|2:0,2:0:0:0:
72,113,32114,2,0,P|113:86|129:11,2,126,2|8|2,1:2|2:0|2:0,2:0:0:0:
21,52,32903,1,0,1:2:0:0:
1,158,33061,2,0,P|2:192|7:229,1,63.0000000000001,8|8,2:0|2:0,2:0:0:0:
15,225,33298,1,8,2:0:0:0:
23,230,33377,6,0,B|72:218|64:252|175:222,1,126,6|8,1:2|2:0,2:0:0:0:
221,259,33851,1,2,1:2:0:0:
171,322,34009,2,0,P|140:341|94:358,1,63.0000000000001,2|2,2:0|1:2,2:0:0:0:
238,363,34325,2,0,P|277:356|313:336,1,63.0000000000001,8|2,2:0|2:0,2:0:0:0:
349,284,34640,1,2,1:2:0:0:
349,284,34798,1,2,2:0:0:0:
455,301,34956,2,0,P|462:239|456:157,2,126,10|2|8,2:0|2:0|2:0,2:0:0:0:
274,83,35903,6,0,P|273:33|281:-3,1,63.0000000000001,2|2,1:2|2:0,2:0:0:0:
359,66,36219,2,0,P|360:116|352:152,1,63.0000000000001,10|2,2:0|1:2,2:0:0:0:
290,166,36535,1,2,2:0:0:0:
290,166,36693,1,2,1:2:0:0:
178,136,36851,2,0,L|88:117,1,63.0000000000001,8|2,2:0|2:0,2:0:0:0:
79,230,37167,2,0,L|6:218,1,63.0000000000001,2|0,1:2|1:2,2:0:0:0:
89,347,37482,2,0,L|16:335,1,63.0000000000001,10|0,2:0|2:0,2:0:0:0:
206,379,37798,5,0,1:2:0:0:
221,378,37877,1,0,1:2:0:0:
236,376,37956,1,0,1:2:0:0:
251,374,38035,1,0,1:2:0:0:
266,371,38114,2,0,L|312:365,4,31.5,8|8|8|8|0,1:3|1:3|1:3|1:3|1:2,2:0:0:0:
111,278,38746,5,0,1:2:0:0:
375,265,39061,5,0,1:2:0:0:
129,139,39377,5,0,1:2:0:0:
364,95,39693,6,0,B|444:107|432:130|532:132,1,154,6|8,1:2|2:0,2:0:0:0:
466,43,40167,1,0,2:0:0:0:
359,12,40325,2,0,P|304:32|276:39,1,77,2|0,1:2|1:2,2:0:0:0:
214,95,40640,2,0,P|256:115|299:127,1,77,8|0,2:0|2:0,2:0:0:0:
243,220,40956,5,2,1:2:0:0:
166,244,41114,1,0,2:0:0:0:
107,194,41272,1,8,2:0:0:0:
181,168,41430,1,0,2:0:0:0:
163,258,41588,2,0,P|144:309|119:339,1,77,2|0,1:2|1:2,2:0:0:0:
241,382,41903,2,0,P|261:349|273:313,1,77,8|0,2:0|2:0,2:0:0:0:
385,280,42219,6,0,P|386:229|347:116,2,154,2|8|0,1:2|2:0|1:2,2:0:0:0:
354,351,43009,1,0,1:2:0:0:
436,360,43167,2,0,P|499:367|524:370,1,77,10|0,2:0|2:0,2:0:0:0:
512,236,43482,2,0,P|449:243|424:246,1,77,2|0,1:2|2:0,2:0:0:0:
363,141,43798,2,0,P|426:148|451:151,1,77,10|0,2:0|2:0,2:0:0:0:
488,83,44114,1,2,1:2:0:0:
488,83,44193,1,0,1:3:0:0:
488,83,44272,1,2,1:2:0:0:
373,34,44430,2,0,P|330:22|211:42,1,154,10|4,2:0|1:2,2:0:0:0:
0,209,45061,6,0,P|46:206|159:242,2,154,8|0|10,2:0|1:3|2:0,2:0:0:0:
87,292,45851,1,0,2:0:0:0:
166,308,46009,2,0,P|207:305|245:291,1,77,2|0,1:2|2:0,2:0:0:0:
292,353,46325,2,0,P|342:327|370:301,1,77,10|0,2:0|2:0,2:0:0:0:
437,299,46640,2,0,L|443:348,2,38.5,0|0|0,1:2|1:2|1:2,2:0:0:0:
343,231,46956,2,0,P|341:169|353:105,1,115.5,10|0,2:0|2:0,2:0:0:0:
337,113,47272,6,0,L|258:129,1,77,2|0,1:2|2:0,2:0:0:0:
151,66,47588,2,0,P|186:62|230:50,1,77,10|0,2:0|2:0,2:0:0:0:
164,171,47903,1,2,1:2:0:0:
164,171,48061,1,0,1:2:0:0:
31,155,48219,2,0,P|21:120|23:0,2,154,10|2|12,2:0|1:2|2:0,2:0:0:0:
201,361,49167,1,0,1:2:0:0:
214,363,49246,1,0,1:2:0:0:
226,363,49325,1,8,1:2:0:0:
238,366,49403,1,8,1:2:0:0:
250,368,49482,2,0,L|305:374,3,38.5,8|8|8|8,1:2|1:2|1:2|1:2,2:0:0:0:
298,367,49798,6,0,B|279:312|322:288|288:195,1,154,6|8,1:2|2:0,2:0:0:0:
223,181,50272,1,0,2:0:0:0:
162,262,50430,2,0,P|108:276|75:278,1,77,2|0,1:2|1:2,2:0:0:0:
1,211,50746,2,0,P|39:206|75:195,1,77,8|0,2:0|2:0,2:0:0:0:
88,79,51061,5,2,1:2:0:0:
158,122,51219,1,0,2:0:0:0:
190,42,51377,1,8,2:0:0:0:
262,88,51535,1,0,2:0:0:0:
325,29,51693,2,0,P|381:16|425:12,1,77,2|0,1:2|1:2,2:0:0:0:
494,100,52009,2,0,P|456:116|406:125,1,77,8|0,2:0|2:0,2:0:0:0:
458,225,52325,6,0,P|392:220|292:181,2,154,2|8|0,1:2|2:0|1:2,2:0:0:0:
500,291,53114,1,0,1:2:0:0:
430,351,53272,2,0,P|390:357|355:369,1,77,10|0,2:0|2:0,2:0:0:0:
269,329,53588,2,0,P|262:285|263:247,1,77,2|0,1:2|2:0,2:0:0:0:
209,164,53903,2,0,P|169:158|134:146,1,77,10|0,2:0|2:0,2:0:0:0:
57,131,54219,1,2,1:2:0:0:
57,131,54298,1,0,1:3:0:0:
57,131,54377,1,2,1:2:0:0:
120,232,54535,2,0,P|130:281|134:394,1,154,10|4,2:0|1:2,2:0:0:0:
339,209,55167,6,0,P|352:133|353:56,2,154,10|0|10,2:0|1:2|2:0,2:0:0:0:
256,202,55956,2,0,P|269:261|284:291,1,77,2|0,2:0|1:2,2:0:0:0:
353,328,56272,1,2,2:0:0:0:
353,328,56430,2,0,L|509:348,1,154,10|0,2:0|1:2,2:0:0:0:
192,370,57061,6,0,L|104:387,1,77,8|0,2:0|2:0,2:0:0:0:
31,326,57377,2,0,P|13:277|18:239,1,77,2|0,1:2|2:0,2:0:0:0:
127,194,57693,2,0,P|145:243|140:281,1,77,10|0,2:0|2:0,2:0:0:0:
40,167,58009,2,0,P|62:121|90:92,1,77,2|0,1:2|1:2,2:0:0:0:
213,53,58325,2,0,P|191:99|163:128,1,77,10|0,2:0|2:0,2:0:0:0:
125,15,58640,1,2,1:2:0:0:
361,164,58956,6,0,P|410:180|539:195,1,154,12|8,2:0|2:0,2:0:0:0:
490,285,59430,1,2,2:0:0:0:
396,299,59588,1,2,1:2:0:0:
323,239,59746,1,8,2:0:0:0:
323,239,59825,1,8,2:0:0:0:
323,239,59903,6,0,P|240:264|166:305,2,140,6|8|2,1:2|2:0|1:2,2:0:0:0:
373,163,60693,1,0,1:2:0:0:
292,121,60851,2,0,P|278:80|274:39,1,70,8|0,2:0|2:0,2:0:0:0:
171,13,61167,2,0,P|131:57|31:59,2,140,2|8|2,1:2|2:0|1:2,2:0:0:0:
203,94,61956,1,0,1:2:0:0:
117,144,62114,2,0,P|61:157|29:160,1,70,8|0,2:0|2:0,2:0:0:0:
82,264,62430,6,0,B|157:274|120:288|240:294,1,140,2|8,1:2|2:0,2:0:0:0:
442,342,63061,2,0,B|367:352|404:366|284:372,1,140,0|10,1:2|2:0,2:0:0:0:
230,361,63535,1,0,2:0:0:0:
297,288,63693,2,0,P|308:251|308:216,1,70,2|0,1:2|2:0,2:0:0:0:
403,212,64009,2,0,P|392:178|369:146,1,70,10|0,2:0|2:0,2:0:0:0:
370,61,64325,1,2,1:2:0:0:
284,86,64482,1,2,1:2:0:0:
218,27,64640,2,0,P|166:31|67:33,1,140,10|4,2:0|1:2,2:0:0:0:
199,108,65114,5,0,2:0:0:0:
253,162,65272,2,0,P|264:205|266:256,1,70,8|0,2:0|2:0,2:0:0:0:
316,326,65588,2,0,P|340:283|351:191,2,140,0|10|2,1:3|2:0|1:2,2:0:0:0:
259,381,66377,1,0,2:0:0:0:
172,337,66535,2,0,P|120:327|75:326,1,70,10|0,2:0|2:0,2:0:0:0:
106,246,66851,2,0,P|72:255|40:269,1,70,0|0,1:2|1:2,2:0:0:0:
5,198,67167,1,10,2:0:0:0:
293,120,67482,6,0,B|355:97|344:128|460:88,2,140,2|10|2,1:2|2:0|1:2,2:0:0:0:
288,196,68272,1,0,1:2:0:0:
382,214,68430,2,0,P|422:216|482:226,1,70,10|0,2:0|2:0,2:0:0:0:
507,273,68746,1,2,1:2:0:0:
274,369,69061,6,0,B|207:358|231:383|108:348,1,140,12|0,2:0|1:2,2:0:0:0:
81,282,69535,2,0,L|30:269,2,35,8|8|8,1:2|1:2|1:2,2:0:0:0:
170,239,69851,1,8,1:2:0:0:
170,239,69930,1,8,1:2:0:0:
170,239,70009,6,0,P|176:188|172:93,2,140,6|8|2,1:2|2:0|1:2,2:0:0:0:
95,275,70798,1,0,1:2:0:0:
180,323,70956,2,0,P|225:342|262:351,1,70,8|0,2:0|2:0,2:0:0:0:
370,335,71272,2,0,P|322:314|300:212,2,140,2|8|2,1:2|2:0|1:2,2:0:0:0:
462,380,72061,1,0,1:2:0:0:
475,287,72219,1,8,2:0:0:0:
207,203,72535,6,0,B|148:190|167:215|46:181,1,140,2|8,1:2|2:0,2:0:0:0:
331,91,73167,2,0,B|390:78|371:103|492:69,1,140,0|10,1:2|2:0,2:0:0:0:
506,146,73640,1,0,2:0:0:0:
406,181,73798,2,0,P|363:176|330:164,1,70,2|0,1:2|2:0,2:0:0:0:
260,174,74114,2,0,P|241:139|234:99,1,70,10|0,2:0|2:0,2:0:0:0:
242,36,74430,1,2,1:2:0:0:
242,36,74588,1,2,1:2:0:0:
146,107,74746,2,0,P|71:131|1:137,1,140,10|4,2:0|1:2,2:0:0:0:
254,240,75377,6,0,P|320:262|389:270,2,140,10|0|10,2:0|1:2|2:0,2:0:0:0:
174,248,76167,2,0,P|162:286|164:330,1,70,2|0,2:0|1:2,2:0:0:0:
112,379,76482,1,2,2:0:0:0:
24,322,76640,2,0,P|6:274|8:185,1,140,10|0,2:0|1:2,2:0:0:0:
85,204,77114,1,0,1:2:0:0:
45,108,77272,2,0,P|28:78|3:51,1,70,8|0,2:0|1:2,2:0:0:0:
160,110,77588,5,14,2:0:0:0:
362,26,77903,1,10,2:0:0:0:
503,203,78219,1,10,2:0:0:0:
372,382,78535,1,10,2:0:0:0:
156,297,78851,2,0,P|169:235|216:192,1,105,14|0,2:0|1:2,2:0:0:0:
195,204,79167,5,0,1:2:0:0:
297,262,79325,1,0,1:2:0:0:
341,168,79482,1,0,1:2:0:0:
356,164,79561,1,0,1:2:0:0:
371,158,79640,1,8,1:2:0:0:
385,154,79719,1,8,1:2:0:0:
397,151,79798,2,0,L|441:134,3,35,8|8|8|8,1:2|1:2|1:2|1:2,2:0:0:0:
433,128,80114,6,0,B|377:108|376:141|263:100,1,140,4|8,1:2|2:0,2:0:0:0:
250,46,80588,2,0,P|187:62|158:152,1,140,0|0,1:2|1:2,2:0:0:0:
220,167,81061,1,8,2:0:0:0:
115,205,81219,2,0,P|69:218|20:223,1,70,0|0,2:0|1:2,2:0:0:0:
15,299,81535,1,0,1:2:0:0:
70,361,81693,1,8,2:0:0:0:
141,298,81851,2,0,P|206:293|302:332,1,140,0|0,1:2|1:2,2:0:0:0:
320,377,82325,2,0,P|353:343|362:306,1,70,8|0,2:0|2:0,2:0:0:0:
424,243,82640,6,0,P|446:273|484:295,2,70,0|0|8,1:2|2:0|2:0,2:0:0:0:
344,172,83114,2,0,P|289:157|184:151,1,140,0|0,1:2|1:2,2:0:0:0:
135,115,83588,2,0,P|110:144|91:183,1,70,8|0,2:0|2:0,2:0:0:0:
107,46,83903,1,0,1:2:0:0:
214,50,84061,2,0,P|251:58|296:65,1,70,0|8,1:2|2:0,2:0:0:0:
386,26,84361,1,0,0:0:0:0:
386,26,84504,1,0,1:2:0:0:
459,104,84663,1,8,2:0:0:0:
459,104,84743,1,8,2:0:0:0:
459,104,84823,2,0,L|471:152,2,35,0|0|8,1:2|1:2|1:3,2:0:0:0:
368,184,85142,5,4,1:2:0:0:
298,155,85313,1,0,2:0:0:0:
265,227,85484,1,8,2:0:0:0:
193,201,85641,1,0,1:2:0:0:
379,265,85957,1,0,1:2:0:0:
150,291,86273,1,0,2:0:0:0:
416,345,86586,1,0,1:2:0:0:
106,365,86898,1,0,2:0:0:0:
215,372,87054,5,8,2:0:0:0:
224,373,87132,1,8,2:0:0:0:
234,374,87210,1,8,2:0:0:0:
243,375,87288,1,8,2:0:0:0:
252,377,87366,1,8,2:0:0:0:
130,260,87704,5,8,2:0:0:0:
130,260,87864,1,8,2:0:0:0:
371,174,88186,5,8,2:0:0:0:
371,174,88347,1,8,2:0:0:0:
187,61,88669,5,8,2:0:0:0:
187,61,88830,1,8,2:0:0:0:
