osu file format v14

[General]
AudioFilename: audio.mp3
AudioLeadIn: 0
PreviewTime: 39692
Countdown: 0
SampleSet: Soft
StackLeniency: 0.7
Mode: 3
LetterboxInBreaks: 0
SpecialStyle: 0
WidescreenStoryboard: 1

[Editor]
Bookmarks: 35903
DistanceSpacing: 1
BeatDivisor: 8
GridSize: 32
TimelineZoom: 1.8

[Metadata]
Title:Seishun Complex (TV Size)
TitleUnicode:青春コンプレックス (TV Size)
Artist:kessoku band
ArtistUnicode:結束バンド
Creator:DenYi
Version:Hard
Source:ぼっち・ざ・ろっく!
Tags:nicknem_ jpop j-pop pop japanese anime op opening Bocchi The Rock! Ai Higuchi 樋口愛 音羽-otoha- Otowa Otoha 三井律郎 Ritsuro Mitsui Aniplex Inc. Sony Music Solutions SVWC-70594 Ikuyo Kita 喜多郁代 Yamada Ryo Ryou 山田リョウ Nijika Ijichi 伊地知虹夏 Hitori Gotou 後藤ひと Bocchi-chan Hitori Gotoh guitarhero
BeatmapID:3903753
BeatmapSetID:1894317

[Difficulty]
HPDrainRate:7.5
CircleSize:4
OverallDifficulty:7.5
ApproachRate:5
SliderMultiplier:1.4
SliderTickRate:1

[Events]
//Background and Video events
0,0,"bg3.jpg",0,0
Video,0,"op.mp4"
//Break Periods
//Storyboard Layer 0 (Background)
//Storyboard Layer 1 (Fail)
//Storyboard Layer 2 (Pass)
//Storyboard Layer 3 (Foreground)
//Storyboard Layer 4 (Overlay)
//Storyboard Sound Samples
Sample,27377,0,"Tom3.wav",40
Sample,27929,0,"Tom3.wav",30
Sample,28008,0,"Tom3.wav",30
Sample,28087,0,"Tom3.wav",30
Sample,81377,0,"LR_Hat Finish.wav",50
Sample,83903,0,"LR_Hat Finish.wav",50
Sample,84219,0,"LR_Hat Finish.wav",50

[TimingPoints]
535,315.789473684211,4,2,1,50,1,0
39692,-100.0,4,2,1,50,0,1
49166,-100.0,4,2,1,50,0,0
49798,-100.0,4,2,1,50,0,1
59271,-100.0,4,2,1,50,0,0
59903,-100.0,4,2,1,50,0,1
69377,-100.0,4,2,1,50,0,0
70008,-100.0,4,2,1,50,0,1
80113,-100.0,4,2,1,50,0,0

[HitObjects]
64,192,535,1,2,0:0:0:33:
192,192,535,1,0,0:0:0:45:cymbal_short.wav
320,192,535,1,0,0:0:0:0:
64,192,1035,1,2,0:0:0:33:
320,192,1035,1,0,0:0:0:45:cymbal_short.wav
448,192,1035,1,0,0:0:0:0:
192,192,1482,1,2,0:0:0:33:
320,192,1482,1,0,0:0:0:45:cymbal_short.wav
448,192,1482,1,0,0:0:0:0:
64,192,2113,1,0,0:0:0:0:
192,192,2192,1,0,0:0:0:0:
320,192,2291,1,0,0:0:0:0:
64,192,2390,1,4,0:0:0:66:
448,192,2390,128,0,2725:0:0:0:0:
64,192,3061,1,4,0:0:0:22:
192,192,3061,128,2,3219:0:0:0:22:
448,192,3061,1,0,0:0:0:22:LR4_BassKickReverbXD.wav
320,192,3219,128,0,3377:0:0:0:0:
64,192,3377,1,8,0:0:0:66:
448,192,3377,1,0,0:0:0:0:
64,192,3535,128,8,3692:0:0:0:66:
448,192,3535,128,0,3692:0:0:0:0:
192,192,3692,1,0,0:0:0:0:
320,192,3850,128,2,4008:0:0:0:66:
448,192,3850,1,0,0:0:0:0:
64,192,4008,1,8,0:0:0:66:
192,192,4008,1,0,0:0:0:0:
192,192,4166,128,0,4324:0:0:0:0:
64,192,4324,1,2,0:0:0:66:
448,192,4324,1,0,0:0:0:0:
320,192,4482,128,0,4640:0:0:0:0:
192,192,4640,1,8,0:0:0:66:
448,192,4640,1,0,0:0:0:0:
192,192,4798,1,0,0:0:0:0:
320,192,4877,1,0,0:0:0:0:
64,192,4956,1,2,0:0:0:66:
448,192,4956,128,0,5113:0:0:0:0:
64,192,5113,128,2,5271:0:0:0:66:
320,192,5271,128,8,5429:0:0:0:66:
448,192,5271,1,0,0:0:0:0:
192,192,5429,128,0,5587:0:0:0:0:
64,192,5587,1,2,0:0:0:66:
448,192,5587,128,0,5745:0:0:0:0:
64,192,5745,128,0,5903:0:0:0:0:
192,192,5903,1,8,0:0:0:66:
320,192,5903,1,0,0:0:0:0:
192,192,6061,128,8,6219:0:0:0:66:
320,192,6061,128,0,6219:0:0:0:0:
64,192,6219,1,0,0:0:0:0:
320,192,6377,1,2,0:0:0:66:
448,192,6377,128,0,6535:0:0:0:0:
64,192,6535,1,8,0:0:0:66:
192,192,6535,1,0,0:0:0:0:
64,192,6692,128,0,6850:0:0:0:0:
192,192,6850,1,2,0:0:0:66:
320,192,6850,1,0,0:0:0:0:
448,192,7008,128,0,7166:0:0:0:0:
64,192,7166,1,8,0:0:0:66:
320,192,7166,1,0,0:0:0:0:
320,192,7324,1,0,0:0:0:40:Tom1.wav
192,192,7403,1,0,0:0:0:45:Tom2.wav
64,192,7482,128,2,7798:0:0:0:33:
448,192,7482,1,0,0:0:0:50:Tom3.wav
320,192,7640,1,2,0:0:0:66:
192,192,7798,1,8,0:0:0:66:
448,192,7798,1,0,0:0:0:0:
192,192,7956,1,2,0:0:0:66:
64,192,8113,1,2,0:0:0:33:
320,192,8113,128,4,8271:0:0:0:33:
448,192,8113,1,0,0:0:0:0:
192,192,8271,128,0,8429:0:0:0:0:
64,192,8429,1,8,0:0:0:66:
448,192,8429,1,0,0:0:0:0:
64,192,8587,128,8,8745:0:0:0:66:
448,192,8587,128,0,8745:0:0:0:0:
320,192,8745,1,0,0:0:0:0:
64,192,8903,1,2,0:0:0:66:
192,192,8903,128,0,9061:0:0:0:0:
320,192,9061,1,8,0:0:0:66:
448,192,9061,1,0,0:0:0:0:
320,192,9219,128,0,9377:0:0:0:0:
64,192,9377,1,2,0:0:0:66:
448,192,9377,1,0,0:0:0:0:
192,192,9535,128,0,9692:0:0:0:0:
64,192,9692,1,8,0:0:0:66:
320,192,9692,1,0,0:0:0:0:
320,192,9850,1,0,0:0:0:0:
192,192,9929,1,0,0:0:0:0:
64,192,10008,128,2,10166:0:0:0:66:
448,192,10008,1,0,0:0:0:0:
448,192,10166,128,2,10324:0:0:0:66:
64,192,10324,1,8,0:0:0:66:
192,192,10324,128,0,10482:0:0:0:0:
320,192,10482,128,0,10640:0:0:0:0:
64,192,10640,128,2,10798:0:0:0:66:
448,192,10640,1,0,0:0:0:0:
448,192,10798,128,0,10956:0:0:0:0:
192,192,10956,1,8,0:0:0:66:
320,192,10956,1,0,0:0:0:0:
192,192,11113,128,8,11271:0:0:0:66:
320,192,11113,128,0,11271:0:0:0:0:
448,192,11271,1,0,0:0:0:0:
64,192,11429,128,2,11587:0:0:0:66:
192,192,11429,1,0,0:0:0:0:
320,192,11587,1,8,0:0:0:66:
448,192,11587,1,0,0:0:0:0:
448,192,11745,128,0,11903:0:0:0:0:
64,192,11903,1,2,0:0:0:66:
192,192,11903,1,0,0:0:0:0:
320,192,12061,128,0,12219:0:0:0:0:
192,192,12219,1,8,0:0:0:66:
448,192,12219,1,0,0:0:0:0:
192,192,12377,128,0,12535:0:0:0:40:Tom1.wav
64,192,12535,1,2,0:0:0:33:
448,192,12535,128,0,12850:0:0:0:50:Tom3.wav
192,192,12692,1,2,0:0:0:66:
64,192,12850,128,8,13008:0:0:0:66:
320,192,12850,1,0,0:0:0:0:
192,192,13008,1,0,0:0:0:0:
64,192,13166,1,2,0:0:0:33:
320,192,13166,1,4,0:0:0:33:
448,192,13166,1,0,0:0:0:0:
320,192,13324,128,0,13482:0:0:0:0:
64,192,13482,1,8,0:0:0:66:
448,192,13482,1,0,0:0:0:0:
192,192,13640,1,8,0:0:0:66:
320,192,13640,1,0,0:0:0:0:
192,192,13798,128,0,13956:0:0:0:0:
64,192,13956,1,2,0:0:0:66:
320,192,13956,1,0,0:0:0:0:
192,192,14113,1,8,0:0:0:66:
448,192,14113,1,0,0:0:0:0:
448,192,14271,128,0,14429:0:0:0:0:
64,192,14429,1,2,0:0:0:66:
192,192,14429,1,0,0:0:0:0:
320,192,14587,1,0,0:0:0:0:
64,192,14745,1,8,0:0:0:66:
448,192,14745,1,0,0:0:0:0:
192,192,14903,1,0,0:0:0:0:
320,192,15061,1,2,0:0:0:66:
448,192,15061,1,0,0:0:0:0:
64,192,15219,1,2,0:0:0:66:
192,192,15219,1,0,0:0:0:0:
320,192,15377,1,8,0:0:0:66:
448,192,15377,1,0,0:0:0:0:
192,192,15535,1,0,0:0:0:0:
64,192,15692,1,2,0:0:0:66:
448,192,15692,1,0,0:0:0:0:
64,192,15850,128,0,16008:0:0:0:0:
320,192,16008,1,8,0:0:0:66:
448,192,16008,1,0,0:0:0:0:
64,192,16166,1,8,0:0:0:66:
192,192,16166,1,0,0:0:0:0:
192,192,16324,128,0,16482:0:0:0:0:
320,192,16482,1,2,0:0:0:66:
64,192,16640,1,8,0:0:0:66:
448,192,16640,1,0,0:0:0:0:
448,192,16798,128,0,16956:0:0:0:0:
64,192,16956,1,2,0:0:0:66:
192,192,16956,1,0,0:0:0:0:
320,192,17113,1,0,0:0:0:0:
64,192,17271,1,8,0:0:0:66:
448,192,17271,1,0,0:0:0:0:
192,192,17429,1,0,0:0:0:40:Tom1.wav
320,192,17508,1,0,0:0:0:45:Tom2.wav
64,192,17587,1,2,0:0:0:33:
448,192,17587,1,0,0:0:0:50:Tom3.wav
192,192,17745,1,2,0:0:0:66:
320,192,17745,1,0,0:0:0:0:
64,192,17903,1,8,0:0:0:66:
448,192,17903,1,0,0:0:0:0:
320,192,18061,1,0,0:0:0:0:
192,192,18219,1,2,0:0:0:66:
448,192,18219,1,0,0:0:0:0:
192,192,18377,128,0,18535:0:0:0:0:
320,192,18535,1,8,0:0:0:66:
448,192,18535,1,0,0:0:0:0:
64,192,18692,1,8,0:0:0:66:
192,192,18692,1,0,0:0:0:0:
64,192,18850,128,0,19008:0:0:0:0:
192,192,19008,1,2,0:0:0:66:
320,192,19008,1,0,0:0:0:0:
64,192,19166,1,8,0:0:0:66:
448,192,19166,1,0,0:0:0:0:
448,192,19324,128,0,19482:0:0:0:0:
64,192,19482,1,2,0:0:0:66:
192,192,19482,1,0,0:0:0:0:
320,192,19640,1,0,0:0:0:0:
64,192,19798,1,8,0:0:0:66:
448,192,19798,1,0,0:0:0:0:
192,192,19956,1,0,0:0:0:0:
320,192,20113,1,2,0:0:0:66:
448,192,20113,1,0,0:0:0:0:
64,192,20271,1,2,0:0:0:66:
192,192,20271,1,0,0:0:0:0:
320,192,20429,1,8,0:0:0:66:
448,192,20429,1,0,0:0:0:0:
192,192,20587,1,0,0:0:0:0:
64,192,20745,1,2,0:0:0:66:
448,192,20745,1,0,0:0:0:0:
448,192,20903,128,0,21061:0:0:0:0:
64,192,21061,1,8,0:0:0:66:
320,192,21061,1,0,0:0:0:0:
192,192,21219,1,8,0:0:0:66:
448,192,21219,1,0,0:0:0:0:
192,192,21377,128,0,21535:0:0:0:0:
320,192,21535,1,2,0:0:0:66:
64,192,21692,1,8,0:0:0:66:
448,192,21692,1,0,0:0:0:0:
64,192,21850,128,0,22008:0:0:0:0:
320,192,22008,1,2,0:0:0:66:
448,192,22008,1,0,0:0:0:0:
192,192,22166,128,2,22324:0:0:0:66:
64,192,22324,1,8,0:0:0:66:
448,192,22324,1,0,0:0:0:0:
448,192,22482,128,2,22640:0:0:0:66:
64,192,22640,1,8,0:0:0:66:
192,192,22640,1,0,0:0:0:0:
64,192,22798,128,2,22956:0:0:0:66:
320,192,22956,1,0,0:0:0:50:Tom1.wav
448,192,22956,1,0,0:0:0:0:
320,192,23113,128,0,23271:0:0:0:0:
64,192,23271,1,2,0:0:0:33:
448,192,23271,1,4,0:0:0:33:
192,192,23350,1,8,0:0:0:66:
448,192,23429,1,8,0:0:0:66:
320,192,23508,1,8,0:0:0:66:
192,192,23587,1,8,0:0:0:66:
64,192,23706,1,2,0:0:0:33:
448,192,23706,128,4,24061:0:0:0:33:
64,192,24061,1,2,0:0:0:66:
192,192,24061,1,0,0:0:0:0:
320,192,24219,1,8,0:0:0:66:
448,192,24219,1,0,0:0:0:0:
64,192,24377,128,2,24692:0:0:0:33:
448,192,24377,1,4,0:0:0:33:
192,192,24535,128,0,24692:0:0:0:0:
320,192,24692,128,8,24850:0:0:0:66:
448,192,24692,1,0,0:0:0:0:
64,192,24850,1,2,0:0:0:33:
192,192,24850,128,4,25166:0:0:0:33:
320,192,25008,128,8,25166:0:0:0:66:
448,192,25008,1,0,0:0:0:0:
64,192,25166,1,2,0:0:0:33:
448,192,25166,128,4,25482:0:0:0:33:
320,192,25324,128,8,25482:0:0:0:66:
64,192,25482,1,2,0:0:0:66:
192,192,25482,1,0,0:0:0:0:
448,192,25640,128,0,25798:0:0:0:0:
64,192,25798,1,10,0:0:0:33:
192,192,25877,1,8,0:0:0:66:
320,192,25956,1,8,0:0:0:66:
448,192,26035,1,8,0:0:0:66:
64,192,26113,1,8,0:0:0:66:
192,192,26113,1,0,0:0:0:0:
320,192,26271,128,2,26429:0:0:0:33:
448,192,26271,128,0,26429:0:0:0:45:cymbal_short.wav
64,192,26587,128,2,26745:0:0:0:33:
192,192,26587,128,0,26745:0:0:0:45:cymbal_short.wav
320,192,26745,1,8,0:0:0:66:
448,192,26745,1,0,0:0:0:0:
64,192,26903,128,2,27219:0:0:0:33:
192,192,26903,1,4,0:0:0:33:
448,192,26903,128,0,27219:0:0:0:0:
192,192,27219,1,0,0:0:0:40:Tom3.wav
320,192,27219,1,0,0:0:0:0:
320,192,27377,1,2,0:0:0:33:
64,192,27535,1,8,0:0:0:33:
192,192,27535,1,0,0:0:0:40:Tom3.wav
320,192,27692,1,2,0:0:0:33:
448,192,27692,1,0,0:0:0:40:Tom3.wav
64,192,27850,1,0,0:0:0:30:Tom3.wav
192,192,27929,1,8,0:0:0:33:
448,192,28008,1,10,0:0:0:22:
320,192,28087,1,8,0:0:0:33:
64,192,28166,1,8,0:0:0:33:
192,192,28166,1,0,0:0:0:30:Tom3.wav
64,192,28324,1,2,0:0:0:33:
320,192,28324,1,4,0:0:0:33:
448,192,28324,128,0,28482:0:0:0:0:
192,192,28482,128,0,28640:0:0:0:0:
64,192,28640,1,8,0:0:0:66:
448,192,28640,1,0,0:0:0:0:
192,192,28798,1,2,0:0:0:66:
320,192,28798,128,0,28956:0:0:0:0:
64,192,28956,1,0,0:0:0:0:
320,192,29113,128,2,29271:0:0:0:66:
448,192,29113,1,0,0:0:0:0:
64,192,29271,1,8,0:0:0:66:
192,192,29271,1,0,0:0:0:0:
448,192,29429,1,0,0:0:0:0:
64,192,29587,1,2,0:0:0:66:
192,192,29587,128,0,29745:0:0:0:0:
320,192,29745,128,0,29903:0:0:0:0:
192,192,29903,1,8,0:0:0:66:
448,192,29903,1,0,0:0:0:0:
64,192,30061,128,2,30377:0:0:0:66:
320,192,30061,1,0,0:0:0:0:
192,192,30219,128,0,30377:0:0:0:0:
320,192,30377,1,2,0:0:0:66:
448,192,30377,128,0,30535:0:0:0:0:
64,192,30535,1,8,0:0:0:33:
192,192,30535,1,0,0:0:0:45:cymbal_short.wav
320,192,30692,1,0,0:0:0:0:
64,192,30850,128,2,31008:0:0:0:66:
448,192,30850,1,0,0:0:0:0:
320,192,31008,128,0,31166:0:0:0:0:
64,192,31166,1,8,0:0:0:66:
448,192,31166,1,0,0:0:0:0:
192,192,31324,128,2,31482:0:0:0:66:
320,192,31324,1,0,0:0:0:0:
448,192,31482,1,0,0:0:0:0:
64,192,31640,1,2,0:0:0:66:
192,192,31640,128,0,31798:0:0:0:0:
320,192,31798,1,8,0:0:0:66:
448,192,31798,1,0,0:0:0:0:
192,192,31956,1,0,0:0:0:0:
64,192,32113,1,2,0:0:0:66:
448,192,32113,128,0,32429:0:0:0:0:
320,192,32271,128,0,32429:0:0:0:0:
64,192,32429,128,8,32745:0:0:0:66:
192,192,32429,1,0,0:0:0:0:
192,192,32587,128,2,32745:0:0:0:66:
448,192,32745,128,0,33061:0:0:0:0:
320,192,32903,128,2,33061:0:0:0:66:
64,192,33061,1,8,0:0:0:66:
192,192,33140,1,0,0:0:0:45:Tom2.wav
320,192,33219,1,8,0:0:0:66:
448,192,33298,1,8,0:0:0:66:
64,192,33377,128,2,33535:0:0:0:33:
192,192,33377,1,0,0:0:0:45:cymbal_short.wav
320,192,33535,128,0,33692:0:0:0:0:
64,192,33692,1,8,0:0:0:66:
448,192,33692,1,0,0:0:0:0:
192,192,33850,128,2,34008:0:0:0:66:
320,192,33850,1,0,0:0:0:0:
448,192,34008,1,0,0:0:0:0:
64,192,34166,1,2,0:0:0:66:
192,192,34166,128,0,34324:0:0:0:0:
320,192,34324,1,8,0:0:0:66:
448,192,34324,1,0,0:0:0:0:
64,192,34482,1,0,0:0:0:0:
320,192,34640,128,2,34798:0:0:0:66:
448,192,34640,1,0,0:0:0:0:
192,192,34798,128,0,34956:0:0:0:0:
64,192,34956,1,8,0:0:0:66:
320,192,34956,1,0,0:0:0:0:
192,192,35113,1,2,0:0:0:66:
448,192,35113,128,0,35429:0:0:0:0:
320,192,35271,128,0,35429:0:0:0:0:
64,192,35429,128,2,35587:0:0:0:66:
192,192,35429,1,0,0:0:0:0:
320,192,35587,1,8,0:0:0:33:
448,192,35587,1,0,0:0:0:45:cymbal_short.wav
192,192,35745,1,0,0:0:0:0:
64,192,35903,1,2,0:0:0:66:
448,192,35903,128,0,36061:0:0:0:0:
192,192,36061,128,0,36219:0:0:0:0:
64,192,36219,1,8,0:0:0:66:
448,192,36219,1,0,0:0:0:0:
192,192,36377,1,2,0:0:0:66:
320,192,36377,128,0,36535:0:0:0:0:
64,192,36535,1,0,0:0:0:0:
320,192,36692,128,2,36850:0:0:0:66:
448,192,36692,1,0,0:0:0:0:
64,192,36850,1,8,0:0:0:33:
192,192,36850,1,4,0:0:0:33:
320,192,37008,1,0,0:0:0:0:
64,192,37166,1,2,0:0:0:33:
192,192,37166,1,4,0:0:0:33:
448,192,37166,1,0,0:0:0:0:
192,192,37324,1,2,0:0:0:66:
64,192,37482,1,8,0:0:0:33:
320,192,37482,1,4,0:0:0:33:
448,192,37482,1,0,0:0:0:0:
320,192,37640,1,0,0:0:0:0:
64,192,37798,1,2,0:0:0:66:
448,192,37798,1,0,0:0:0:0:
192,192,37877,1,8,0:0:0:66:
448,192,37956,1,8,0:0:0:66:
320,192,38035,1,8,0:0:0:66:
192,192,38113,1,10,0:0:0:33:
64,192,38192,1,8,0:0:0:66:
320,192,38271,1,8,0:0:0:66:
448,192,38350,1,8,0:0:0:66:
64,192,38429,1,2,0:0:0:66:
192,192,38429,1,0,0:0:0:0:
320,192,38745,1,2,0:0:0:66:
448,192,38745,1,0,0:0:0:0:
64,192,39061,1,2,0:0:0:66:
192,192,39061,1,0,0:0:0:0:
320,192,39377,1,2,0:0:0:66:
448,192,39377,1,0,0:0:0:0:
64,192,39692,128,2,40324:0:0:0:33:
192,192,39692,1,4,0:0:0:33:
448,192,39692,1,0,0:0:0:0:
320,192,40008,1,8,0:0:0:66:
448,192,40008,1,0,0:0:0:0:
192,192,40324,1,2,0:0:0:66:
448,192,40324,128,0,40956:0:0:0:0:
320,192,40482,1,2,0:0:0:66:
64,192,40640,1,8,0:0:0:66:
192,192,40640,1,0,0:0:0:0:
192,192,40956,1,2,0:0:0:66:
320,192,40956,128,0,41587:0:0:0:0:
64,192,41271,1,8,0:0:0:66:
448,192,41271,1,0,0:0:0:0:
192,192,41587,128,2,42219:0:0:0:66:
448,192,41587,1,0,0:0:0:0:
64,192,41745,1,2,0:0:0:66:
320,192,41903,1,8,0:0:0:66:
448,192,41903,1,0,0:0:0:0:
64,192,42219,128,2,42850:0:0:0:66:
320,192,42219,1,0,0:0:0:0:
192,192,42535,1,8,0:0:0:66:
448,192,42535,1,0,0:0:0:0:
320,192,42850,1,2,0:0:0:66:
448,192,42850,1,0,0:0:0:0:
192,192,43008,1,2,0:0:0:66:
64,192,43166,1,8,0:0:0:66:
448,192,43166,128,0,43482:0:0:0:0:
320,192,43324,1,0,0:0:0:0:
64,192,43482,1,2,0:0:0:66:
192,192,43482,128,0,43798:0:0:0:0:
448,192,43640,1,0,0:0:0:0:
64,192,43798,1,8,0:0:0:66:
320,192,43798,128,0,44113:0:0:0:0:
192,192,43956,1,0,0:0:0:0:
64,192,44113,1,2,0:0:0:66:
448,192,44113,1,0,0:0:0:0:
192,192,44192,1,0,0:0:0:50:LR_Snare Drum .wav
320,192,44271,1,2,0:0:0:66:
64,192,44429,128,8,44587:0:0:0:66:
448,192,44429,1,0,0:0:0:0:
192,192,44587,1,0,0:0:0:0:
64,192,44745,1,2,0:0:0:33:
320,192,44745,1,4,0:0:0:33:
448,192,44745,128,0,45061:0:0:0:0:
192,192,44903,1,0,0:0:0:0:
64,192,45061,1,8,0:0:0:66:
192,192,45061,128,0,45377:0:0:0:0:
320,192,45219,1,0,0:0:0:0:
64,192,45377,1,2,0:0:0:66:
448,192,45377,1,0,0:0:0:0:
320,192,45535,1,2,0:0:0:66:
64,192,45692,128,8,45850:0:0:0:66:
192,192,45692,1,0,0:0:0:0:
448,192,45850,128,0,46008:0:0:0:0:
64,192,46008,1,2,0:0:0:66:
320,192,46008,128,0,46166:0:0:0:0:
192,192,46166,1,0,0:0:0:0:
320,192,46324,128,8,46640:0:0:0:66:
448,192,46324,1,0,0:0:0:0:
192,192,46482,1,0,0:0:0:0:
64,192,46640,1,2,0:0:0:66:
448,192,46640,1,0,0:0:0:0:
192,192,46719,1,0,0:0:0:50:LR_Snare Drum .wav
320,192,46798,1,2,0:0:0:66:
64,192,46956,128,8,47113:0:0:0:66:
448,192,46956,1,0,0:0:0:0:
320,192,47113,1,0,0:0:0:0:
64,192,47271,1,2,0:0:0:66:
192,192,47271,128,0,47429:0:0:0:0:
448,192,47429,1,0,0:0:0:0:
192,192,47587,1,8,0:0:0:66:
320,192,47587,128,0,47745:0:0:0:0:
64,192,47745,1,0,0:0:0:0:
320,192,47903,1,2,0:0:0:66:
448,192,47903,128,0,48061:0:0:0:0:
192,192,48061,1,2,0:0:0:66:
64,192,48219,128,8,48535:0:0:0:66:
448,192,48219,1,0,0:0:0:0:
192,192,48377,1,0,0:0:0:0:
320,192,48535,1,2,0:0:0:66:
448,192,48535,1,0,0:0:0:0:
192,192,48692,1,2,0:0:0:66:
64,192,48850,1,8,0:0:0:33:
320,192,48850,1,4,0:0:0:33:
448,192,48850,1,0,0:0:0:0:
320,192,49008,128,0,49166:0:0:0:0:
64,192,49166,1,2,0:0:0:33:
448,192,49166,1,8,0:0:0:33:
192,192,49245,1,8,0:0:0:66:
448,192,49324,1,8,0:0:0:66:
320,192,49403,1,8,0:0:0:66:
64,192,49482,1,8,0:0:0:33:
192,192,49482,1,2,0:0:0:33:
448,192,49561,1,8,0:0:0:66:
320,192,49640,1,8,0:0:0:66:
192,192,49719,1,8,0:0:0:66:
64,192,49798,1,2,0:0:0:33:
448,192,49798,128,4,50429:0:0:0:33:
64,192,50113,1,8,0:0:0:66:
192,192,50113,1,0,0:0:0:0:
64,192,50429,128,2,51061:0:0:0:66:
320,192,50429,1,0,0:0:0:0:
192,192,50587,1,2,0:0:0:66:
320,192,50745,1,8,0:0:0:66:
448,192,50745,1,0,0:0:0:0:
192,192,51061,128,2,51692:0:0:0:66:
320,192,51061,1,0,0:0:0:0:
64,192,51377,1,8,0:0:0:66:
448,192,51377,1,0,0:0:0:0:
64,192,51692,1,2,0:0:0:66:
320,192,51692,128,0,52324:0:0:0:0:
448,192,51850,1,2,0:0:0:66:
64,192,52008,1,8,0:0:0:66:
192,192,52008,1,0,0:0:0:0:
192,192,52324,1,2,0:0:0:66:
448,192,52324,128,0,52956:0:0:0:0:
64,192,52640,1,8,0:0:0:66:
320,192,52640,1,0,0:0:0:0:
64,192,52956,1,2,0:0:0:66:
192,192,52956,1,0,0:0:0:0:
320,192,53113,1,2,0:0:0:66:
64,192,53271,128,8,53587:0:0:0:66:
448,192,53271,1,0,0:0:0:0:
192,192,53429,1,0,0:0:0:0:
320,192,53587,128,2,53903:0:0:0:66:
448,192,53587,1,0,0:0:0:0:
64,192,53745,1,0,0:0:0:0:
192,192,53903,128,8,54219:0:0:0:66:
448,192,53903,1,0,0:0:0:0:
320,192,54061,1,0,0:0:0:0:
64,192,54219,1,2,0:0:0:66:
448,192,54219,1,0,0:0:0:0:
320,192,54298,1,0,0:0:0:50:LR_Snare Drum .wav
192,192,54377,1,2,0:0:0:66:
64,192,54535,1,8,0:0:0:66:
448,192,54535,128,0,54692:0:0:0:0:
320,192,54692,1,0,0:0:0:0:
64,192,54850,128,2,55166:0:0:0:33:
192,192,54850,1,4,0:0:0:33:
448,192,54850,1,0,0:0:0:0:
320,192,55008,1,0,0:0:0:0:
320,192,55166,128,8,55482:0:0:0:66:
448,192,55166,1,0,0:0:0:0:
192,192,55324,1,0,0:0:0:0:
64,192,55482,1,2,0:0:0:66:
448,192,55482,1,0,0:0:0:0:
192,192,55640,1,2,0:0:0:66:
320,192,55798,1,8,0:0:0:66:
448,192,55798,128,0,55956:0:0:0:0:
64,192,55956,128,0,56271:0:0:0:0:
192,192,56113,1,2,0:0:0:66:
320,192,56271,128,0,56429:0:0:0:0:
192,192,56429,128,8,56745:0:0:0:66:
448,192,56429,1,0,0:0:0:0:
320,192,56587,1,0,0:0:0:0:
64,192,56745,1,2,0:0:0:66:
448,192,56745,1,0,0:0:0:0:
320,192,56903,1,2,0:0:0:66:
192,192,57061,1,8,0:0:0:66:
448,192,57061,128,0,57219:0:0:0:0:
64,192,57219,1,0,0:0:0:0:
320,192,57377,128,2,57535:0:0:0:66:
448,192,57377,1,0,0:0:0:0:
64,192,57535,1,0,0:0:0:0:
192,192,57692,128,8,57850:0:0:0:66:
320,192,57692,1,0,0:0:0:0:
448,192,57850,1,0,0:0:0:0:
64,192,58008,128,2,58166:0:0:0:66:
192,192,58008,1,0,0:0:0:0:
320,192,58166,1,2,0:0:0:66:
64,192,58324,1,8,0:0:0:66:
448,192,58324,128,0,58482:0:0:0:0:
192,192,58482,1,0,0:0:0:0:
320,192,58640,1,2,0:0:0:66:
448,192,58640,1,0,0:0:0:0:
192,192,58798,1,2,0:0:0:66:
64,192,58956,1,8,0:0:0:33:
320,192,58956,128,4,59271:0:0:0:33:
448,192,58956,1,0,0:0:0:0:
64,192,59271,1,2,0:0:0:33:
448,192,59271,1,8,0:0:0:33:
192,192,59350,1,8,0:0:0:66:
448,192,59429,1,8,0:0:0:66:
320,192,59508,1,8,0:0:0:66:
64,192,59587,1,8,0:0:0:33:
192,192,59587,1,2,0:0:0:33:
448,192,59666,1,8,0:0:0:66:
320,192,59745,1,8,0:0:0:66:
192,192,59824,1,8,0:0:0:66:
64,192,59903,128,6,60535:0:0:0:22:
448,192,59903,1,0,0:0:0:50:LR_Hat Finish.wav
192,192,60219,1,8,0:0:0:33:
320,192,60219,1,0,0:0:0:50:LR_Hat Finish.wav
320,192,60535,1,2,0:0:0:33:
448,192,60535,128,0,61166:0:0:0:50:LR_Hat Finish.wav
192,192,60692,1,2,0:0:0:66:
64,192,60850,1,8,0:0:0:33:
320,192,60850,1,0,0:0:0:50:LR_Hat Finish.wav
64,192,61166,1,2,0:0:0:33:
192,192,61166,128,0,61798:0:0:0:50:LR_Hat Finish.wav
320,192,61482,1,8,0:0:0:33:
448,192,61482,1,0,0:0:0:50:LR_Hat Finish.wav
64,192,61798,1,2,0:0:0:33:
320,192,61798,128,0,62429:0:0:0:50:LR_Hat Finish.wav
448,192,61956,1,2,0:0:0:66:
64,192,62113,1,8,0:0:0:33:
192,192,62113,1,0,0:0:0:50:LR_Hat Finish.wav
64,192,62429,128,2,63061:0:0:0:33:
448,192,62429,1,0,0:0:0:50:LR_Hat Finish.wav
192,192,62745,1,8,0:0:0:33:
320,192,62745,1,0,0:0:0:50:LR_Hat Finish.wav
320,192,63061,1,2,0:0:0:33:
448,192,63061,1,0,0:0:0:50:LR_Hat Finish.wav
192,192,63219,1,2,0:0:0:66:
64,192,63377,1,8,0:0:0:33:
448,192,63377,128,0,63692:0:0:0:50:LR_Hat Finish.wav
320,192,63535,1,0,0:0:0:0:
64,192,63692,1,2,0:0:0:33:
192,192,63692,128,0,64008:0:0:0:50:LR_Hat Finish.wav
448,192,63850,1,0,0:0:0:0:
64,192,64008,1,8,0:0:0:33:
320,192,64008,128,0,64324:0:0:0:50:LR_Hat Finish.wav
192,192,64166,1,0,0:0:0:0:
64,192,64324,1,2,0:0:0:33:
448,192,64324,1,0,0:0:0:50:LR_Hat Finish.wav
192,192,64482,1,2,0:0:0:66:
64,192,64640,128,8,64798:0:0:0:33:
448,192,64640,1,0,0:0:0:50:LR_Hat Finish.wav
320,192,64798,1,0,0:0:0:0:
64,192,64956,1,4,0:0:0:22:
192,192,64956,1,2,0:0:0:22:
448,192,64956,128,0,65271:0:0:0:50:LR_Hat Finish.wav
320,192,65113,1,0,0:0:0:0:
64,192,65271,1,8,0:0:0:33:
192,192,65271,128,0,65587:0:0:0:50:LR_Hat Finish.wav
320,192,65429,1,0,0:0:0:0:
64,192,65587,1,2,0:0:0:33:
448,192,65587,1,0,0:0:0:50:LR_Hat Finish.wav
320,192,65745,1,2,0:0:0:66:
64,192,65903,128,8,66061:0:0:0:33:
192,192,65903,1,0,0:0:0:50:LR_Hat Finish.wav
448,192,66061,128,0,66219:0:0:0:0:
64,192,66219,1,2,0:0:0:33:
320,192,66219,128,0,66377:0:0:0:50:LR_Hat Finish.wav
192,192,66377,1,0,0:0:0:0:
320,192,66535,128,8,66850:0:0:0:33:
448,192,66535,1,0,0:0:0:50:LR_Hat Finish.wav
192,192,66692,1,0,0:0:0:0:
64,192,66850,1,2,0:0:0:33:
448,192,66850,1,0,0:0:0:50:LR_Hat Finish.wav
192,192,67008,1,2,0:0:0:66:
64,192,67166,128,8,67324:0:0:0:33:
320,192,67166,1,0,0:0:0:50:LR_Hat Finish.wav
448,192,67324,128,0,67482:0:0:0:0:
64,192,67482,1,2,0:0:0:33:
192,192,67482,128,0,67640:0:0:0:50:LR_Hat Finish.wav
448,192,67640,1,0,0:0:0:0:
192,192,67798,1,8,0:0:0:33:
320,192,67798,128,0,67956:0:0:0:50:LR_Hat Finish.wav
64,192,67956,1,0,0:0:0:0:
320,192,68113,1,2,0:0:0:33:
448,192,68113,128,0,68271:0:0:0:50:LR_Hat Finish.wav
192,192,68271,1,2,0:0:0:66:
64,192,68429,128,8,68745:0:0:0:33:
448,192,68429,1,0,0:0:0:50:LR_Hat Finish.wav
192,192,68587,1,0,0:0:0:0:
320,192,68745,1,2,0:0:0:33:
448,192,68745,1,0,0:0:0:50:LR_Hat Finish.wav
192,192,68903,1,2,0:0:0:66:
64,192,69061,1,8,0:0:0:33:
320,192,69061,1,0,0:0:0:50:LR_Hat Finish.wav
448,192,69061,1,0,0:0:0:0:
320,192,69219,128,0,69377:0:0:0:0:
64,192,69377,1,10,0:0:0:22:
448,192,69377,1,0,0:0:0:50:LR_Hat Finish.wav
192,192,69456,1,8,0:0:0:66:
448,192,69535,1,8,0:0:0:66:
320,192,69613,1,8,0:0:0:66:
64,192,69692,1,10,0:0:0:22:
192,192,69692,1,0,0:0:0:50:LR_Hat Finish.wav
448,192,69771,1,8,0:0:0:66:
320,192,69850,1,8,0:0:0:66:
192,192,69929,1,8,0:0:0:66:
64,192,70008,1,6,0:0:0:22:
448,192,70008,128,0,70640:0:0:0:50:LR_Hat Finish.wav
192,192,70324,1,8,0:0:0:33:
320,192,70324,1,0,0:0:0:50:LR_Hat Finish.wav
64,192,70640,128,2,71271:0:0:0:33:
192,192,70640,1,0,0:0:0:50:LR_Hat Finish.wav
320,192,70798,1,2,0:0:0:66:
192,192,70956,1,8,0:0:0:33:
448,192,70956,1,0,0:0:0:50:LR_Hat Finish.wav
320,192,71271,128,2,71903:0:0:0:33:
448,192,71271,1,0,0:0:0:50:LR_Hat Finish.wav
64,192,71587,1,8,0:0:0:33:
192,192,71587,1,0,0:0:0:50:LR_Hat Finish.wav
192,192,71903,128,2,72535:0:0:0:33:
448,192,71903,1,0,0:0:0:50:LR_Hat Finish.wav
64,192,72061,1,2,0:0:0:66:
320,192,72219,1,8,0:0:0:33:
448,192,72219,1,0,0:0:0:50:LR_Hat Finish.wav
64,192,72535,1,2,0:0:0:33:
448,192,72535,128,0,73166:0:0:0:50:LR_Hat Finish.wav
192,192,72850,1,8,0:0:0:33:
320,192,72850,1,0,0:0:0:50:LR_Hat Finish.wav
64,192,73166,1,2,0:0:0:33:
192,192,73166,1,0,0:0:0:50:LR_Hat Finish.wav
320,192,73324,1,2,0:0:0:66:
64,192,73482,128,8,73798:0:0:0:33:
448,192,73482,1,0,0:0:0:50:LR_Hat Finish.wav
192,192,73640,1,0,0:0:0:0:
320,192,73798,128,2,74113:0:0:0:33:
448,192,73798,1,0,0:0:0:50:LR_Hat Finish.wav
64,192,73956,1,0,0:0:0:0:
192,192,74113,128,8,74429:0:0:0:33:
448,192,74113,1,0,0:0:0:50:LR_Hat Finish.wav
320,192,74271,1,0,0:0:0:0:
64,192,74429,1,2,0:0:0:33:
448,192,74429,1,0,0:0:0:50:LR_Hat Finish.wav
320,192,74587,1,2,0:0:0:66:
64,192,74745,1,8,0:0:0:33:
448,192,74745,128,0,74903:0:0:0:50:LR_Hat Finish.wav
192,192,74903,1,0,0:0:0:0:
64,192,75061,128,2,75377:0:0:0:22:
320,192,75061,1,4,0:0:0:22:
448,192,75061,1,0,0:0:0:50:LR_Hat Finish.wav
192,192,75219,1,0,0:0:0:0:
320,192,75377,128,8,75692:0:0:0:33:
448,192,75377,1,0,0:0:0:50:LR_Hat Finish.wav
192,192,75535,1,0,0:0:0:0:
64,192,75692,1,2,0:0:0:33:
448,192,75692,1,0,0:0:0:50:LR_Hat Finish.wav
192,192,75850,1,2,0:0:0:66:
320,192,76008,1,8,0:0:0:33:
448,192,76008,128,0,76166:0:0:0:50:LR_Hat Finish.wav
64,192,76166,128,0,76324:0:0:0:0:
192,192,76324,128,2,76482:0:0:0:33:
448,192,76324,1,0,0:0:0:50:LR_Hat Finish.wav
320,192,76482,1,0,0:0:0:0:
64,192,76640,1,8,0:0:0:33:
192,192,76640,128,0,76956:0:0:0:50:LR_Hat Finish.wav
320,192,76798,1,0,0:0:0:0:
64,192,76956,1,2,0:0:0:33:
448,192,76956,1,0,0:0:0:50:LR_Hat Finish.wav
320,192,77113,1,2,0:0:0:66:
64,192,77271,1,8,0:0:0:33:
448,192,77271,128,0,77429:0:0:0:50:LR_Hat Finish.wav
192,192,77429,1,2,0:0:0:66:
320,192,77508,1,2,0:0:0:66:
64,192,77587,1,8,0:0:0:33:
192,192,77587,1,0,0:0:0:50:LR_Hat Finish.wav
448,192,77587,1,0,0:0:0:0:
64,192,77745,1,2,0:0:0:66:
192,192,77903,1,8,0:0:0:33:
320,192,77903,1,0,0:0:0:50:LR_Hat Finish.wav
320,192,78061,1,2,0:0:0:66:
64,192,78219,1,8,0:0:0:33:
192,192,78219,1,0,0:0:0:50:LR_Hat Finish.wav
448,192,78219,1,0,0:0:0:0:
448,192,78377,1,2,0:0:0:66:
192,192,78535,1,8,0:0:0:33:
320,192,78535,1,0,0:0:0:50:LR_Hat Finish.wav
192,192,78692,1,2,0:0:0:66:
64,192,78850,1,8,0:0:0:33:
448,192,78850,1,0,0:0:0:50:LR_Hat Finish.wav
320,192,79008,1,0,0:0:0:0:
64,192,79166,1,2,0:0:0:33:
192,192,79166,1,0,0:0:0:50:LR_Hat Finish.wav
448,192,79245,1,8,0:0:0:66:
320,192,79324,1,8,0:0:0:66:
192,192,79403,1,8,0:0:0:66:
64,192,79482,1,10,0:0:0:22:
448,192,79482,1,0,0:0:0:50:LR_Hat Finish.wav
320,192,79561,1,8,0:0:0:66:
64,192,79640,1,8,0:0:0:66:
192,192,79719,1,8,0:0:0:66:
320,192,79798,1,10,0:0:0:22:
448,192,79798,1,0,0:0:0:50:LR_Hat Finish.wav
64,192,79877,1,8,0:0:0:66:
192,192,79956,1,8,0:0:0:66:
320,192,80035,1,8,0:0:0:66:
64,192,80113,128,6,80429:0:0:0:22:
448,192,80113,1,0,0:0:0:50:LR_Hat Finish.wav
192,192,80429,1,8,0:0:0:33:
320,192,80429,1,0,0:0:0:50:LR_Hat Finish.wav
64,192,80587,1,2,0:0:0:66:
448,192,80587,128,0,80903:0:0:0:0:
320,192,80745,1,0,0:0:0:50:LR_Hat Finish.wav
64,192,80903,1,2,0:0:0:66:
192,192,80903,128,0,81061:0:0:0:0:
320,192,81061,128,8,81219:0:0:0:33:
448,192,81061,1,0,0:0:0:50:LR_Hat Finish.wav
64,192,81219,128,0,81535:0:0:0:0:
192,192,81377,1,2,0:0:0:33:
320,192,81535,1,2,0:0:0:66:
448,192,81535,128,0,81692:0:0:0:0:
64,192,81692,1,8,0:0:0:33:
192,192,81692,128,0,82008:0:0:0:50:LR_Hat Finish.wav
320,192,81850,128,2,82008:0:0:0:66:
448,192,82008,1,0,0:0:0:50:LR_Hat Finish.wav
64,192,82166,128,2,82324:0:0:0:66:
192,192,82166,1,0,0:0:0:0:
320,192,82324,1,8,0:0:0:33:
448,192,82324,1,0,0:0:0:50:LR_Hat Finish.wav
64,192,82482,128,0,82640:0:0:0:0:
192,192,82640,1,2,0:0:0:33:
448,192,82640,128,0,82798:0:0:0:50:LR_Hat Finish.wav
320,192,82798,128,0,82956:0:0:0:0:
192,192,82956,128,8,83113:0:0:0:33:
448,192,82956,1,0,0:0:0:50:LR_Hat Finish.wav
64,192,83113,128,2,83429:0:0:0:66:
320,192,83113,1,0,0:0:0:0:
448,192,83271,128,0,83429:0:0:0:50:LR_Hat Finish.wav
192,192,83429,1,2,0:0:0:66:
320,192,83429,1,0,0:0:0:0:
64,192,83587,1,8,0:0:0:33:
448,192,83587,1,0,0:0:0:50:LR_Hat Finish.wav
192,192,83666,1,0,0:0:0:0:
320,192,83745,1,0,0:0:0:0:
448,192,83824,1,0,0:0:0:0:
64,192,83903,1,2,0:0:0:33:
192,192,83982,1,0,0:0:0:0:
448,192,84061,1,2,0:0:0:66:
320,192,84140,1,0,0:0:0:0:
192,192,84219,1,8,0:0:0:33:
64,192,84298,1,0,0:0:0:0:
320,192,84377,1,0,0:0:0:0:
448,192,84456,1,0,0:0:0:0:
64,192,84535,1,2,0:0:0:33:
192,192,84535,1,0,0:0:0:50:LR_Hat Finish.wav
320,192,84692,1,0,0:0:0:0:
448,192,84692,1,0,0:0:0:0:
64,192,84771,1,0,0:0:0:0:
192,192,84850,1,0,0:0:0:0:
320,192,84929,1,0,0:0:0:0:
64,192,85008,1,0,0:0:0:0:
448,192,85008,1,0,0:0:0:0:
192,192,85166,128,2,85324:0:0:0:33:
320,192,85166,1,4,0:0:0:33:
448,192,85324,128,0,85482:0:0:0:0:
64,192,85482,128,8,85798:0:0:0:66:
320,192,85482,1,0,0:0:0:0:
192,192,85640,128,2,85798:0:0:0:66:
448,192,85798,1,0,0:0:0:0:
192,192,85956,1,2,0:0:0:66:
320,192,85956,128,0,86113:0:0:0:0:
64,192,86113,1,8,0:0:0:66:
448,192,86113,1,0,0:0:0:0:
192,192,86271,128,0,86429:0:0:0:0:
320,192,86429,1,2,0:0:0:66:
448,192,86429,1,0,0:0:0:0:
64,192,86587,128,2,86745:0:0:0:66:
192,192,86745,1,8,0:0:0:66:
320,192,86745,1,0,0:0:0:0:
448,192,86903,128,0,87061:0:0:0:0:
64,192,87061,1,2,0:0:0:66:
192,192,87061,1,0,0:0:0:0:
320,192,87140,1,8,0:0:0:66:
448,192,87219,1,8,0:0:0:66:
64,192,87298,1,8,0:0:0:66:
192,192,87377,1,8,0:0:0:66:
320,192,87377,1,0,0:0:0:0:
448,192,87456,1,0,0:0:0:0:
64,192,87535,1,2,0:0:0:66:
192,192,87613,1,0,0:0:0:0:
320,192,87692,1,10,0:0:0:22:
448,192,87692,1,0,0:0:0:30:Tom3.wav
320,192,87850,128,10,88008:0:0:0:22:
448,192,87850,128,0,88008:0:0:0:30:Tom3.wav
192,192,88008,1,0,0:0:0:30:Tom3.wav
64,192,88166,1,10,0:0:0:22:
448,192,88166,1,0,0:0:0:30:Tom3.wav
64,192,88324,128,10,88482:0:0:0:22:
448,192,88324,128,0,88482:0:0:0:30:Tom3.wav
320,192,88482,1,2,0:0:0:66:
64,192,88640,128,10,88798:0:0:0:22:
192,192,88640,128,0,88798:0:0:0:30:Tom3.wav
320,192,88798,128,10,88956:0:0:0:0:
448,192,88798,128,0,88956:0:0:0:30:Tom3.wav
