osu file format v14

[General]
AudioFilename: audio.mp3
AudioLeadIn: 0
PreviewTime: 204526
Countdown: 0
SampleSet: Normal
StackLeniency: 0.7
Mode: 1
LetterboxInBreaks: 0
WidescreenStoryboard: 1

[Editor]
Bookmarks: 166686,214704,224809
DistanceSpacing: 0.8
BeatDivisor: 4
GridSize: 32
TimelineZoom: 2.100001

[Metadata]
Title:Seishun Complex (Bocchi the Hardcore Remix)
TitleUnicode:青春コンプレックス (Bocchi the Hardcore Remix)
Artist:kessoku band
ArtistUnicode:結束バンド
Creator:Roxy-
Version:Inner Oni
Source:ぼっち・ざ・ろっく!
Tags:喜多郁代 山田リョウ Kita Ikuyo Yamada Ryo 長谷川育美 水野朔 Hasegawa Ikumi Mizuno Saku japanese jrock j-rock rock bocchi the rock rock! 音羽 樋口愛 三井律郎 otoha higuchi ai mitsui ritsuo anime op opening j-core jcore bootleg kurokurokuro MicSup08 electronic Yupi@72MERIN
BeatmapID:3946943
BeatmapSetID:1913199

[Difficulty]
HPDrainRate:5.5
CircleSize:5
OverallDifficulty:6
ApproachRate:5
SliderMultiplier:1.4
SliderTickRate:1

[Events]
//Background and Video events
0,0,"BG.jpg",0,50
//Break Periods
2,166905,175610
//Storyboard Layer 0 (Background)
//Storyboard Layer 1 (Fail)
//Storyboard Layer 2 (Pass)
//Storyboard Layer 3 (Foreground)
//Storyboard Layer 4 (Overlay)
//Storyboard Sound Samples

[TimingPoints]
1232,315.78947368421,4,1,0,100,1,0
1232,-117.647058823529,4,1,0,80,0,0
10231,-117.647058823529,4,1,0,80,0,0
10389,-113.636363636364,4,1,0,81,0,0
10547,-109.89010989011,4,1,0,82,0,0
10705,-106.382978723404,4,1,0,83,0,0
10863,-103.092783505155,4,1,0,84,0,0
11021,-100,4,1,0,85,0,0
11258,-100,4,1,0,85,0,0
20317,-100,4,1,0,85,0,0
20475,-102.943916526924,4,1,0,85,0,0
20633,-106.066423497792,4,1,0,85,0,0
20791,-109.362628661916,4,1,0,85,0,0
20949,-112.893338782182,4,1,0,85,0,0
21106,-116.659628378378,4,1,0,85,0,0
21422,-125,4,1,0,80,0,0
31468,-111.111111111111,4,1,0,80,0,0
44159,-111.111111111111,4,1,0,80,0,0
44317,-109.373453429674,4,1,0,80,0,0
44475,-107.689309034207,4,1,0,80,0,0
44633,-106.056243401478,4,1,0,80,0,0
44791,-104.481845688351,4,1,0,80,0,0
44949,-102.943916526924,4,1,0,80,0,0
45106,-101.450605949321,4,1,0,80,0,0
45264,-100,4,1,0,80,0,0
45422,-98.590292648108,4,1,0,80,0,0
45501,-97.900239213254,4,1,0,80,0,0
45580,-97.219778286116,4,1,0,80,0,0
45659,-96.54871122761,4,1,0,80,0,0
45738,-95.88684484554,4,1,0,80,0,0
45817,-95.23399120917,4,1,0,80,0,0
45896,-94.589967471323,4,1,0,80,0,0
46054,-93.327702702703,4,1,0,80,0,0
46212,-92.106359923314,4,1,0,80,0,0
46291,-91.503809208347,4,1,0,80,0,0
46370,-90.909090909091,4,1,0,80,0,0
46626,-105.263157894737,4,1,0,85,0,0
56731,-105.263157894737,4,1,0,85,0,0
57046,-111.111111111111,4,1,0,79,0,0
57362,-117.647058823529,4,1,0,73,0,0
57678,-125,4,1,0,66,0,0
57994,-133.333333333333,4,1,0,60,0,0
58074,315.78947368421,4,1,0,60,1,0
58074,-133.333333333333,4,1,0,60,0,0
68159,-133.333333333333,4,1,0,60,0,0
68791,-130.614619013766,4,1,0,62,0,0
69422,-128.000506681867,4,1,0,63,0,0
70054,-125.488978578081,4,1,0,65,0,0
70685,-123.077859992083,4,1,0,66,0,0
71633,-119.624729941697,4,1,0,69,0,0
71949,-118.519821721792,4,1,0,69,0,0
72264,-117.431725740848,4,1,0,70,0,0
72580,-116.36342699217,4,1,0,71,0,0
72896,-115.31439004907,4,1,0,72,0,0
73528,-113.275229100692,4,1,0,73,0,0
74159,-111.303868924687,4,1,0,75,0,0
74317,-110.821703726044,4,1,0,75,0,0
74633,-109.869798037457,4,1,0,76,0,0
74791,-109.402912358577,4,1,0,76,0,0
74949,-108.937041828374,4,1,0,77,0,0
75422,-107.562935760285,4,1,0,78,0,0
75738,-106.66596294928,4,1,0,79,0,0
76054,-105.783826223502,4,1,0,80,0,0
76370,-104.918883841661,4,1,0,80,0,0
76685,-104.065291830797,4,1,0,81,0,0
77001,-103.22547692622,4,1,0,82,0,0
77317,-102.39910825121,4,1,0,83,0,0
77475,-101.990865736418,4,1,0,83,0,0
77633,-101.585865440197,4,1,0,83,0,0
77949,-100.787951326551,4,1,0,84,0,0
78264,-100,4,1,0,85,0,0
83337,-100,4,1,0,100,0,1
102284,-100,4,1,0,100,0,1
102363,-83.333333333333,4,1,0,100,0,1
103468,-83.333333333333,4,1,0,85,0,1
103527,-125,4,1,0,85,0,1
103547,-125,4,1,0,85,0,0
103685,-122.806043101533,4,1,0,85,0,0
104001,-118.641339343207,4,1,0,85,0,0
104159,-116.66314900802,4,1,0,85,0,0
104317,-114.749844301432,4,1,0,85,0,0
104475,-112.898284313725,4,1,0,85,0,0
104652,-111.105527638191,4,1,0,85,0,0
104791,-109.37963787474,4,1,0,85,0,0
104870,-108.5313174946,4,1,0,85,0,0
104948,-107.696054554311,4,1,0,85,0,0
105106,-106.063513383863,4,1,0,85,0,0
105264,-104.479727814006,4,1,0,85,0,0
105343,-103.705440900563,4,1,0,85,0,0
105422,-102.942545860881,4,1,0,85,0,0
105501,-102.190793122573,4,1,0,85,0,0
105580,-101.449940350555,4,1,0,85,0,0
105659,-100.719752186589,4,1,0,85,0,0
105738,-100,4,1,0,85,0,0
105837,-100,4,1,0,85,0,0
123758,-100,4,1,0,100,0,1
142705,-100,4,1,0,100,0,1
142784,-83.333333333333,4,1,0,95,0,1
143889,-111.111111111111,4,1,0,80,0,1
143968,-111.111111111111,4,1,0,80,0,0
156205,-100,4,1,0,80,0,0
166784,-166.666666666666,4,1,0,60,0,0
191949,-142.857142857143,4,1,0,60,0,0
192264,-140.907913296295,4,1,0,61,0,0
192422,-139.953110704483,4,1,0,61,0,0
192738,-138.081805359662,4,1,0,62,0,0
193054,-136.259881973054,4,1,0,63,0,0
193370,-134.490953800503,4,1,0,64,0,0
193685,-132.761964171899,4,1,0,64,0,0
193843,-131.914033551169,4,1,0,65,0,0
194001,-131.076865401866,4,1,0,65,0,0
194159,-130.250256110054,4,1,0,66,0,0
194475,-128.62792500427,4,1,0,66,0,0
194791,-127.050456810631,4,1,0,67,0,0
194949,-126.273700503031,4,1,0,68,0,0
195264,-124.748337113586,4,1,0,68,0,0
195580,-123.259386095233,4,1,0,69,0,0
195896,-121.805559011621,4,1,0,70,0,0
196212,-120.390068741622,4,1,0,71,0,0
196370,-119.692394214664,4,1,0,71,0,0
196528,-119.002759308107,4,1,0,72,0,0
196685,-118.321025851754,4,1,0,72,0,0
197001,-116.980726260321,4,1,0,73,0,0
197317,-115.6704514574,4,1,0,74,0,0
197475,-115.026259825404,4,1,0,74,0,0
197791,-113.763130984475,4,1,0,75,0,0
198106,-112.523562135074,4,1,0,76,0,0
198422,-111.310714935419,4,1,0,77,0,0
198738,-110.123734533183,4,1,0,77,0,0
198896,-109.539687157339,4,1,0,78,0,0
199054,-108.96180215475,4,1,0,78,0,0
199212,-108.393582745602,4,1,0,79,0,0
199528,-107.267687115825,4,1,0,79,0,0
199843,-106.164940627881,4,1,0,80,0,0
200001,-105.622026346168,4,1,0,81,0,0
200317,-104.552687506007,4,1,0,81,0,0
200633,-103.504784056669,4,1,0,82,0,0
200949,-102.480896053596,4,1,0,83,0,0
201106,-101.974917711762,4,1,0,83,0,0
201422,-100.977803449129,4,1,0,84,0,0
201738,-100,4,1,0,85,0,0
202153,-83.333333333333,4,1,0,100,0,0
204600,-100,4,1,0,100,0,1
223547,-100,4,1,0,100,0,1
223626,-83.333333333333,4,1,0,100,0,1
224731,-100,4,1,0,100,0,1
243758,-100,4,1,0,100,0,1
243837,-83.333333333333,4,1,0,100,0,1
244942,-100,4,1,0,80,0,1
245021,-100,4,1,0,80,0,0
265310,-100,4,1,0,80,0,0
266495,-100,4,1,0,70,0,0
267758,-100,4,1,0,60,0,0
269021,-100,4,1,0,50,0,0

[HitObjects]
254,191,1232,5,4,0:0:0:0:
254,191,1547,1,8,0:0:0:0:
254,191,1705,1,0,0:0:0:0:
254,191,2021,1,0,0:0:0:0:
254,191,2179,1,8,0:0:0:0:
254,191,2337,1,0,0:0:0:0:
254,191,2653,1,8,0:0:0:0:
254,191,2968,1,0,0:0:0:0:
254,191,3126,1,8,0:0:0:0:
254,191,3284,1,8,0:0:0:0:
254,191,3442,1,0,0:0:0:0:
254,191,3758,1,8,0:0:0:0:
254,191,4074,1,0,0:0:0:0:
254,191,4231,1,8,0:0:0:0:
254,191,4547,1,0,0:0:0:0:
254,191,4705,1,8,0:0:0:0:
254,191,4863,1,0,0:0:0:0:
254,191,5179,1,8,0:0:0:0:
254,191,5495,1,0,0:0:0:0:
254,191,5810,1,8,0:0:0:0:
254,191,5968,1,0,0:0:0:0:
254,191,6284,1,8,0:0:0:0:
254,191,6600,1,0,0:0:0:0:
254,191,6758,1,8,0:0:0:0:
254,191,7074,1,0,0:0:0:0:
254,191,7231,1,8,0:0:0:0:
254,191,7389,1,0,0:0:0:0:
254,191,7705,1,8,0:0:0:0:
254,191,8021,1,0,0:0:0:0:
254,191,8179,1,8,0:0:0:0:
254,191,8337,1,0,0:0:0:0:
254,191,8495,1,8,0:0:0:0:
254,191,8810,1,0,0:0:0:0:
254,191,9126,1,8,0:0:0:0:
254,191,9284,1,0,0:0:0:0:
254,191,9600,1,8,0:0:0:0:
254,191,9758,1,8,0:0:0:0:
254,191,9916,1,0,0:0:0:0:
254,191,10231,1,0,0:0:0:0:
254,191,10389,1,8,0:0:0:0:
254,191,10547,1,0,0:0:0:0:
254,191,10705,1,8,0:0:0:0:
254,191,10863,1,0,0:0:0:0:
254,191,11021,1,12,0:0:0:0:
254,191,11337,1,4,0:0:0:0:
254,191,11574,1,8,0:0:0:0:
254,191,11653,1,0,0:0:0:0:
254,191,11810,1,8,0:0:0:0:
254,191,11968,1,0,0:0:0:0:
254,191,12047,1,0,0:0:0:0:
254,191,12126,1,8,0:0:0:0:
254,191,12284,1,0,0:0:0:0:
254,191,12442,1,8,0:0:0:0:
254,191,12600,1,0,0:0:0:0:
254,191,12758,1,8,0:0:0:0:
254,191,12837,1,8,0:0:0:0:
254,191,12916,1,0,0:0:0:0:
254,191,13074,1,8,0:0:0:0:
254,191,13231,1,0,0:0:0:0:
254,191,13310,1,0,0:0:0:0:
254,191,13389,1,8,0:0:0:0:
254,191,13468,1,8,0:0:0:0:
254,191,13547,1,0,0:0:0:0:
254,191,13705,1,8,0:0:0:0:
254,191,13863,1,0,0:0:0:0:
254,191,14100,1,8,0:0:0:0:
254,191,14179,1,0,0:0:0:0:
254,191,14337,1,8,0:0:0:0:
254,191,14495,1,0,0:0:0:0:
254,191,14574,1,8,0:0:0:0:
254,191,14653,1,0,0:0:0:0:
254,191,14810,1,8,0:0:0:0:
254,191,14968,1,0,0:0:0:0:
254,191,15126,1,8,0:0:0:0:
254,191,15284,1,0,0:0:0:0:
254,191,15363,1,0,0:0:0:0:
254,191,15442,1,8,0:0:0:0:
254,191,15521,1,8,0:0:0:0:
254,191,15600,1,0,0:0:0:0:
254,191,15758,1,8,0:0:0:0:
254,191,15916,1,0,0:0:0:0:
254,191,16074,1,8,0:0:0:0:
254,191,16153,1,8,0:0:0:0:
254,191,16231,1,0,0:0:0:0:
254,191,16389,1,0,0:0:0:0:
254,191,16626,1,8,0:0:0:0:
254,191,16705,1,0,0:0:0:0:
254,191,16863,1,8,0:0:0:0:
254,191,17021,1,0,0:0:0:0:
254,191,17100,1,0,0:0:0:0:
254,191,17179,1,8,0:0:0:0:
254,191,17337,1,0,0:0:0:0:
254,191,17495,1,8,0:0:0:0:
254,191,17653,1,0,0:0:0:0:
254,191,17810,1,8,0:0:0:0:
254,191,17889,1,8,0:0:0:0:
254,191,17968,1,0,0:0:0:0:
254,191,18126,1,8,0:0:0:0:
254,191,18284,1,0,0:0:0:0:
254,191,18363,1,8,0:0:0:0:
254,191,18442,1,0,0:0:0:0:
254,191,18600,1,8,0:0:0:0:
254,191,18758,1,0,0:0:0:0:
254,191,18916,1,8,0:0:0:0:
254,191,19231,1,8,0:0:0:0:
254,191,19547,1,8,0:0:0:0:
254,191,19863,1,8,0:0:0:0:
254,191,20337,5,0,0:0:0:0:
254,191,20495,1,8,0:0:0:0:
254,191,20653,1,0,0:0:0:0:
254,191,20810,1,8,0:0:0:0:
254,191,20968,1,0,0:0:0:0:
254,191,21126,1,8,0:0:0:0:
254,191,21442,1,4,0:0:0:0:
254,191,21758,1,8,0:0:0:0:
254,191,22389,1,8,0:0:0:0:
254,191,23021,1,8,0:0:0:0:
254,191,23653,1,8,0:0:0:0:
254,191,24284,1,8,0:0:0:0:
254,191,24916,1,8,0:0:0:0:
254,191,25547,1,8,0:0:0:0:
254,191,26179,1,8,0:0:0:0:
254,191,26810,1,8,0:0:0:0:
254,191,27442,1,8,0:0:0:0:
254,191,28074,1,8,0:0:0:0:
254,191,28705,1,8,0:0:0:0:
254,191,29337,1,8,0:0:0:0:
254,191,29968,1,8,0:0:0:0:
256,192,30284,12,0,31389,0:0:0:0:
256,182,31547,5,4,0:0:0:0:
256,182,31705,1,0,0:0:0:0:
256,182,31863,1,8,0:0:0:0:
256,182,32021,1,0,0:0:0:0:
256,182,32100,1,0,0:0:0:0:
256,182,32179,1,8,0:0:0:0:
256,182,32337,1,0,0:0:0:0:
256,182,32495,1,8,0:0:0:0:
256,182,32574,1,8,0:0:0:0:
256,182,32653,1,0,0:0:0:0:
256,182,32810,1,8,0:0:0:0:
256,182,33126,1,8,0:0:0:0:
256,182,33284,1,0,0:0:0:0:
256,182,33442,1,8,0:0:0:0:
256,182,33521,1,8,0:0:0:0:
256,182,33600,1,0,0:0:0:0:
256,182,33679,1,0,0:0:0:0:
256,182,33758,1,8,0:0:0:0:
256,182,33916,1,8,0:0:0:0:
256,182,34074,5,0,0:0:0:0:
256,182,34389,1,8,0:0:0:0:
256,182,34547,1,0,0:0:0:0:
256,182,34626,1,0,0:0:0:0:
256,182,34705,1,8,0:0:0:0:
256,182,34863,1,0,0:0:0:0:
256,182,35021,1,8,0:0:0:0:
256,182,35179,1,0,0:0:0:0:
256,182,35258,1,8,0:0:0:0:
256,182,35337,1,0,0:0:0:0:
256,182,35653,1,8,0:0:0:0:
256,182,35810,1,0,0:0:0:0:
256,182,35968,1,8,0:0:0:0:
256,182,36047,1,0,0:0:0:0:
256,182,36126,1,0,0:0:0:0:
256,182,36205,1,0,0:0:0:0:
256,182,36284,1,8,0:0:0:0:
256,182,36442,1,8,0:0:0:0:
256,182,36600,5,0,0:0:0:0:
256,182,36916,1,8,0:0:0:0:
256,182,37074,1,0,0:0:0:0:
256,182,37153,1,0,0:0:0:0:
256,182,37231,1,8,0:0:0:0:
256,182,37310,1,8,0:0:0:0:
256,182,37389,1,0,0:0:0:0:
256,182,37547,1,8,0:0:0:0:
256,182,37705,1,0,0:0:0:0:
256,182,37784,1,8,0:0:0:0:
256,182,37863,1,0,0:0:0:0:
256,182,38179,1,0,0:0:0:0:
256,182,38258,1,0,0:0:0:0:
256,182,38337,1,8,0:0:0:0:
256,182,38495,1,0,0:0:0:0:
256,182,38653,1,8,0:0:0:0:
256,182,38731,1,0,0:0:0:0:
256,182,38810,1,0,0:0:0:0:
256,182,38968,1,8,0:0:0:0:
256,182,39126,5,0,0:0:0:0:
256,182,39442,1,8,0:0:0:0:
256,182,39600,1,0,0:0:0:0:
256,182,39758,1,8,0:0:0:0:
256,182,39837,1,8,0:0:0:0:
256,182,39916,1,0,0:0:0:0:
256,182,40074,1,8,0:0:0:0:
256,182,40231,1,0,0:0:0:0:
256,182,40310,1,0,0:0:0:0:
256,182,40389,1,8,0:0:0:0:
256,182,40547,1,0,0:0:0:0:
256,182,40705,1,8,0:0:0:0:
256,182,40784,1,8,0:0:0:0:
256,182,40863,1,0,0:0:0:0:
256,182,41021,1,8,0:0:0:0:
256,182,41100,1,0,0:0:0:0:
256,182,41179,1,0,0:0:0:0:
256,182,41337,1,8,0:0:0:0:
256,182,41653,1,0,0:0:0:0:
256,182,41810,1,8,0:0:0:0:
256,182,41968,1,8,0:0:0:0:
256,182,42126,1,0,0:0:0:0:
256,182,42284,1,8,0:0:0:0:
256,182,42442,1,0,0:0:0:0:
256,182,42521,1,0,0:0:0:0:
256,182,42600,1,0,0:0:0:0:
256,182,42916,1,8,0:0:0:0:
256,182,43074,1,0,0:0:0:0:
256,182,43231,1,8,0:0:0:0:
256,182,43389,1,8,0:0:0:0:
256,182,43547,1,0,0:0:0:0:
256,182,43626,1,0,0:0:0:0:
256,182,43705,1,0,0:0:0:0:
256,182,43784,1,0,0:0:0:0:
256,182,43863,1,8,0:0:0:0:
256,182,44179,1,0,0:0:0:0:
256,182,44337,1,0,0:0:0:0:
256,182,44495,1,8,0:0:0:0:
256,182,44653,1,8,0:0:0:0:
256,182,44810,1,8,0:0:0:0:
256,182,44968,1,8,0:0:0:0:
256,182,45126,1,8,0:0:0:0:
256,182,45284,1,8,0:0:0:0:
256,182,45442,1,0,0:0:0:0:
256,182,45521,1,0,0:0:0:0:
256,182,45600,1,8,0:0:0:0:
256,182,45679,1,0,0:0:0:0:
256,182,45758,1,8,0:0:0:0:
256,182,45837,1,8,0:0:0:0:
256,182,45916,1,0,0:0:0:0:
256,182,46074,1,8,0:0:0:0:
256,182,46231,1,0,0:0:0:0:
256,182,46310,1,0,0:0:0:0:
256,182,46389,1,8,0:0:0:0:
256,182,46705,5,4,0:0:0:0:
256,182,46863,1,0,0:0:0:0:
256,182,47021,1,8,0:0:0:0:
256,182,47179,1,0,0:0:0:0:
256,182,47258,1,0,0:0:0:0:
256,182,47337,1,8,0:0:0:0:
256,182,47495,1,0,0:0:0:0:
256,182,47653,1,8,0:0:0:0:
256,182,47810,1,0,0:0:0:0:
256,182,47889,1,0,0:0:0:0:
256,182,47968,1,8,0:0:0:0:
256,182,48126,1,0,0:0:0:0:
256,182,48284,1,8,0:0:0:0:
256,182,48363,1,8,0:0:0:0:
256,182,48442,1,0,0:0:0:0:
256,182,48600,1,8,0:0:0:0:
256,182,48758,1,0,0:0:0:0:
256,182,48916,1,0,0:0:0:0:
256,182,49074,1,8,0:0:0:0:
256,182,49231,5,0,0:0:0:0:
256,182,49547,1,8,0:0:0:0:
256,182,49705,1,0,0:0:0:0:
256,182,49784,1,0,0:0:0:0:
256,182,49863,1,8,0:0:0:0:
256,182,50021,1,0,0:0:0:0:
256,182,50179,1,8,0:0:0:0:
256,182,50337,1,0,0:0:0:0:
256,182,50495,1,8,0:0:0:0:
256,182,50574,1,8,0:0:0:0:
256,182,50653,1,8,0:0:0:0:
256,182,50731,1,8,0:0:0:0:
256,182,50810,1,0,0:0:0:0:
256,182,50968,1,8,0:0:0:0:
256,182,51126,1,0,0:0:0:0:
256,182,51205,1,0,0:0:0:0:
256,182,51284,1,0,0:0:0:0:
256,182,51442,1,8,0:0:0:0:
256,182,51600,1,8,0:0:0:0:
256,182,51758,5,0,0:0:0:0:
256,182,52074,1,8,0:0:0:0:
256,182,52231,1,0,0:0:0:0:
256,182,52389,1,8,0:0:0:0:
256,182,52468,1,8,0:0:0:0:
256,182,52547,1,0,0:0:0:0:
256,182,52705,1,8,0:0:0:0:
256,182,52863,1,0,0:0:0:0:
256,182,53021,1,8,0:0:0:0:
256,182,53100,1,8,0:0:0:0:
256,182,53179,1,0,0:0:0:0:
256,182,53258,1,8,0:0:0:0:
256,182,53337,1,0,0:0:0:0:
256,182,53495,1,8,0:0:0:0:
256,182,53653,1,0,0:0:0:0:
256,182,53810,1,8,0:0:0:0:
256,182,53889,1,0,0:0:0:0:
256,182,53968,1,0,0:0:0:0:
256,182,54126,1,8,0:0:0:0:
256,182,54284,5,0,0:0:0:0:
256,182,54600,1,8,0:0:0:0:
256,182,54758,1,0,0:0:0:0:
256,182,54916,1,8,0:0:0:0:
256,182,54995,1,8,0:0:0:0:
256,182,55074,1,0,0:0:0:0:
256,182,55231,1,8,0:0:0:0:
256,182,55389,1,0,0:0:0:0:
256,182,55468,1,0,0:0:0:0:
256,182,55547,1,8,0:0:0:0:
256,182,55705,1,0,0:0:0:0:
256,182,55863,1,8,0:0:0:0:
256,182,56021,1,0,0:0:0:0:
256,182,56179,1,8,0:0:0:0:
256,182,56258,1,8,0:0:0:0:
256,182,56337,1,0,0:0:0:0:
256,182,56495,1,0,0:0:0:0:
256,182,56810,1,8,0:0:0:0:
256,182,57126,1,8,0:0:0:0:
256,182,57442,1,8,0:0:0:0:
256,182,57758,1,8,0:0:0:0:
256,182,58074,1,4,0:0:0:0:
256,182,58705,1,0,0:0:0:0:
256,182,59337,1,8,0:0:0:0:
256,182,59968,1,8,0:0:0:0:
256,182,60600,1,0,0:0:0:0:
256,182,61547,1,0,0:0:0:0:
256,182,61863,1,8,0:0:0:0:
256,182,62179,1,8,0:0:0:0:
256,182,62495,1,8,0:0:0:0:
256,182,62810,1,0,0:0:0:0:
256,182,63442,1,0,0:0:0:0:
256,182,64074,1,8,0:0:0:0:
256,182,64389,1,8,0:0:0:0:
256,182,64705,1,0,0:0:0:0:
256,182,65337,1,8,0:0:0:0:
256,182,65653,1,0,0:0:0:0:
256,182,65968,1,0,0:0:0:0:
256,182,66284,1,8,0:0:0:0:
256,182,66600,1,8,0:0:0:0:
256,182,67231,1,0,0:0:0:0:
256,182,67547,1,8,0:0:0:0:
256,182,67705,1,8,0:0:0:0:
256,182,68179,1,0,0:0:0:0:
256,182,68810,1,0,0:0:0:0:
256,182,69442,1,8,0:0:0:0:
256,182,70074,1,8,0:0:0:0:
256,182,70705,1,0,0:0:0:0:
256,182,71653,1,0,0:0:0:0:
256,182,71968,1,8,0:0:0:0:
256,182,72284,1,8,0:0:0:0:
256,182,72600,1,0,0:0:0:0:
256,182,72916,1,0,0:0:0:0:
256,182,73547,1,8,0:0:0:0:
256,182,74179,5,0,0:0:0:0:
256,182,74337,1,8,0:0:0:0:
256,182,74653,1,0,0:0:0:0:
256,182,74810,1,8,0:0:0:0:
256,182,74968,1,0,0:0:0:0:
256,182,75442,1,8,0:0:0:0:
256,182,75758,1,0,0:0:0:0:
256,182,76074,1,8,0:0:0:0:
256,182,76389,1,8,0:0:0:0:
256,182,76705,1,0,0:0:0:0:
256,182,77021,1,0,0:0:0:0:
256,182,77337,1,8,0:0:0:0:
256,182,77495,1,8,0:0:0:0:
256,182,77653,1,0,0:0:0:0:
256,182,77968,1,8,0:0:0:0:
256,182,78284,1,4,0:0:0:0:
256,192,78442,12,0,80653,0:0:0:0:
253,180,80810,5,0,0:0:0:0:
253,180,80968,1,0,0:0:0:0:
253,180,81126,1,8,0:0:0:0:
253,180,81284,1,8,0:0:0:0:
253,180,81442,1,0,0:0:0:0:
253,180,81758,1,8,0:0:0:0:
253,180,82074,1,0,0:0:0:0:
253,180,82231,1,0,0:0:0:0:
253,180,82389,1,8,0:0:0:0:
253,180,82547,1,8,0:0:0:0:
253,180,82705,1,0,0:0:0:0:
253,180,82784,1,0,0:0:0:0:
253,180,82863,1,0,0:0:0:0:
253,180,82942,1,0,0:0:0:0:
253,180,83021,1,8,0:0:0:0:
254,191,83337,5,4,0:0:0:0:
254,191,83495,1,8,0:0:0:0:
254,191,83574,1,8,0:0:0:0:
254,191,83653,1,0,0:0:0:0:
254,191,83810,1,8,0:0:0:0:
254,191,83968,1,0,0:0:0:0:
254,191,84047,1,0,0:0:0:0:
254,191,84126,1,8,0:0:0:0:
254,191,84284,1,0,0:0:0:0:
254,191,84442,1,8,0:0:0:0:
254,191,84600,1,0,0:0:0:0:
254,191,84679,1,0,0:0:0:0:
254,191,84758,1,8,0:0:0:0:
254,191,84837,1,0,0:0:0:0:
254,191,84916,1,8,0:0:0:0:
254,191,85074,1,0,0:0:0:0:
254,191,85231,1,8,0:0:0:0:
254,191,85389,1,0,0:0:0:0:
254,191,85468,1,0,0:0:0:0:
254,191,85547,1,0,0:0:0:0:
254,191,85705,1,8,0:0:0:0:
254,191,85863,1,0,0:0:0:0:
254,191,86100,1,8,0:0:0:0:
254,191,86179,1,0,0:0:0:0:
254,191,86337,1,8,0:0:0:0:
254,191,86495,1,0,0:0:0:0:
254,191,86574,1,0,0:0:0:0:
254,191,86653,1,8,0:0:0:0:
254,191,86810,1,0,0:0:0:0:
254,191,86968,1,8,0:0:0:0:
254,191,87126,1,0,0:0:0:0:
254,191,87284,1,8,0:0:0:0:
254,191,87363,1,0,0:0:0:0:
254,191,87442,1,0,0:0:0:0:
254,191,87600,1,8,0:0:0:0:
254,191,87758,1,0,0:0:0:0:
254,191,87837,1,0,0:0:0:0:
254,191,87916,1,8,0:0:0:0:
254,191,87995,1,0,0:0:0:0:
254,191,88074,1,8,0:0:0:0:
254,191,88231,1,0,0:0:0:0:
254,191,88389,1,0,0:0:0:0:
254,191,88626,1,0,0:0:0:0:
254,191,88705,1,8,0:0:0:0:
254,191,88863,1,0,0:0:0:0:
254,191,89021,1,8,0:0:0:0:
254,191,89179,1,0,0:0:0:0:
254,191,89337,1,8,0:0:0:0:
254,191,89416,1,8,0:0:0:0:
254,191,89495,1,0,0:0:0:0:
254,191,89574,1,0,0:0:0:0:
254,191,89653,1,8,0:0:0:0:
254,191,89810,1,0,0:0:0:0:
254,191,89889,1,0,0:0:0:0:
254,191,89968,1,8,0:0:0:0:
254,191,90126,1,0,0:0:0:0:
254,191,90284,1,8,0:0:0:0:
254,191,90363,1,8,0:0:0:0:
254,191,90442,1,0,0:0:0:0:
254,191,90600,1,8,0:0:0:0:
254,191,90916,1,0,0:0:0:0:
254,191,91074,1,8,0:0:0:0:
254,191,91153,1,8,0:0:0:0:
254,191,91231,1,0,0:0:0:0:
254,191,91389,1,8,0:0:0:0:
254,191,91547,1,0,0:0:0:0:
254,191,91626,1,0,0:0:0:0:
254,191,91705,1,8,0:0:0:0:
254,191,91863,1,0,0:0:0:0:
254,191,92021,1,8,0:0:0:0:
254,191,92179,1,0,0:0:0:0:
254,191,92337,1,8,0:0:0:0:
254,191,92416,1,0,0:0:0:0:
254,191,92495,1,0,0:0:0:0:
254,191,92653,1,8,0:0:0:0:
254,191,92810,1,0,0:0:0:0:
254,191,92889,1,8,0:0:0:0:
254,191,92968,1,0,0:0:0:0:
254,191,93047,1,0,0:0:0:0:
254,191,93126,1,8,0:0:0:0:
254,191,93442,5,4,0:0:0:0:
254,191,93600,1,8,0:0:0:0:
254,191,93679,1,8,0:0:0:0:
254,191,93758,1,0,0:0:0:0:
254,191,93916,1,8,0:0:0:0:
254,191,94074,1,0,0:0:0:0:
254,191,94153,1,0,0:0:0:0:
254,191,94231,1,8,0:0:0:0:
254,191,94389,1,0,0:0:0:0:
254,191,94547,1,8,0:0:0:0:
254,191,94705,1,0,0:0:0:0:
254,191,94784,1,0,0:0:0:0:
254,191,94863,1,8,0:0:0:0:
254,191,94942,1,0,0:0:0:0:
254,191,95021,1,8,0:0:0:0:
254,191,95179,1,0,0:0:0:0:
254,191,95337,1,8,0:0:0:0:
254,191,95495,1,0,0:0:0:0:
254,191,95574,1,0,0:0:0:0:
254,191,95653,1,0,0:0:0:0:
254,191,95810,1,8,0:0:0:0:
254,191,95968,1,0,0:0:0:0:
254,191,96205,1,0,0:0:0:0:
254,191,96284,1,8,0:0:0:0:
254,191,96442,1,0,0:0:0:0:
254,191,96600,1,8,0:0:0:0:
254,191,96679,1,8,0:0:0:0:
254,191,96758,1,0,0:0:0:0:
254,191,96837,1,8,0:0:0:0:
254,191,96916,1,0,0:0:0:0:
254,191,97074,1,8,0:0:0:0:
254,191,97231,1,0,0:0:0:0:
254,191,97389,1,8,0:0:0:0:
254,191,97468,1,0,0:0:0:0:
254,191,97547,1,0,0:0:0:0:
254,191,97705,1,8,0:0:0:0:
254,191,97863,1,0,0:0:0:0:
254,191,98021,1,8,0:0:0:0:
254,191,98100,1,8,0:0:0:0:
254,191,98179,1,0,0:0:0:0:
254,191,98258,1,0,0:0:0:0:
254,191,98337,1,8,0:0:0:0:
254,191,98495,1,4,0:0:0:0:
254,191,98731,1,0,0:0:0:0:
254,191,98810,1,8,0:0:0:0:
254,191,98968,1,0,0:0:0:0:
254,191,99126,1,8,0:0:0:0:
254,191,99284,1,0,0:0:0:0:
254,191,99442,1,8,0:0:0:0:
254,191,99521,1,8,0:0:0:0:
254,191,99600,1,0,0:0:0:0:
254,191,99758,1,8,0:0:0:0:
254,191,99916,1,0,0:0:0:0:
254,191,99995,1,0,0:0:0:0:
254,191,100074,1,8,0:0:0:0:
254,191,100231,1,0,0:0:0:0:
254,191,100389,1,8,0:0:0:0:
254,191,100468,1,8,0:0:0:0:
254,191,100547,1,0,0:0:0:0:
254,191,100626,1,8,0:0:0:0:
254,191,100705,1,0,0:0:0:0:
254,191,100863,1,8,0:0:0:0:
254,191,101021,1,0,0:0:0:0:
254,191,101179,1,8,0:0:0:0:
254,191,101258,1,8,0:0:0:0:
254,191,101337,1,0,0:0:0:0:
254,191,101495,1,8,0:0:0:0:
254,191,101653,1,0,0:0:0:0:
254,191,101731,1,0,0:0:0:0:
254,191,101810,1,8,0:0:0:0:
254,191,101889,1,0,0:0:0:0:
254,191,101968,1,8,0:0:0:0:
254,191,102126,1,0,0:0:0:0:
254,191,102442,1,12,0:0:0:0:
254,191,102600,1,4,0:0:0:0:
254,191,102916,1,4,0:0:0:0:
254,191,103231,1,12,0:0:0:0:
254,191,103547,1,0,0:0:0:0:
254,191,103705,1,8,0:0:0:0:
254,191,104021,1,8,0:0:0:0:
254,191,104179,1,0,0:0:0:0:
254,191,104337,1,0,0:0:0:0:
254,191,104495,1,8,0:0:0:0:
254,191,104653,1,8,0:0:0:0:
254,191,104810,1,0,0:0:0:0:
254,191,104889,1,0,0:0:0:0:
254,191,104968,1,0,0:0:0:0:
254,191,105126,1,8,0:0:0:0:
193,185,105284,1,0,0:0:0:0:
254,191,105363,1,0,0:0:0:0:
251,190,105442,1,8,0:0:0:0:
254,191,105521,1,8,0:0:0:0:
251,190,105600,1,0,0:0:0:0:
254,191,105679,1,0,0:0:0:0:
254,191,105758,1,8,0:0:0:0:
256,182,106074,5,4,0:0:0:0:
256,182,106231,1,0,0:0:0:0:
256,182,106389,1,8,0:0:0:0:
256,182,106547,1,0,0:0:0:0:
256,182,106626,1,0,0:0:0:0:
256,182,106705,1,8,0:0:0:0:
256,182,106863,1,0,0:0:0:0:
256,182,107021,1,8,0:0:0:0:
256,182,107179,1,0,0:0:0:0:
256,182,107258,1,0,0:0:0:0:
256,182,107337,1,8,0:0:0:0:
256,182,107495,1,0,0:0:0:0:
256,182,107653,1,8,0:0:0:0:
256,182,107731,1,8,0:0:0:0:
256,182,107810,1,0,0:0:0:0:
256,182,107968,1,8,0:0:0:0:
256,182,108047,1,0,0:0:0:0:
256,182,108126,1,8,0:0:0:0:
256,182,108205,1,8,0:0:0:0:
256,182,108284,1,0,0:0:0:0:
256,182,108442,1,8,0:0:0:0:
256,182,108600,5,0,0:0:0:0:
256,182,108758,1,8,0:0:0:0:
256,182,108837,1,8,0:0:0:0:
256,182,108916,1,0,0:0:0:0:
256,182,109074,1,8,0:0:0:0:
256,182,109231,1,0,0:0:0:0:
256,182,109310,1,0,0:0:0:0:
256,182,109389,1,0,0:0:0:0:
256,182,109547,1,8,0:0:0:0:
256,182,109705,1,0,0:0:0:0:
256,182,109863,1,8,0:0:0:0:
256,182,109942,1,8,0:0:0:0:
256,182,110021,1,0,0:0:0:0:
256,182,110100,1,8,0:0:0:0:
256,182,110179,1,0,0:0:0:0:
256,182,110337,1,8,0:0:0:0:
256,182,110495,1,0,0:0:0:0:
256,182,110574,1,0,0:0:0:0:
256,182,110653,1,0,0:0:0:0:
256,182,110810,1,8,0:0:0:0:
256,182,111126,5,0,0:0:0:0:
256,182,111284,1,8,0:0:0:0:
256,182,111442,1,0,0:0:0:0:
256,182,111600,1,8,0:0:0:0:
256,182,111758,1,0,0:0:0:0:
256,182,111837,1,8,0:0:0:0:
256,182,111916,1,0,0:0:0:0:
256,182,111995,1,0,0:0:0:0:
256,182,112074,1,8,0:0:0:0:
256,182,112231,1,0,0:0:0:0:
256,182,112310,1,0,0:0:0:0:
256,182,112389,1,8,0:0:0:0:
256,182,112547,1,0,0:0:0:0:
256,182,112705,1,8,0:0:0:0:
256,182,112863,1,0,0:0:0:0:
256,182,113021,1,8,0:0:0:0:
256,182,113100,1,8,0:0:0:0:
256,182,113179,1,0,0:0:0:0:
256,182,113258,1,8,0:0:0:0:
256,182,113337,1,0,0:0:0:0:
256,182,113495,1,8,0:0:0:0:
256,182,113653,5,4,0:0:0:0:
256,182,113968,1,8,0:0:0:0:
256,182,114126,1,0,0:0:0:0:
256,182,114205,1,0,0:0:0:0:
256,182,114284,1,8,0:0:0:0:
256,182,114442,1,0,0:0:0:0:
256,182,114600,1,8,0:0:0:0:
256,182,114758,1,0,0:0:0:0:
256,182,114916,1,8,0:0:0:0:
256,182,114995,1,8,0:0:0:0:
256,182,115074,1,8,0:0:0:0:
256,182,115153,1,8,0:0:0:0:
256,182,115231,1,0,0:0:0:0:
256,182,115389,1,8,0:0:0:0:
256,182,115547,1,0,0:0:0:0:
256,182,115626,1,0,0:0:0:0:
256,182,115705,1,0,0:0:0:0:
256,182,115863,1,8,0:0:0:0:
256,182,116021,1,8,0:0:0:0:
256,182,116179,5,0,0:0:0:0:
256,182,116337,1,8,0:0:0:0:
256,182,116416,1,8,0:0:0:0:
256,182,116495,1,8,0:0:0:0:
256,182,116653,1,0,0:0:0:0:
256,182,116810,1,8,0:0:0:0:
256,182,116889,1,8,0:0:0:0:
256,182,116968,1,0,0:0:0:0:
256,182,117126,1,8,0:0:0:0:
256,182,117284,1,0,0:0:0:0:
256,182,117363,1,0,0:0:0:0:
256,182,117442,1,8,0:0:0:0:
256,182,117600,1,0,0:0:0:0:
256,182,117758,1,8,0:0:0:0:
256,182,117837,1,8,0:0:0:0:
256,182,117916,1,0,0:0:0:0:
256,182,118074,1,8,0:0:0:0:
256,182,118153,1,8,0:0:0:0:
256,182,118231,1,0,0:0:0:0:
256,182,118310,1,8,0:0:0:0:
256,182,118389,1,0,0:0:0:0:
256,182,118705,5,4,0:0:0:0:
256,182,118863,1,8,0:0:0:0:
256,182,118942,1,8,0:0:0:0:
256,182,119021,1,8,0:0:0:0:
256,182,119179,1,0,0:0:0:0:
256,182,119337,1,8,0:0:0:0:
256,182,119416,1,8,0:0:0:0:
256,182,119495,1,0,0:0:0:0:
256,182,119653,1,8,0:0:0:0:
256,182,119810,1,0,0:0:0:0:
256,182,119968,1,8,0:0:0:0:
256,182,120047,1,0,0:0:0:0:
256,182,120126,1,8,0:0:0:0:
256,182,120205,1,8,0:0:0:0:
256,182,120284,1,0,0:0:0:0:
256,182,120442,1,8,0:0:0:0:
256,182,120600,1,0,0:0:0:0:
256,182,120679,1,0,0:0:0:0:
256,182,120758,1,0,0:0:0:0:
256,182,120916,1,8,0:0:0:0:
256,182,121231,5,4,0:0:0:0:
256,182,121389,1,8,0:0:0:0:
256,182,121468,1,8,0:0:0:0:
256,182,121547,1,0,0:0:0:0:
256,182,121705,1,8,0:0:0:0:
256,182,121863,1,0,0:0:0:0:
256,182,121942,1,0,0:0:0:0:
256,182,122021,1,8,0:0:0:0:
256,182,122179,1,0,0:0:0:0:
256,182,122337,1,8,0:0:0:0:
256,182,122495,1,0,0:0:0:0:
256,182,122574,1,0,0:0:0:0:
256,182,122653,1,8,0:0:0:0:
256,182,122731,1,0,0:0:0:0:
256,182,122810,1,8,0:0:0:0:
256,182,122889,1,8,0:0:0:0:
256,182,122968,1,0,0:0:0:0:
256,182,123126,1,8,0:0:0:0:
256,182,123205,1,8,0:0:0:0:
256,182,123284,1,0,0:0:0:0:
256,182,123363,1,0,0:0:0:0:
256,182,123442,1,8,0:0:0:0:
254,191,123758,5,4,0:0:0:0:
254,191,123916,1,8,0:0:0:0:
254,191,123995,1,8,0:0:0:0:
254,191,124074,1,0,0:0:0:0:
254,191,124231,1,8,0:0:0:0:
254,191,124389,1,0,0:0:0:0:
254,191,124468,1,0,0:0:0:0:
254,191,124547,1,8,0:0:0:0:
254,191,124626,1,8,0:0:0:0:
254,191,124705,1,0,0:0:0:0:
254,191,124863,1,8,0:0:0:0:
254,191,125021,1,0,0:0:0:0:
254,191,125100,1,0,0:0:0:0:
254,191,125179,1,8,0:0:0:0:
254,191,125258,1,0,0:0:0:0:
254,191,125337,5,8,0:0:0:0:
254,191,125495,1,0,0:0:0:0:
254,191,125653,1,8,0:0:0:0:
254,191,125810,1,0,0:0:0:0:
254,191,125889,1,0,0:0:0:0:
254,191,125968,1,0,0:0:0:0:
254,191,126126,1,8,0:0:0:0:
254,191,126284,1,0,0:0:0:0:
254,191,126521,5,8,0:0:0:0:
254,191,126600,1,0,0:0:0:0:
254,191,126758,1,8,0:0:0:0:
254,191,126916,1,0,0:0:0:0:
254,191,126995,1,0,0:0:0:0:
254,191,127074,1,8,0:0:0:0:
254,191,127231,1,0,0:0:0:0:
254,191,127389,1,8,0:0:0:0:
254,191,127547,1,0,0:0:0:0:
254,191,127705,1,8,0:0:0:0:
254,191,127784,1,0,0:0:0:0:
254,191,127863,1,0,0:0:0:0:
254,191,128021,1,8,0:0:0:0:
254,191,128179,1,0,0:0:0:0:
254,191,128337,1,8,0:0:0:0:
254,191,128416,1,8,0:0:0:0:
254,191,128495,1,0,0:0:0:0:
254,191,128574,1,0,0:0:0:0:
254,191,128653,1,8,0:0:0:0:
254,191,128810,1,0,0:0:0:0:
254,191,129047,1,0,0:0:0:0:
254,191,129126,1,8,0:0:0:0:
254,191,129284,1,0,0:0:0:0:
254,191,129363,1,0,0:0:0:0:
254,191,129442,1,8,0:0:0:0:
254,191,129600,1,0,0:0:0:0:
254,191,129758,1,8,0:0:0:0:
254,191,129837,1,8,0:0:0:0:
254,191,129916,1,0,0:0:0:0:
254,191,129995,1,0,0:0:0:0:
254,191,130074,1,8,0:0:0:0:
254,191,130231,1,0,0:0:0:0:
254,191,130389,1,8,0:0:0:0:
254,191,130468,1,8,0:0:0:0:
254,191,130547,1,0,0:0:0:0:
254,191,130705,1,8,0:0:0:0:
254,191,130863,1,0,0:0:0:0:
254,191,130942,1,8,0:0:0:0:
254,191,131021,1,0,0:0:0:0:
254,191,131337,1,0,0:0:0:0:
254,191,131495,1,8,0:0:0:0:
254,191,131574,1,8,0:0:0:0:
254,191,131653,1,0,0:0:0:0:
254,191,131810,1,8,0:0:0:0:
254,191,131968,1,0,0:0:0:0:
254,191,132047,1,8,0:0:0:0:
254,191,132126,1,0,0:0:0:0:
254,191,132205,1,8,0:0:0:0:
254,191,132284,1,0,0:0:0:0:
254,191,132442,1,8,0:0:0:0:
254,191,132600,1,0,0:0:0:0:
254,191,132758,1,8,0:0:0:0:
254,191,132837,1,0,0:0:0:0:
254,191,132916,1,0,0:0:0:0:
254,191,133074,1,8,0:0:0:0:
254,191,133231,1,0,0:0:0:0:
254,191,133310,1,0,0:0:0:0:
254,191,133389,1,8,0:0:0:0:
254,191,133468,1,8,0:0:0:0:
254,191,133547,1,0,0:0:0:0:
254,191,133863,5,4,0:0:0:0:
254,191,134021,1,8,0:0:0:0:
254,191,134100,1,8,0:0:0:0:
254,191,134179,1,0,0:0:0:0:
254,191,134337,1,8,0:0:0:0:
254,191,134495,1,0,0:0:0:0:
254,191,134574,1,0,0:0:0:0:
254,191,134653,1,8,0:0:0:0:
254,191,134731,1,8,0:0:0:0:
254,191,134810,1,0,0:0:0:0:
254,191,134968,1,8,0:0:0:0:
254,191,135126,1,0,0:0:0:0:
254,191,135205,1,0,0:0:0:0:
254,191,135284,1,8,0:0:0:0:
254,191,135363,1,0,0:0:0:0:
254,191,135442,1,8,0:0:0:0:
254,191,135600,1,0,0:0:0:0:
254,191,135758,1,8,0:0:0:0:
254,191,135916,1,0,0:0:0:0:
254,191,135995,1,0,0:0:0:0:
254,191,136074,1,0,0:0:0:0:
254,191,136231,1,8,0:0:0:0:
254,191,136389,1,0,0:0:0:0:
254,191,136626,1,8,0:0:0:0:
254,191,136705,1,0,0:0:0:0:
254,191,136863,1,8,0:0:0:0:
254,191,137021,1,0,0:0:0:0:
254,191,137100,1,0,0:0:0:0:
254,191,137179,1,8,0:0:0:0:
254,191,137258,1,8,0:0:0:0:
254,191,137337,1,0,0:0:0:0:
254,191,137495,1,8,0:0:0:0:
254,191,137653,1,0,0:0:0:0:
254,191,137810,1,8,0:0:0:0:
254,191,137889,1,0,0:0:0:0:
254,191,137968,1,0,0:0:0:0:
254,191,138126,1,8,0:0:0:0:
254,191,138284,1,0,0:0:0:0:
254,191,138442,1,8,0:0:0:0:
254,191,138521,1,8,0:0:0:0:
254,191,138600,1,0,0:0:0:0:
254,191,138679,1,0,0:0:0:0:
254,191,138758,1,8,0:0:0:0:
254,191,138916,1,4,0:0:0:0:
254,191,139153,1,0,0:0:0:0:
254,191,139231,1,8,0:0:0:0:
254,191,139389,1,0,0:0:0:0:
254,191,139468,1,0,0:0:0:0:
254,191,139547,1,8,0:0:0:0:
254,191,139705,1,0,0:0:0:0:
254,191,139863,1,8,0:0:0:0:
254,191,139942,1,8,0:0:0:0:
254,191,140021,1,0,0:0:0:0:
254,191,140179,1,8,0:0:0:0:
254,191,140337,1,0,0:0:0:0:
254,191,140416,1,0,0:0:0:0:
254,191,140495,1,8,0:0:0:0:
254,191,140653,1,0,0:0:0:0:
254,191,140810,1,8,0:0:0:0:
254,191,140889,1,8,0:0:0:0:
254,191,140968,1,0,0:0:0:0:
254,191,141047,1,8,0:0:0:0:
254,191,141126,1,0,0:0:0:0:
254,191,141442,1,0,0:0:0:0:
254,191,141600,1,8,0:0:0:0:
254,191,141679,1,8,0:0:0:0:
254,191,141758,1,0,0:0:0:0:
254,191,141916,1,8,0:0:0:0:
254,191,142074,1,0,0:0:0:0:
254,191,142153,1,0,0:0:0:0:
254,191,142231,1,8,0:0:0:0:
254,191,142310,1,0,0:0:0:0:
254,191,142389,1,8,0:0:0:0:
254,191,142547,1,0,0:0:0:0:
254,191,142863,1,12,0:0:0:0:
254,191,143021,1,4,0:0:0:0:
254,191,143337,1,4,0:0:0:0:
254,191,143653,1,12,0:0:0:0:
254,191,143968,1,0,0:0:0:0:
254,191,144126,1,0,0:0:0:0:
254,191,144284,1,8,0:0:0:0:
254,191,144442,1,8,0:0:0:0:
254,191,144758,1,0,0:0:0:0:
254,191,145074,1,8,0:0:0:0:
254,191,145389,1,0,0:0:0:0:
254,191,145705,1,8,0:0:0:0:
254,191,145863,1,0,0:0:0:0:
254,191,146021,1,8,0:0:0:0:
254,191,146179,1,0,0:0:0:0:
254,191,146337,1,8,0:0:0:0:
254,191,146495,1,4,0:0:0:0:
254,191,146731,1,8,0:0:0:0:
254,191,146810,1,0,0:0:0:0:
254,191,146968,1,8,0:0:0:0:
254,191,147126,1,0,0:0:0:0:
254,191,147205,1,0,0:0:0:0:
254,191,147284,1,8,0:0:0:0:
254,191,147442,1,0,0:0:0:0:
254,191,147600,1,8,0:0:0:0:
254,191,147758,1,0,0:0:0:0:
254,191,147837,1,0,0:0:0:0:
254,191,147916,1,8,0:0:0:0:
254,191,148074,1,0,0:0:0:0:
254,191,148231,1,8,0:0:0:0:
254,191,148389,1,0,0:0:0:0:
254,191,148468,1,0,0:0:0:0:
254,191,148547,1,0,0:0:0:0:
254,191,148705,1,8,0:0:0:0:
254,191,148863,1,8,0:0:0:0:
254,191,149021,1,0,0:0:0:0:
254,191,149258,1,8,0:0:0:0:
254,191,149337,1,0,0:0:0:0:
254,191,149495,1,8,0:0:0:0:
254,191,149653,1,0,0:0:0:0:
254,191,149731,1,0,0:0:0:0:
254,191,149810,1,8,0:0:0:0:
254,191,149968,1,0,0:0:0:0:
254,191,150126,1,8,0:0:0:0:
254,191,150284,1,0,0:0:0:0:
254,191,150442,1,8,0:0:0:0:
254,191,150600,1,0,0:0:0:0:
254,191,150758,1,8,0:0:0:0:
254,191,150837,1,8,0:0:0:0:
254,191,150916,1,0,0:0:0:0:
254,191,151074,1,8,0:0:0:0:
254,191,151231,1,0,0:0:0:0:
254,191,151389,1,8,0:0:0:0:
254,191,151547,1,0,0:0:0:0:
254,191,151784,1,8,0:0:0:0:
254,191,151863,1,0,0:0:0:0:
254,191,152021,1,8,0:0:0:0:
254,191,152179,1,0,0:0:0:0:
254,191,152258,1,0,0:0:0:0:
254,191,152337,1,8,0:0:0:0:
254,191,152495,1,0,0:0:0:0:
254,191,152653,1,8,0:0:0:0:
254,191,152810,1,0,0:0:0:0:
254,191,152889,1,0,0:0:0:0:
254,191,152968,1,0,0:0:0:0:
254,191,153126,1,8,0:0:0:0:
254,191,153284,1,8,0:0:0:0:
254,191,153442,1,0,0:0:0:0:
254,191,153521,1,8,0:0:0:0:
254,191,153600,1,0,0:0:0:0:
254,191,153758,1,8,0:0:0:0:
254,191,153916,1,0,0:0:0:0:
254,191,154074,1,0,0:0:0:0:
254,191,154310,1,8,0:0:0:0:
254,191,154389,1,0,0:0:0:0:
254,191,154547,1,8,0:0:0:0:
254,191,154705,1,0,0:0:0:0:
254,191,154784,1,0,0:0:0:0:
254,191,154863,1,0,0:0:0:0:
254,191,155021,1,8,0:0:0:0:
254,191,155179,1,0,0:0:0:0:
254,191,155495,1,0,0:0:0:0:
254,191,155653,1,8,0:0:0:0:
254,191,155810,1,0,0:0:0:0:
254,191,155968,1,8,0:0:0:0:
254,191,156047,1,0,0:0:0:0:
254,191,156126,1,0,0:0:0:0:
254,191,156284,1,12,0:0:0:0:
254,191,156600,1,4,0:0:0:0:
254,191,156837,1,8,0:0:0:0:
254,191,156916,1,0,0:0:0:0:
254,191,157074,1,8,0:0:0:0:
254,191,157231,1,0,0:0:0:0:
254,191,157310,1,0,0:0:0:0:
254,191,157389,1,8,0:0:0:0:
254,191,157547,1,0,0:0:0:0:
254,191,157705,1,8,0:0:0:0:
254,191,157863,1,0,0:0:0:0:
254,191,157942,1,0,0:0:0:0:
254,191,158021,1,8,0:0:0:0:
254,191,158179,1,0,0:0:0:0:
254,191,158337,1,8,0:0:0:0:
254,191,158495,1,0,0:0:0:0:
254,191,158574,1,0,0:0:0:0:
254,191,158653,1,0,0:0:0:0:
254,191,158810,1,8,0:0:0:0:
254,191,158968,1,8,0:0:0:0:
254,191,159126,1,0,0:0:0:0:
254,191,159363,1,8,0:0:0:0:
254,191,159442,1,0,0:0:0:0:
254,191,159600,1,8,0:0:0:0:
254,191,159758,1,0,0:0:0:0:
254,191,159837,1,0,0:0:0:0:
254,191,159916,1,8,0:0:0:0:
254,191,160074,1,0,0:0:0:0:
254,191,160231,1,8,0:0:0:0:
254,191,160389,1,0,0:0:0:0:
254,191,160468,1,0,0:0:0:0:
254,191,160547,1,8,0:0:0:0:
254,191,160705,1,0,0:0:0:0:
254,191,160863,1,8,0:0:0:0:
254,191,160942,1,8,0:0:0:0:
254,191,161021,1,0,0:0:0:0:
254,191,161179,1,8,0:0:0:0:
254,191,161337,1,0,0:0:0:0:
254,191,161495,1,8,0:0:0:0:
254,191,161653,1,0,0:0:0:0:
254,191,161889,1,8,0:0:0:0:
254,191,161968,1,0,0:0:0:0:
254,191,162126,1,8,0:0:0:0:
254,191,162284,1,0,0:0:0:0:
254,191,162363,1,0,0:0:0:0:
254,191,162442,1,8,0:0:0:0:
254,191,162600,1,0,0:0:0:0:
254,191,162758,1,8,0:0:0:0:
254,191,162916,1,0,0:0:0:0:
254,191,162995,1,0,0:0:0:0:
254,191,163074,1,0,0:0:0:0:
254,191,163231,1,8,0:0:0:0:
254,191,163389,1,8,0:0:0:0:
254,191,163547,1,0,0:0:0:0:
254,191,163626,1,8,0:0:0:0:
254,191,163705,1,0,0:0:0:0:
254,191,163863,1,8,0:0:0:0:
254,191,164021,1,8,0:0:0:0:
254,191,164179,1,0,0:0:0:0:
254,191,164416,1,8,0:0:0:0:
254,191,164495,1,0,0:0:0:0:
254,191,164653,1,8,0:0:0:0:
254,191,164810,1,0,0:0:0:0:
254,191,164889,1,0,0:0:0:0:
254,191,164968,1,0,0:0:0:0:
254,191,165126,1,8,0:0:0:0:
254,191,165284,1,8,0:0:0:0:
254,191,165600,1,0,0:0:0:0:
254,191,165758,1,8,0:0:0:0:
254,191,165916,1,0,0:0:0:0:
254,191,166074,1,8,0:0:0:0:
254,191,166231,1,8,0:0:0:0:
254,191,166389,1,0,0:0:0:0:
254,191,166705,1,0,0:0:0:0:
256,192,176810,12,0,181547,0:0:0:0:
256,193,181863,5,0,0:0:0:0:
256,193,183126,1,0,0:0:0:0:
256,193,184389,1,8,0:0:0:0:
256,193,185653,1,8,0:0:0:0:
256,193,186916,1,0,0:0:0:0:
256,193,188179,1,0,0:0:0:0:
256,193,189442,1,8,0:0:0:0:
256,193,190705,1,8,0:0:0:0:
256,193,191968,1,0,0:0:0:0:
256,193,192284,1,0,0:0:0:0:
256,193,192442,1,8,0:0:0:0:
256,193,192758,1,0,0:0:0:0:
256,193,193074,1,8,0:0:0:0:
256,193,193389,1,0,0:0:0:0:
256,193,193705,1,8,0:0:0:0:
256,193,193863,1,0,0:0:0:0:
256,193,194021,1,8,0:0:0:0:
256,193,194179,1,0,0:0:0:0:
256,193,194495,1,0,0:0:0:0:
256,193,194810,1,0,0:0:0:0:
256,193,194968,1,8,0:0:0:0:
256,193,195284,1,0,0:0:0:0:
256,193,195600,1,8,0:0:0:0:
256,193,195916,1,0,0:0:0:0:
256,193,196231,1,8,0:0:0:0:
256,193,196389,1,0,0:0:0:0:
256,193,196547,1,8,0:0:0:0:
256,193,196705,1,0,0:0:0:0:
256,193,197021,1,0,0:0:0:0:
256,193,197337,1,0,0:0:0:0:
256,193,197495,1,8,0:0:0:0:
256,193,197810,1,0,0:0:0:0:
256,193,198126,1,8,0:0:0:0:
256,193,198442,1,0,0:0:0:0:
256,193,198758,1,8,0:0:0:0:
256,193,198916,1,0,0:0:0:0:
256,193,199074,1,8,0:0:0:0:
256,193,199231,1,0,0:0:0:0:
256,193,199547,1,0,0:0:0:0:
256,193,199863,1,0,0:0:0:0:
256,193,200021,1,8,0:0:0:0:
256,193,200337,1,0,0:0:0:0:
256,193,200653,1,8,0:0:0:0:
256,193,200968,1,0,0:0:0:0:
256,193,201126,1,8,0:0:0:0:
256,193,201442,1,0,0:0:0:0:
256,193,201758,1,8,0:0:0:0:
256,193,202231,1,4,0:0:0:0:
256,193,202389,1,12,0:0:0:0:
256,193,202705,1,4,0:0:0:0:
256,193,203021,1,12,0:0:0:0:
256,193,203337,1,4,0:0:0:0:
256,193,203653,1,12,0:0:0:0:
256,193,203968,1,4,0:0:0:0:
256,193,204284,1,12,0:0:0:0:
254,191,204600,5,4,0:0:0:0:
254,191,204758,1,8,0:0:0:0:
254,191,204837,1,8,0:0:0:0:
254,191,204916,1,0,0:0:0:0:
254,191,205074,1,8,0:0:0:0:
254,191,205231,1,0,0:0:0:0:
254,191,205310,1,0,0:0:0:0:
254,191,205389,1,8,0:0:0:0:
254,191,205468,1,0,0:0:0:0:
254,191,205547,1,8,0:0:0:0:
254,191,205705,1,0,0:0:0:0:
254,191,205863,1,8,0:0:0:0:
254,191,205942,1,8,0:0:0:0:
254,191,206021,1,0,0:0:0:0:
254,191,206100,1,8,0:0:0:0:
254,191,206179,1,0,0:0:0:0:
254,191,206337,1,8,0:0:0:0:
254,191,206495,1,0,0:0:0:0:
254,191,206574,5,8,0:0:0:0:
254,191,206653,1,0,0:0:0:0:
254,191,206731,1,0,0:0:0:0:
254,191,206810,1,8,0:0:0:0:
254,191,206889,1,0,0:0:0:0:
254,191,206968,1,8,0:0:0:0:
254,191,207126,1,0,0:0:0:0:
254,191,207363,1,8,0:0:0:0:
254,191,207442,1,0,0:0:0:0:
254,191,207600,1,8,0:0:0:0:
254,191,207758,1,0,0:0:0:0:
254,191,207837,1,0,0:0:0:0:
254,191,207916,1,8,0:0:0:0:
254,191,207995,1,8,0:0:0:0:
254,191,208074,1,0,0:0:0:0:
254,191,208231,1,8,0:0:0:0:
254,191,208389,1,0,0:0:0:0:
254,191,208547,1,8,0:0:0:0:
254,191,208626,1,8,0:0:0:0:
254,191,208705,1,0,0:0:0:0:
254,191,208863,1,8,0:0:0:0:
254,191,209021,1,0,0:0:0:0:
254,191,209100,1,0,0:0:0:0:
254,191,209179,1,8,0:0:0:0:
254,191,209258,1,0,0:0:0:0:
254,191,209337,1,8,0:0:0:0:
254,191,209495,1,8,0:0:0:0:
254,191,209653,1,0,0:0:0:0:
254,191,209889,1,0,0:0:0:0:
254,191,209968,1,8,0:0:0:0:
254,191,210126,1,0,0:0:0:0:
254,191,210205,1,0,0:0:0:0:
254,191,210284,1,8,0:0:0:0:
254,191,210442,1,0,0:0:0:0:
254,191,210600,1,8,0:0:0:0:
254,191,210679,1,8,0:0:0:0:
254,191,210758,1,0,0:0:0:0:
254,191,210916,1,8,0:0:0:0:
254,191,211074,1,0,0:0:0:0:
254,191,211153,1,0,0:0:0:0:
254,191,211231,1,8,0:0:0:0:
254,191,211389,1,0,0:0:0:0:
254,191,211547,1,8,0:0:0:0:
254,191,211626,1,8,0:0:0:0:
254,191,211705,1,0,0:0:0:0:
254,191,211784,1,0,0:0:0:0:
254,191,211863,1,8,0:0:0:0:
254,191,212179,1,0,0:0:0:0:
254,191,212337,1,8,0:0:0:0:
254,191,212416,1,8,0:0:0:0:
254,191,212495,1,0,0:0:0:0:
254,191,212653,1,8,0:0:0:0:
254,191,212810,1,0,0:0:0:0:
254,191,212889,1,0,0:0:0:0:
254,191,212968,1,8,0:0:0:0:
254,191,213047,1,0,0:0:0:0:
254,191,213126,1,8,0:0:0:0:
254,191,213284,1,0,0:0:0:0:
254,191,213442,1,8,0:0:0:0:
254,191,213600,1,0,0:0:0:0:
254,191,213679,1,0,0:0:0:0:
254,191,213758,1,8,0:0:0:0:
254,191,213916,1,0,0:0:0:0:
254,191,213995,1,0,0:0:0:0:
254,191,214074,1,8,0:0:0:0:
254,191,214153,1,8,0:0:0:0:
254,191,214231,1,0,0:0:0:0:
254,191,214389,1,8,0:0:0:0:
254,191,214705,5,4,0:0:0:0:
254,191,214863,1,8,0:0:0:0:
254,191,214942,1,8,0:0:0:0:
254,191,215021,1,0,0:0:0:0:
254,191,215100,1,0,0:0:0:0:
254,191,215179,1,8,0:0:0:0:
254,191,215337,1,0,0:0:0:0:
254,191,215495,1,8,0:0:0:0:
254,191,215653,1,0,0:0:0:0:
254,191,215731,1,0,0:0:0:0:
254,191,215810,1,8,0:0:0:0:
254,191,215968,1,0,0:0:0:0:
254,191,216047,1,0,0:0:0:0:
254,191,216126,1,8,0:0:0:0:
254,191,216205,1,8,0:0:0:0:
254,191,216284,1,0,0:0:0:0:
254,191,216363,1,0,0:0:0:0:
254,191,216442,1,8,0:0:0:0:
254,191,216600,1,0,0:0:0:0:
254,191,216758,1,8,0:0:0:0:
254,191,216837,1,8,0:0:0:0:
254,191,216916,1,0,0:0:0:0:
254,191,216995,1,0,0:0:0:0:
254,191,217074,1,8,0:0:0:0:
254,191,217231,1,0,0:0:0:0:
254,191,217468,1,8,0:0:0:0:
254,191,217547,1,0,0:0:0:0:
254,191,217705,1,8,0:0:0:0:
254,191,217863,1,0,0:0:0:0:
254,191,217942,1,0,0:0:0:0:
254,191,218021,1,8,0:0:0:0:
254,191,218100,1,8,0:0:0:0:
254,191,218179,1,0,0:0:0:0:
254,191,218337,1,8,0:0:0:0:
254,191,218495,1,0,0:0:0:0:
254,191,218653,1,8,0:0:0:0:
254,191,218731,1,0,0:0:0:0:
254,191,218810,1,0,0:0:0:0:
254,191,218968,1,8,0:0:0:0:
254,191,219126,1,0,0:0:0:0:
254,191,219284,1,8,0:0:0:0:
254,191,219363,1,8,0:0:0:0:
254,191,219442,1,0,0:0:0:0:
254,191,219521,1,0,0:0:0:0:
254,191,219600,1,8,0:0:0:0:
254,191,219758,1,4,0:0:0:0:
254,191,219995,1,0,0:0:0:0:
254,191,220074,1,8,0:0:0:0:
254,191,220231,1,0,0:0:0:0:
254,191,220310,1,0,0:0:0:0:
254,191,220389,1,8,0:0:0:0:
254,191,220547,1,0,0:0:0:0:
254,191,220705,1,8,0:0:0:0:
254,191,220784,1,8,0:0:0:0:
254,191,220863,1,0,0:0:0:0:
254,191,221021,1,8,0:0:0:0:
254,191,221179,1,0,0:0:0:0:
254,191,221258,1,0,0:0:0:0:
254,191,221337,1,8,0:0:0:0:
254,191,221495,1,0,0:0:0:0:
254,191,221653,1,8,0:0:0:0:
254,191,221731,1,8,0:0:0:0:
254,191,221810,1,0,0:0:0:0:
254,191,221889,1,8,0:0:0:0:
254,191,221968,1,0,0:0:0:0:
254,191,222126,1,8,0:0:0:0:
254,191,222284,1,0,0:0:0:0:
254,191,222442,1,8,0:0:0:0:
254,191,222521,1,8,0:0:0:0:
254,191,222600,1,0,0:0:0:0:
254,191,222758,1,8,0:0:0:0:
254,191,222916,1,0,0:0:0:0:
254,191,222995,1,0,0:0:0:0:
254,191,223074,1,8,0:0:0:0:
254,191,223153,1,0,0:0:0:0:
254,191,223231,1,8,0:0:0:0:
254,191,223389,1,0,0:0:0:0:
254,191,223705,5,12,0:0:0:0:
254,191,223863,1,4,0:0:0:0:
254,191,224179,1,4,0:0:0:0:
254,191,224495,1,12,0:0:0:0:
249,194,224810,5,0,0:0:0:0:
254,191,224968,1,8,0:0:0:0:
254,191,225047,1,8,0:0:0:0:
249,194,225126,1,0,0:0:0:0:
254,191,225284,1,8,0:0:0:0:
249,194,225442,1,0,0:0:0:0:
254,191,225521,1,0,0:0:0:0:
249,194,225600,1,8,0:0:0:0:
249,194,225679,1,0,0:0:0:0:
249,194,225758,1,8,0:0:0:0:
249,194,225837,1,8,0:0:0:0:
249,194,225916,1,0,0:0:0:0:
249,194,226074,1,8,0:0:0:0:
249,194,226231,1,0,0:0:0:0:
249,194,226310,1,8,0:0:0:0:
249,194,226389,1,0,0:0:0:0:
249,194,226468,1,0,0:0:0:0:
249,194,226547,1,8,0:0:0:0:
249,194,226705,1,0,0:0:0:0:
249,194,226863,1,8,0:0:0:0:
249,194,226942,1,0,0:0:0:0:
249,194,227021,1,8,0:0:0:0:
249,194,227100,1,8,0:0:0:0:
249,194,227179,1,0,0:0:0:0:
249,194,227337,5,8,0:0:0:0:
249,194,227495,1,0,0:0:0:0:
249,194,227574,5,0,0:0:0:0:
249,194,227653,1,8,0:0:0:0:
249,194,227810,1,0,0:0:0:0:
249,194,227968,1,8,0:0:0:0:
249,194,228047,1,8,0:0:0:0:
249,194,228126,1,0,0:0:0:0:
249,194,228205,1,8,0:0:0:0:
249,194,228284,1,0,0:0:0:0:
249,194,228363,1,0,0:0:0:0:
249,194,228442,1,8,0:0:0:0:
249,194,228600,1,0,0:0:0:0:
249,194,228758,1,8,0:0:0:0:
249,194,228916,1,0,0:0:0:0:
249,194,228995,1,0,0:0:0:0:
249,194,229074,1,8,0:0:0:0:
254,194,229153,1,8,0:0:0:0:
249,194,229231,1,0,0:0:0:0:
249,194,229389,1,8,0:0:0:0:
249,194,229468,1,8,0:0:0:0:
249,194,229547,1,0,0:0:0:0:
249,194,229705,1,8,0:0:0:0:
249,194,229863,5,0,0:0:0:0:
254,191,230021,1,8,0:0:0:0:
254,191,230100,1,8,0:0:0:0:
249,194,230179,1,0,0:0:0:0:
249,194,230258,1,0,0:0:0:0:
254,191,230337,1,8,0:0:0:0:
249,194,230495,1,0,0:0:0:0:
254,191,230574,1,0,0:0:0:0:
249,194,230653,1,8,0:0:0:0:
249,194,230731,1,0,0:0:0:0:
249,194,230810,1,8,0:0:0:0:
249,194,230889,1,8,0:0:0:0:
249,194,230968,1,0,0:0:0:0:
249,194,231126,1,8,0:0:0:0:
249,194,231284,1,0,0:0:0:0:
249,194,231363,1,0,0:0:0:0:
249,194,231442,1,8,0:0:0:0:
249,194,231521,1,8,0:0:0:0:
249,194,231600,1,0,0:0:0:0:
249,194,231758,1,8,0:0:0:0:
249,194,231916,1,0,0:0:0:0:
249,194,231995,1,8,0:0:0:0:
249,194,232074,1,0,0:0:0:0:
249,194,232231,1,8,0:0:0:0:
249,194,232389,5,0,0:0:0:0:
249,194,232547,1,8,0:0:0:0:
249,194,232626,5,0,0:0:0:0:
249,194,232705,1,8,0:0:0:0:
249,194,232784,1,8,0:0:0:0:
249,194,232863,1,0,0:0:0:0:
249,194,233021,1,8,0:0:0:0:
249,194,233100,1,8,0:0:0:0:
249,194,233179,1,0,0:0:0:0:
249,194,233258,1,8,0:0:0:0:
249,194,233337,1,0,0:0:0:0:
249,194,233416,1,0,0:0:0:0:
249,194,233495,1,8,0:0:0:0:
249,194,233653,1,0,0:0:0:0:
249,194,233810,1,8,0:0:0:0:
249,194,233889,1,0,0:0:0:0:
249,194,233968,1,8,0:0:0:0:
249,194,234047,1,8,0:0:0:0:
249,194,234126,1,0,0:0:0:0:
254,194,234205,1,0,0:0:0:0:
249,194,234284,1,8,0:0:0:0:
249,194,234442,1,0,0:0:0:0:
249,194,234521,1,0,0:0:0:0:
249,194,234600,1,8,0:0:0:0:
249,194,234916,5,4,0:0:0:0:
254,191,235074,1,8,0:0:0:0:
254,191,235153,1,8,0:0:0:0:
249,194,235231,1,0,0:0:0:0:
249,194,235310,1,8,0:0:0:0:
254,191,235389,1,0,0:0:0:0:
249,194,235547,1,8,0:0:0:0:
254,191,235626,1,0,0:0:0:0:
249,194,235705,1,8,0:0:0:0:
249,194,235784,1,8,0:0:0:0:
249,194,235863,1,0,0:0:0:0:
249,194,235942,1,0,0:0:0:0:
249,194,236021,1,8,0:0:0:0:
249,194,236179,1,0,0:0:0:0:
249,194,236337,1,8,0:0:0:0:
249,194,236416,1,8,0:0:0:0:
249,194,236495,1,0,0:0:0:0:
249,194,236574,1,8,0:0:0:0:
249,194,236653,1,0,0:0:0:0:
249,194,236810,1,8,0:0:0:0:
249,194,236889,1,8,0:0:0:0:
249,194,236968,1,0,0:0:0:0:
249,194,237047,1,8,0:0:0:0:
249,194,237126,1,0,0:0:0:0:
249,194,237205,1,0,0:0:0:0:
249,194,237284,1,8,0:0:0:0:
249,194,237442,5,0,0:0:0:0:
249,194,237600,1,8,0:0:0:0:
249,194,237679,5,8,0:0:0:0:
249,194,237758,1,0,0:0:0:0:
249,194,237837,1,0,0:0:0:0:
249,194,237916,1,8,0:0:0:0:
249,194,238074,1,0,0:0:0:0:
249,194,238153,1,0,0:0:0:0:
249,194,238231,1,8,0:0:0:0:
249,194,238310,1,0,0:0:0:0:
249,194,238389,1,8,0:0:0:0:
249,194,238468,1,8,0:0:0:0:
249,194,238547,1,0,0:0:0:0:
249,194,238705,1,8,0:0:0:0:
249,194,238863,1,0,0:0:0:0:
249,194,238942,1,0,0:0:0:0:
249,194,239021,1,8,0:0:0:0:
249,194,239179,1,0,0:0:0:0:
249,194,239337,1,8,0:0:0:0:
249,194,239495,1,0,0:0:0:0:
249,194,239574,1,0,0:0:0:0:
249,194,239653,1,8,0:0:0:0:
249,194,239731,1,8,0:0:0:0:
249,194,239810,1,0,0:0:0:0:
249,194,239968,5,8,0:0:0:0:
249,194,240126,1,0,0:0:0:0:
249,194,240205,1,0,0:0:0:0:
249,194,240284,1,8,0:0:0:0:
249,194,240442,1,0,0:0:0:0:
249,194,240600,1,8,0:0:0:0:
249,194,240679,1,0,0:0:0:0:
249,194,240758,1,8,0:0:0:0:
249,194,240837,1,8,0:0:0:0:
249,194,240916,1,0,0:0:0:0:
249,194,241074,1,8,0:0:0:0:
249,194,241231,1,0,0:0:0:0:
249,194,241310,1,0,0:0:0:0:
249,194,241389,1,8,0:0:0:0:
249,194,241468,1,8,0:0:0:0:
249,194,241547,1,0,0:0:0:0:
249,194,241705,1,8,0:0:0:0:
249,194,241863,1,0,0:0:0:0:
249,194,241942,1,0,0:0:0:0:
249,194,242021,1,8,0:0:0:0:
249,194,242100,1,0,0:0:0:0:
249,194,242179,1,8,0:0:0:0:
249,194,242258,1,8,0:0:0:0:
256,192,242337,1,0,0:0:0:0:
249,194,242495,5,8,0:0:0:0:
249,194,242574,1,8,0:0:0:0:
249,194,242653,1,0,0:0:0:0:
249,194,242731,5,8,0:0:0:0:
249,194,242810,1,0,0:0:0:0:
249,194,242889,1,0,0:0:0:0:
249,194,242968,1,8,0:0:0:0:
249,194,243047,1,8,0:0:0:0:
249,194,243126,1,0,0:0:0:0:
249,194,243284,1,8,0:0:0:0:
249,194,243363,1,0,0:0:0:0:
249,194,243442,1,8,0:0:0:0:
249,194,243600,1,0,0:0:0:0:
249,194,243916,1,12,0:0:0:0:
249,194,244074,1,4,0:0:0:0:
249,194,244389,1,4,0:0:0:0:
249,194,244705,1,12,0:0:0:0:
256,192,245021,1,4,0:0:0:0:
256,192,245337,1,0,0:0:0:0:
256,192,245495,1,8,0:0:0:0:
256,192,245653,1,0,0:0:0:0:
256,192,245731,1,0,0:0:0:0:
256,192,245810,1,8,0:0:0:0:
256,192,245968,1,0,0:0:0:0:
256,192,246126,1,8,0:0:0:0:
256,192,246284,1,0,0:0:0:0:
256,192,246363,1,0,0:0:0:0:
256,192,246442,1,0,0:0:0:0:
256,192,246600,1,8,0:0:0:0:
256,192,246758,1,0,0:0:0:0:
256,192,246916,1,8,0:0:0:0:
256,192,246995,1,8,0:0:0:0:
256,192,247074,1,0,0:0:0:0:
256,192,247231,1,8,0:0:0:0:
256,192,247389,1,8,0:0:0:0:
256,192,247547,1,0,0:0:0:0:
256,192,247863,1,0,0:0:0:0:
256,192,248021,1,8,0:0:0:0:
256,192,248179,1,0,0:0:0:0:
256,192,248258,1,0,0:0:0:0:
256,192,248337,1,8,0:0:0:0:
256,192,248495,1,0,0:0:0:0:
256,192,248653,1,8,0:0:0:0:
256,192,248810,1,0,0:0:0:0:
256,192,248889,1,0,0:0:0:0:
256,192,248968,1,8,0:0:0:0:
256,192,249126,1,0,0:0:0:0:
256,192,249284,1,8,0:0:0:0:
256,192,249442,1,0,0:0:0:0:
256,192,249521,1,8,0:0:0:0:
256,192,249600,1,0,0:0:0:0:
256,192,249758,1,8,0:0:0:0:
256,192,249916,1,8,0:0:0:0:
256,192,250074,1,0,0:0:0:0:
256,192,250389,1,0,0:0:0:0:
256,192,250547,1,8,0:0:0:0:
256,192,250705,1,0,0:0:0:0:
256,192,250784,1,8,0:0:0:0:
256,192,250863,1,0,0:0:0:0:
256,192,251021,1,8,0:0:0:0:
256,192,251179,1,0,0:0:0:0:
256,192,251337,1,8,0:0:0:0:
256,192,251495,1,0,0:0:0:0:
256,192,251574,1,0,0:0:0:0:
256,192,251653,1,0,0:0:0:0:
256,192,251810,1,8,0:0:0:0:
256,192,251968,1,0,0:0:0:0:
256,192,252047,1,8,0:0:0:0:
256,192,252126,1,0,0:0:0:0:
256,192,252284,1,8,0:0:0:0:
256,192,252442,1,8,0:0:0:0:
256,192,252600,1,0,0:0:0:0:
256,192,252916,1,0,0:0:0:0:
256,192,253073,1,8,0:0:0:0:
256,192,253231,1,0,0:0:0:0:
256,192,253310,1,0,0:0:0:0:
256,192,253389,1,8,0:0:0:0:
256,192,253547,1,0,0:0:0:0:
256,192,253705,1,8,0:0:0:0:
256,192,253863,1,0,0:0:0:0:
256,192,254021,1,8,0:0:0:0:
256,192,254100,1,8,0:0:0:0:
256,192,254179,1,0,0:0:0:0:
256,192,254337,1,8,0:0:0:0:
256,192,254495,1,0,0:0:0:0:
256,192,254574,1,0,0:0:0:0:
256,192,254653,1,0,0:0:0:0:
256,192,254810,1,8,0:0:0:0:
256,192,254968,1,8,0:0:0:0:
256,192,255126,1,4,0:0:0:0:
256,192,255442,1,0,0:0:0:0:
256,192,255600,1,8,0:0:0:0:
256,192,255758,1,0,0:0:0:0:
256,192,255837,1,0,0:0:0:0:
256,192,255916,1,8,0:0:0:0:
256,192,256074,1,0,0:0:0:0:
256,192,256231,1,8,0:0:0:0:
256,192,256389,1,0,0:0:0:0:
256,192,256468,1,0,0:0:0:0:
256,192,256547,1,0,0:0:0:0:
256,192,256705,1,8,0:0:0:0:
256,192,256863,1,0,0:0:0:0:
256,192,257021,1,8,0:0:0:0:
256,192,257100,1,8,0:0:0:0:
256,192,257179,1,0,0:0:0:0:
256,192,257337,1,8,0:0:0:0:
256,192,257495,1,8,0:0:0:0:
256,192,257653,1,0,0:0:0:0:
256,192,257968,1,0,0:0:0:0:
256,192,258126,1,8,0:0:0:0:
256,192,258284,1,0,0:0:0:0:
256,192,258363,1,0,0:0:0:0:
256,192,258442,1,8,0:0:0:0:
256,192,258600,1,0,0:0:0:0:
256,192,258758,1,8,0:0:0:0:
256,192,258916,1,0,0:0:0:0:
256,192,258995,1,0,0:0:0:0:
256,192,259074,1,8,0:0:0:0:
256,192,259231,1,0,0:0:0:0:
256,192,259389,1,8,0:0:0:0:
256,192,259547,1,0,0:0:0:0:
256,192,259626,1,0,0:0:0:0:
256,192,259705,1,8,0:0:0:0:
256,192,259784,1,8,0:0:0:0:
256,192,259863,1,0,0:0:0:0:
256,192,260021,1,8,0:0:0:0:
256,192,260179,1,0,0:0:0:0:
256,192,260495,1,0,0:0:0:0:
256,192,260653,1,8,0:0:0:0:
256,192,260810,1,0,0:0:0:0:
256,192,260889,1,0,0:0:0:0:
256,192,260968,1,8,0:0:0:0:
256,192,261126,1,0,0:1:0:0:
256,192,261284,1,8,0:0:0:0:
256,192,261442,1,0,0:0:0:0:
256,192,261600,1,0,0:0:0:0:
256,192,261679,1,0,0:0:0:0:
256,192,261758,1,8,0:0:0:0:
256,192,261916,1,0,0:0:0:0:
256,192,262074,1,8,0:0:0:0:
256,192,262153,1,8,0:0:0:0:
256,192,262231,1,0,0:0:0:0:
256,192,262389,1,8,0:0:0:0:
256,192,262705,1,0,0:0:0:0:
256,192,262863,1,8,0:0:0:0:
256,192,262942,1,8,0:0:0:0:
256,192,263021,1,0,0:0:0:0:
256,192,263179,1,8,0:0:0:0:
256,192,263337,1,0,0:0:0:0:
256,192,263495,1,8,0:0:0:0:
256,192,263574,1,8,0:0:0:0:
256,192,263653,1,0,0:0:0:0:
256,192,263810,1,8,0:0:0:0:
256,192,263968,1,0,0:0:0:0:
256,192,264126,1,8,0:0:0:0:
256,192,264205,1,8,0:0:0:0:
256,192,264284,1,0,0:0:0:0:
256,192,264442,1,8,0:0:0:0:
256,192,264600,1,0,0:0:0:0:
256,192,264758,1,8,0:0:0:0:
256,192,264837,1,8,0:0:0:0:
256,192,264916,1,0,0:0:0:0:
256,192,264995,1,0,0:0:0:0:
256,192,265074,1,8,0:0:0:0:
256,192,265231,1,4,0:0:0:0:
256,192,265389,12,0,269653,0:0:0:0:
