osu file format v14

[General]
AudioFilename: audio.ogg
AudioLeadIn: 0
PreviewTime: 40855
Countdown: 0
SampleSet: Normal
StackLeniency: 0.7
Mode: 1
LetterboxInBreaks: 0
WidescreenStoryboard: 1

[Editor]
DistanceSpacing: 0.8
BeatDivisor: 8
GridSize: 32
TimelineZoom: 1

[Metadata]
Title:Nani ga Warui (TV Size)
TitleUnicode:なにが悪い (TV Size)
Artist:kessoku band
ArtistUnicode:結束バンド
Creator:miyagishima
Version:Muzukashii
Source:ぼっち・ざ・ろっく!
Tags:bocchi the rock 伊地知虹夏 ijichi nijika 鈴代紗弓 Suzushiro Sayumi ending ed 3 anime japanese j-pop j pop jpop jrock j-rock what is what's wrong with naniga
BeatmapID:3958165
BeatmapSetID:1913356

[Difficulty]
HPDrainRate:6
CircleSize:5
OverallDifficulty:5
ApproachRate:5
SliderMultiplier:1.4
SliderTickRate:1

[Events]
//Background and Video events
0,0,"muzu.jpg",0,-135
//Break Periods
//Storyboard Layer 0 (Background)
//Storyboard Layer 1 (Fail)
//Storyboard Layer 2 (Pass)
//Storyboard Layer 3 (Foreground)
//Storyboard Layer 4 (Overlay)
//Storyboard Sound Samples

[TimingPoints]
558,491.803278688525,4,1,0,60,1,0
6397,-100,4,1,0,70,0,0
6459,491.803278688525,4,1,0,70,1,0
35967,491.803278688525,4,1,0,70,1,0
40823,-100,4,1,0,80,0,0
41868,491.803278688525,4,1,0,80,1,1
41868,-86.9565217391304,4,1,0,80,0,1
53671,491.803278688525,4,1,0,80,1,1
53671,-86.9565217391304,4,1,0,80,0,1
73281,-86.9565217391304,4,1,0,65,0,1
73343,491.803278688525,4,1,0,65,1,0
73343,-86.9565217391304,4,1,0,65,0,0
73773,-100,4,1,0,65,0,0
79183,-100,4,1,0,70,0,0
79244,491.803278688525,4,1,0,70,1,8
79245,491.803278688525,4,1,0,70,1,0
86990,-100,4,1,0,55,0,0
87974,-100,4,1,0,50,0,0
88958,-100,4,1,0,45,0,0
89941,-100,4,1,0,40,0,0
90925,-100,4,1,0,35,0,0
91908,-100,4,1,0,30,0,0
92892,-100,4,1,0,25,0,0

[HitObjects]
256,192,558,5,4,0:0:0:0:
256,192,1049,1,0,0:0:0:0:
256,192,1541,1,0,0:0:0:0:
256,192,2033,1,2,0:0:0:0:
256,192,2279,1,0,0:0:0:0:
256,192,2402,1,0,0:0:0:0:
256,192,2525,1,0,0:0:0:0:
256,192,3017,1,0,0:0:0:0:
256,192,3508,1,0,0:0:0:0:
256,192,4000,1,0,0:0:0:0:
256,192,4246,1,6,0:0:0:0:
256,192,4738,1,0,0:0:0:0:
256,192,4984,1,0,0:0:0:0:
256,192,5230,1,0,0:0:0:0:
256,192,5476,1,6,0:0:0:0:
256,192,5967,1,0,0:0:0:0:
256,192,6090,1,0,0:0:0:0:
256,192,6213,1,0,0:0:0:0:
256,192,6459,1,4,0:0:0:0:
256,192,6950,1,2,0:0:0:0:
256,192,7319,1,0,0:0:0:0:
256,192,7688,1,0,0:0:0:0:
256,192,7934,1,2,0:0:0:0:
256,192,8180,1,0,0:0:0:0:
256,192,8303,1,0,0:0:0:0:
256,192,8426,1,0,0:0:0:0:
256,192,8918,1,2,0:0:0:0:
256,192,9409,1,2,0:0:0:0:
256,192,9655,1,0,0:0:0:0:
256,192,9901,1,2,0:0:0:0:
256,192,10147,1,2,0:0:0:0:
256,192,10393,1,0,0:0:0:0:
256,192,10885,1,2,0:0:0:0:
256,192,11254,1,0,0:0:0:0:
256,192,11622,1,0,0:0:0:0:
256,192,11868,1,2,0:0:0:0:
256,192,12114,1,6,0:0:0:0:
256,192,12483,1,2,0:0:0:0:
256,192,12606,1,0,0:0:0:0:
256,192,12852,1,2,0:0:0:0:
256,192,13098,1,6,0:0:0:0:
256,192,13590,1,2,0:0:0:0:
256,192,13836,1,0,0:0:0:0:
256,192,13959,1,0,0:0:0:0:
256,192,14081,1,0,0:0:0:0:
256,192,14327,1,2,0:0:0:0:
256,192,14819,1,0,0:0:0:0:
256,192,14942,1,0,0:0:0:0:
256,192,15188,1,2,0:0:0:0:
256,192,15557,1,0,0:0:0:0:
256,192,15803,1,2,0:0:0:0:
256,192,16049,1,2,0:0:0:0:
256,192,16295,1,0,0:0:0:0:
256,192,16786,1,2,0:0:0:0:
256,192,16909,1,2,0:0:0:0:
256,192,17155,1,0,0:0:0:0:
256,192,17770,1,2,0:0:0:0:
256,192,18139,1,0,0:0:0:0:
256,192,18508,1,0,0:0:0:0:
256,192,18754,1,2,0:0:0:0:
256,192,18877,1,2,0:0:0:0:
256,192,19122,1,0,0:0:0:0:
256,192,19491,1,2,0:0:0:0:
256,192,19983,1,0,0:0:0:0:
256,192,20475,1,2,0:0:0:0:
256,192,20721,1,0,0:0:0:0:
256,192,20844,1,0,0:0:0:0:
256,192,21090,1,2,0:0:0:0:
256,192,21459,1,0,0:0:0:0:
256,192,21704,1,2,0:0:0:0:
256,192,21950,1,2,0:0:0:0:
256,192,22196,1,0,0:0:0:0:
256,192,22688,1,2,0:0:0:0:
256,192,22811,1,2,0:0:0:0:
256,192,23057,1,0,0:0:0:0:
256,192,23426,1,2,0:0:0:0:
256,192,23672,1,0,0:0:0:0:
256,192,23918,1,0,0:0:0:0:
256,192,24163,1,2,0:0:0:0:
256,192,24655,1,0,0:0:0:0:
256,192,24778,1,0,0:0:0:0:
256,192,25024,1,2,0:0:0:0:
256,192,25639,1,0,0:0:0:0:
256,192,26008,1,2,0:0:0:0:
256,192,26377,1,0,0:0:0:0:
256,192,26868,1,2,0:0:0:0:
256,192,27237,1,0,0:0:0:0:
256,192,27360,1,0,0:0:0:0:
256,192,27852,1,2,0:0:0:0:
256,192,28098,1,0,0:0:0:0:
256,192,28344,1,2,0:0:0:0:
256,192,28590,1,0,0:0:0:0:
256,192,28836,1,0,0:0:0:0:
256,192,29081,1,6,0:0:0:0:
256,192,29450,1,0,0:0:0:0:
256,192,29573,1,2,0:0:0:0:
256,192,29819,1,2,0:0:0:0:
256,192,30311,1,4,0:0:0:0:
256,192,30557,1,4,0:0:0:0:
256,192,31049,1,2,0:0:0:0:
256,192,31295,1,4,0:0:0:0:
256,192,31540,1,4,0:0:0:0:
256,192,31786,1,2,0:0:0:0:
256,192,31909,1,2,0:0:0:0:
256,192,32032,1,2,0:0:0:0:
256,192,32278,1,4,0:0:0:0:
256,192,32524,1,4,0:0:0:0:
256,192,33016,1,2,0:0:0:0:
256,192,33508,1,2,0:0:0:0:
256,192,34245,1,4,0:0:0:0:
256,192,34491,1,4,0:0:0:0:
256,192,34737,1,2,0:0:0:0:
256,192,34860,1,2,0:0:0:0:
256,192,34983,1,2,0:0:0:0:
256,192,35229,1,4,0:0:0:0:
256,192,35475,1,4,0:0:0:0:
256,192,35967,1,4,0:0:0:0:
256,192,36458,1,2,0:0:0:0:
256,192,36950,1,2,0:0:0:0:
256,192,37442,1,2,0:0:0:0:
256,192,37688,1,0,0:0:0:0:
256,192,37811,1,0,0:0:0:0:
256,192,37934,1,0,0:0:0:0:
256,192,38426,1,2,0:0:0:0:
256,192,38917,1,2,0:0:0:0:
256,192,39409,1,2,0:0:0:0:
256,192,39655,1,6,0:0:0:0:
256,192,39901,1,0,0:0:0:0:
256,192,40147,1,2,0:0:0:0:
256,192,40393,1,0,0:0:0:0:
256,192,40639,1,0,0:0:0:0:
256,192,40885,1,6,0:0:0:0:
256,192,41868,1,4,0:0:0:0:
256,192,42236,1,2,0:0:0:0:
256,192,42359,1,2,0:0:0:0:
256,192,42605,1,2,0:0:0:0:
256,192,42851,1,0,0:0:0:0:
256,192,43220,1,2,0:0:0:0:
256,192,43343,1,2,0:0:0:0:
256,192,43589,1,0,0:0:0:0:
256,192,43835,1,2,0:0:0:0:
256,192,44204,1,2,0:0:0:0:
256,192,44572,1,0,0:0:0:0:
256,192,44818,1,2,0:0:0:0:
256,192,45310,1,0,0:0:0:0:
256,192,45556,1,2,0:0:0:0:
256,192,45802,1,0,0:0:0:0:
256,192,46294,1,2,0:0:0:0:
256,192,46540,1,2,0:0:0:0:
256,192,46663,1,2,0:0:0:0:
256,192,46786,1,2,0:0:0:0:
256,192,47031,1,0,0:0:0:0:
256,192,47277,1,2,0:0:0:0:
256,192,47523,1,4,0:0:0:0:
256,192,48015,1,0,0:0:0:0:
256,192,48261,1,2,0:0:0:0:
256,192,48507,1,0,0:0:0:0:
256,192,49245,1,0,0:0:0:0:
256,192,49490,1,2,0:0:0:0:
256,192,49982,1,2,0:0:0:0:
256,192,50105,1,2,0:0:0:0:
256,192,50228,1,2,0:0:0:0:
256,192,50474,1,2,0:0:0:0:
256,192,50720,1,0,0:0:0:0:
256,192,50966,1,0,0:0:0:0:
256,192,51212,1,2,0:0:0:0:
256,192,51458,1,0,0:0:0:0:
256,192,51949,1,4,0:0:0:0:
256,192,52195,1,6,0:0:0:0:
256,192,52687,1,0,0:0:0:0:
256,192,52933,1,0,0:0:0:0:
256,192,53179,1,2,0:0:0:0:
256,192,53425,1,2,0:0:0:0:
256,192,53671,1,4,0:0:0:0:
256,192,54039,1,2,0:0:0:0:
256,192,54162,1,2,0:0:0:0:
256,192,54408,1,2,0:0:0:0:
256,192,54654,1,0,0:0:0:0:
256,192,55023,1,2,0:0:0:0:
256,192,55146,1,2,0:0:0:0:
256,192,55392,1,0,0:0:0:0:
256,192,55638,1,2,0:0:0:0:
256,192,56007,1,0,0:0:0:0:
256,192,56130,1,0,0:0:0:0:
256,192,56375,1,2,0:0:0:0:
256,192,56621,1,0,0:0:0:0:
256,192,56990,1,0,0:0:0:0:
256,192,57359,1,2,0:0:0:0:
256,192,57605,1,0,0:0:0:0:
256,192,58097,1,2,0:0:0:0:
256,192,58343,1,2,0:0:0:0:
256,192,58466,1,2,0:0:0:0:
256,192,58589,1,2,0:0:0:0:
256,192,58834,1,2,0:0:0:0:
256,192,59080,1,0,0:0:0:0:
256,192,59326,1,6,0:0:0:0:
256,192,59818,1,2,0:0:0:0:
256,192,60064,1,0,0:0:0:0:
256,192,60310,1,0,0:0:0:0:
256,192,60802,1,6,0:0:0:0:
256,192,61048,1,4,0:0:0:0:
256,192,61539,1,6,0:0:0:0:
256,192,62031,1,2,0:0:0:0:
256,192,62277,1,0,0:0:0:0:
256,192,62523,1,2,0:0:0:0:
256,192,62769,1,2,0:0:0:0:
256,192,63015,1,0,0:0:0:0:
256,192,63384,1,2,0:0:0:0:
256,192,63507,1,2,0:0:0:0:
256,192,63752,1,0,0:0:0:0:
256,192,63998,1,2,0:0:0:0:
256,192,64244,1,2,0:0:0:0:
256,192,64490,1,0,0:0:0:0:
256,192,64982,1,2,0:0:0:0:
256,192,65351,1,0,0:0:0:0:
256,192,65474,1,0,0:0:0:0:
256,192,65966,1,2,0:0:0:0:
256,192,66334,1,0,0:0:0:0:
256,192,66457,1,0,0:0:0:0:
256,192,66580,1,0,0:0:0:0:
256,192,66703,1,0,0:0:0:0:
256,192,66949,1,2,0:0:0:0:
256,192,67441,1,2,0:0:0:0:
256,192,67687,1,2,0:0:0:0:
256,192,67933,1,0,0:0:0:0:
256,192,68179,1,0,0:0:0:0:
256,192,68425,1,2,0:0:0:0:
256,192,69162,1,2,0:0:0:0:
256,192,69408,1,0,0:0:0:0:
256,192,69654,1,2,0:0:0:0:
256,192,69900,1,0,0:0:0:0:
256,192,70023,1,0,0:0:0:0:
256,192,70146,1,0,0:0:0:0:
256,192,70392,1,2,0:0:0:0:
256,192,70638,1,0,0:0:0:0:
256,192,70761,1,0,0:0:0:0:
256,192,71130,1,2,0:0:0:0:
256,192,71375,1,0,0:0:0:0:
256,192,71621,1,2,0:0:0:0:
256,192,71744,1,2,0:0:0:0:
256,192,71867,1,2,0:0:0:0:
256,192,72113,1,0,0:0:0:0:
256,192,72359,1,2,0:0:0:0:
256,192,72605,1,0,0:0:0:0:
256,192,72728,1,0,0:0:0:0:
256,192,73097,1,2,0:0:0:0:
256,192,73343,1,4,0:0:0:0:
256,192,73834,1,0,0:0:0:0:
256,192,74326,1,0,0:0:0:0:
256,192,74818,1,2,0:0:0:0:
256,192,75064,1,0,0:0:0:0:
256,192,75187,1,0,0:0:0:0:
256,192,75310,1,0,0:0:0:0:
256,192,75802,1,0,0:0:0:0:
256,192,76293,1,0,0:0:0:0:
256,192,76785,1,0,0:0:0:0:
256,192,77031,1,6,0:0:0:0:
256,192,77523,1,0,0:0:0:0:
256,192,77769,1,0,0:0:0:0:
256,192,78015,1,0,0:0:0:0:
256,192,78261,1,2,0:0:0:0:
256,192,78506,1,0,0:0:0:0:
256,192,78629,1,0,0:0:0:0:
256,192,78752,1,0,0:0:0:0:
256,192,78998,1,2,0:0:0:0:
256,192,79245,1,4,0:0:0:0:
256,192,79736,1,2,0:0:0:0:
256,192,80105,1,0,0:0:0:0:
256,192,80474,1,0,0:0:0:0:
256,192,80720,1,2,0:0:0:0:
256,192,80966,1,0,0:0:0:0:
256,192,81089,1,0,0:0:0:0:
256,192,81212,1,0,0:0:0:0:
256,192,81704,1,2,0:0:0:0:
256,192,82195,1,2,0:0:0:0:
256,192,82441,1,0,0:0:0:0:
256,192,82687,1,2,0:0:0:0:
256,192,82933,1,2,0:0:0:0:
256,192,83179,1,0,0:0:0:0:
256,192,83671,1,2,0:0:0:0:
256,192,84040,1,0,0:0:0:0:
256,192,84408,1,0,0:0:0:0:
256,192,84654,1,2,0:0:0:0:
256,192,84900,1,2,0:0:0:0:
256,192,85269,1,2,0:0:0:0:
256,192,85392,1,0,0:0:0:0:
256,192,85638,1,0,0:0:0:0:
256,192,85761,1,0,0:0:0:0:
256,192,85884,1,0,0:0:0:0:
256,192,86130,1,2,0:0:0:0:
256,192,86376,1,0,0:0:0:0:
256,192,86622,1,6,0:0:0:0:
256,192,86867,1,6,0:0:0:0:
256,192,87113,12,0,93015,0:0:0:0:
