osu file format v14

[General]
AudioFilename: audio.ogg
AudioLeadIn: 0
PreviewTime: 40855
Countdown: 0
SampleSet: Normal
StackLeniency: 0.7
Mode: 1
LetterboxInBreaks: 0
WidescreenStoryboard: 1

[Editor]
DistanceSpacing: 0.8
BeatDivisor: 2
GridSize: 32
TimelineZoom: 1

[Metadata]
Title:Nani ga Warui (TV Size)
TitleUnicode:なにが悪い (TV Size)
Artist:kessoku band
ArtistUnicode:結束バンド
Creator:miyagishima
Version:Kantan
Source:ぼっち・ざ・ろっく!
Tags:bocchi the rock 伊地知虹夏 ijichi nijika 鈴代紗弓 Suzushiro Sayumi ending ed 3 anime japanese j-pop j pop jpop jrock j-rock what is what's wrong with naniga
BeatmapID:3958164
BeatmapSetID:1913356

[Difficulty]
HPDrainRate:8
CircleSize:5
OverallDifficulty:3
ApproachRate:5
SliderMultiplier:1.4
SliderTickRate:1

[Events]
//Background and Video events
0,0,"kantan.jpg",0,-135
//Break Periods
//Storyboard Layer 0 (Background)
//Storyboard Layer 1 (Fail)
//Storyboard Layer 2 (Pass)
//Storyboard Layer 3 (Foreground)
//Storyboard Layer 4 (Overlay)
//Storyboard Sound Samples

[TimingPoints]
558,491.803278688525,4,1,0,60,1,0
6397,-100,4,1,0,70,0,0
6459,491.803278688525,4,1,0,70,1,0
35967,491.803278688525,4,1,0,70,1,0
40823,-100,4,1,0,80,0,0
41868,491.803278688525,4,1,0,80,1,1
41868,-95.2380952380952,4,1,0,80,0,1
53671,491.803278688525,4,1,0,80,1,1
53671,-95.2380952380952,4,1,0,80,0,1
73281,-95.2380952380952,4,1,0,65,0,1
73343,491.803278688525,4,1,0,65,1,0
73343,-95.2380952380952,4,1,0,65,0,0
74327,-100,4,1,0,65,0,0
79183,-100,4,1,0,70,0,0
79244,491.803278688525,4,1,0,70,1,8
79245,491.803278688525,4,1,0,70,1,0
86990,-100,4,1,0,55,0,0
87974,-100,4,1,0,50,0,0
88958,-100,4,1,0,45,0,0
89941,-100,4,1,0,40,0,0
90925,-100,4,1,0,35,0,0
91908,-100,4,1,0,30,0,0
92892,-100,4,1,0,25,0,0

[HitObjects]
256,192,558,5,4,0:0:0:0:
256,192,2033,1,6,0:0:0:0:
256,192,2525,1,4,0:0:0:0:
256,192,3017,1,0,0:0:0:0:
256,192,3508,1,0,0:0:0:0:
256,192,4246,1,6,0:0:0:0:
256,192,5476,1,2,0:0:0:0:
256,192,6459,1,4,0:0:0:0:
256,192,6950,1,2,0:0:0:0:
288,192,7934,1,2,0:0:0:0:
288,192,8426,1,0,0:0:0:0:
288,192,8918,1,2,0:0:0:0:
288,192,9409,1,0,0:0:0:0:
288,192,10393,1,0,0:0:0:0:
288,192,10885,1,2,0:0:0:0:
256,192,11868,1,2,0:0:0:0:
256,192,12360,1,0,0:0:0:0:
256,192,13098,1,6,0:0:0:0:
256,192,14327,1,0,0:0:0:0:
256,192,15311,1,2,0:0:0:0:
256,192,16295,1,2,0:0:0:0:
256,192,17278,1,0,0:0:0:0:
256,192,18262,1,0,0:0:0:0:
256,192,18754,1,2,0:0:0:0:
256,192,20229,1,0,0:0:0:0:
256,192,20721,1,2,0:0:0:0:
256,192,21213,1,0,0:0:0:0:
256,192,22196,1,0,0:0:0:0:
256,192,23180,1,2,0:0:0:0:
256,192,24163,1,2,0:0:0:0:
256,192,25147,1,2,0:0:0:0:
256,192,26131,1,0,0:0:0:0:
256,192,26622,1,2,0:0:0:0:
256,192,28098,1,0,0:0:0:0:
256,192,28590,1,0,0:0:0:0:
256,192,29081,1,6,0:0:0:0:
256,192,30557,1,4,0:0:0:0:
256,192,31540,1,4,0:0:0:0:
256,192,32524,1,4,0:0:0:0:
256,192,33016,1,2,0:0:0:0:
256,192,34491,1,4,0:0:0:0:
256,192,35475,1,4,0:0:0:0:
256,192,35967,1,4,0:0:0:0:
256,192,36950,1,2,0:0:0:0:
256,192,37934,1,4,0:0:0:0:
256,192,38917,1,2,0:0:0:0:
256,192,39409,1,2,0:0:0:0:
256,192,39901,1,0,0:0:0:0:
256,192,40393,1,0,0:0:0:0:
256,192,40885,1,6,0:0:0:0:
256,192,41868,1,4,0:0:0:0:
256,192,42851,1,0,0:0:0:0:
256,192,43343,1,2,0:0:0:0:
256,192,43835,1,0,0:0:0:0:
256,192,44818,1,2,0:0:0:0:
256,192,45802,1,0,0:0:0:0:
256,192,46786,1,2,0:0:0:0:
256,192,47523,1,4,0:0:0:0:
256,192,48753,1,2,0:0:0:0:
256,192,49736,1,4,0:0:0:0:
256,192,50228,1,2,0:0:0:0:
256,192,50720,1,0,0:0:0:0:
256,192,51458,1,2,0:0:0:0:
256,192,52687,1,0,0:0:0:0:
256,192,53179,1,2,0:0:0:0:
256,192,53671,1,4,0:0:0:0:
256,192,54654,1,0,0:0:0:0:
256,192,55146,1,0,0:0:0:0:
256,192,55638,1,2,0:0:0:0:
256,192,56621,1,2,0:0:0:0:
256,192,57359,1,2,0:0:0:0:
256,192,58589,1,0,0:0:0:0:
256,192,59326,1,6,0:0:0:0:
256,192,60310,1,0,0:0:0:0:
256,192,61539,1,4,0:0:0:0:
256,192,62031,1,2,0:0:0:0:
256,192,62523,1,0,0:0:0:0:
256,192,63507,1,2,0:0:0:0:
256,192,63998,1,2,0:0:0:0:
256,192,64490,1,0,0:0:0:0:
256,192,65474,1,0,0:0:0:0:
256,192,65966,1,2,0:0:0:0:
256,192,66457,1,0,0:0:0:0:
256,192,66949,1,0,0:0:0:0:
256,192,67441,1,2,0:0:0:0:
256,192,68425,1,2,0:0:0:0:
256,192,69408,1,4,0:0:0:0:
256,192,70392,1,2,0:0:0:0:
256,192,70884,1,2,0:0:0:0:
256,192,71375,1,0,0:0:0:0:
256,192,72359,1,2,0:0:0:0:
256,192,72851,1,0,0:0:0:0:
256,192,73343,1,4,0:0:0:0:
256,192,74818,1,6,0:0:0:0:
256,192,75310,1,4,0:0:0:0:
256,192,75802,1,0,0:0:0:0:
256,192,76293,1,0,0:0:0:0:
256,192,77031,1,6,0:0:0:0:
256,192,78261,1,0,0:0:0:0:
256,192,79245,1,4,0:0:0:0:
256,192,79736,1,2,0:0:0:0:
288,192,80720,1,2,0:0:0:0:
288,192,81212,1,0,0:0:0:0:
288,192,81704,1,2,0:0:0:0:
288,192,82195,1,0,0:0:0:0:
288,192,83179,1,0,0:0:0:0:
288,192,83671,1,2,0:0:0:0:
256,192,84654,1,2,0:0:0:0:
256,192,85146,1,0,0:0:0:0:
256,192,85884,1,2,0:0:0:0:
256,192,86622,1,6,0:0:0:0:
256,192,87113,12,0,93015,0:0:0:0:
