osu file format v14

[General]
AudioFilename: audio.ogg
AudioLeadIn: 0
PreviewTime: 40895
Countdown: 0
SampleSet: Soft
StackLeniency: 0.7
Mode: 3
LetterboxInBreaks: 0
SpecialStyle: 0
WidescreenStoryboard: 1

[Editor]
DistanceSpacing: 0.8
BeatDivisor: 4
GridSize: 32
TimelineZoom: 1.4

[Metadata]
Title:Nani ga Warui (TV Size)
TitleUnicode:なにが悪い (TV Size)
Artist:kessoku band
ArtistUnicode:結束バンド
Creator:SuzumeAyase
Version:Oshiete~
Source:ぼっち・ざ・ろっく!
Tags:DenYi What's Wrong with Bocchi The Rock japanese jpop j-pop pop anime ending 3 ed Ikuyo Kita 喜多郁代 Yamada Ryo Ryou 山田リョウ Nijika Ijichi 伊地知虹夏 Hitori Gotou Gotoh 後藤ひと Bocchi-chan guitarhero Sayumi Suzuhiro Yuho Kitazawa Ritsuo Mitsui ANXX-01135 SVWC-70613
BeatmapID:3929183
BeatmapSetID:1905497

[Difficulty]
HPDrainRate:8
CircleSize:4
OverallDifficulty:8
ApproachRate:5
SliderMultiplier:1.4
SliderTickRate:1

[Events]
//Background and Video events
0,0,"Ffrqa0DVsAAybJA.jpeg",0,0
Video,350,"seishun nani ga warui.mp4"
//Break Periods
//Storyboard Layer 0 (Background)
//Storyboard Layer 1 (Fail)
//Storyboard Layer 2 (Pass)
//Storyboard Layer 3 (Foreground)
//Storyboard Layer 4 (Overlay)
//Storyboard Sound Samples
Sample,30076,0,"Tom 3.wav",60

[TimingPoints]
568,491.803278688525,4,2,1,55,1,0
4266,504.201680672269,4,2,1,55,1,8
4266,-97.0873786407767,4,2,1,55,0,8
4518,504.201680672269,4,2,1,55,1,8
4518,-97.0873786407767,4,2,1,55,0,8
5274,461.538461538462,4,2,1,58,1,8
5274,-106.382978723404,4,2,1,58,0,8
6469,491.803278688525,4,2,1,65,1,0
26141,476.190476190477,4,2,1,55,1,0
26141,-103.092783505155,4,2,1,55,0,0
27202,483.870967741936,4,2,1,55,1,8
27202,-102.040816326531,4,2,1,55,0,8
27593,487.804878048781,4,2,1,55,1,8
27593,-101.010101010101,4,2,1,55,0,8
28080,504.201680672269,4,2,1,55,1,0
28080,-97.0873786407767,4,2,1,55,0,0
29088,487.80487804878,4,2,1,60,1,8
29088,-101.010101010101,4,2,1,60,0,8
29575,483.870967741936,4,2,1,60,1,8
29575,-102.040816326531,4,2,1,60,0,8
29816,454.545454545455,4,2,1,60,1,8
29816,-108.695652173913,4,2,1,60,0,8
30076,491.803278688525,4,2,1,55,1,0
41879,-100,4,2,1,55,0,1
73354,-100,4,2,1,55,0,0
85135,500,4,2,1,65,1,0
85135,-98.0392156862745,4,2,1,65,0,0
85885,491.803278688525,4,2,1,60,1,8
86376,508.474576271187,4,2,1,64,1,8
86376,-97.0873786407767,4,2,1,64,0,8

[HitObjects]
448,192,445,128,0,568:0:0:0:0:
64,192,568,128,2,813:0:0:0:0:
192,192,568,1,4,0:0:0:0:
320,192,813,128,0,936:0:0:0:0:
192,192,936,128,0,1059:0:0:0:0:
64,192,1059,1,2,0:0:0:0:
448,192,1059,1,0,0:0:0:0:
320,192,1182,128,0,1305:0:0:0:0:
192,192,1305,1,0,0:0:0:0:
64,192,1428,128,0,1551:0:0:0:0:
192,192,1551,128,2,1797:0:0:0:0:
448,192,1551,1,0,0:0:0:0:
320,192,1797,128,0,1920:0:0:0:0:
448,192,1920,128,0,2043:0:0:0:0:
64,192,2043,1,8,0:0:0:0:
192,192,2043,1,0,0:0:0:70:LR_CymbalSSF.wav
320,192,2166,128,0,2289:0:0:0:0:
64,192,2289,128,8,2412:0:0:0:0:
448,192,2289,1,0,0:0:0:0:
192,192,2412,1,8,0:0:0:0:
64,192,2535,1,2,0:0:0:0:
320,192,2535,1,4,0:0:0:0:
448,192,2535,128,0,2904:0:0:0:0:
192,192,2904,128,0,3027:0:0:0:0:
64,192,3027,1,2,0:0:0:0:
448,192,3027,1,0,0:0:0:0:
320,192,3149,128,0,3395:0:0:0:0:
192,192,3395,128,0,3518:0:0:0:0:
64,192,3518,128,2,3764:0:0:0:0:
448,192,3518,1,0,0:0:0:0:
320,192,3764,128,0,4010:0:0:0:0:
64,192,4010,1,2,0:0:0:0:
192,192,4010,128,0,4266:0:0:0:0:
64,192,4266,1,2,0:0:0:0:
320,192,4266,1,0,0:0:0:70:LR_CymbalSSF.wav
448,192,4266,128,0,4770:0:0:0:0:
64,192,4770,1,8,0:0:0:0:
192,192,4770,1,0,0:0:0:0:
320,192,4770,1,0,0:0:0:0:
64,192,5022,1,8,0:0:0:0:
192,192,5022,1,0,0:0:0:0:
320,192,5022,1,0,0:0:0:0:
64,192,5274,1,8,0:0:0:0:
192,192,5274,1,0,0:0:0:0:
320,192,5274,1,0,0:0:0:0:
64,192,5504,1,2,0:0:0:0:
320,192,5504,1,0,0:0:0:50:LR_CymbalSSF.wav
448,192,5504,1,0,0:0:0:0:
192,192,5620,1,8,0:0:0:0:
448,192,5735,1,0,0:0:0:0:
64,192,5850,1,8,0:0:0:0:
192,192,5850,1,0,0:0:0:0:
320,192,5966,1,8,0:0:0:0:
448,192,5966,1,0,0:0:0:0:
192,192,6081,1,0,0:0:0:60:Tom 1.wav
64,192,6197,1,0,0:0:0:60:Tom 2.wav
320,192,6197,1,0,0:0:0:0:
448,192,6312,1,0,0:0:0:60:Tom 3.wav
64,192,6469,1,4,0:0:0:0:
192,192,6469,1,2,0:0:0:0:
320,192,6469,1,0,0:0:0:0:
448,192,6714,128,0,6960:0:0:0:0:
64,192,6960,128,8,7206:0:0:0:0:
192,192,6960,1,0,0:0:0:0:
320,192,6960,1,0,0:0:0:0:
448,192,7206,128,0,7452:0:0:0:0:
192,192,7329,1,2,0:0:0:0:
320,192,7452,1,0,0:0:0:0:
192,192,7575,1,0,0:0:0:0:
64,192,7698,128,2,7944:0:0:0:0:
448,192,7698,1,0,0:0:0:0:
320,192,7821,1,0,0:0:0:0:
192,192,7944,1,8,0:0:0:0:
448,192,7944,128,0,8190:0:0:0:0:
320,192,8067,1,0,0:0:0:0:
64,192,8190,128,0,9173:0:0:0:0:
192,192,8313,1,0,0:0:0:0:
320,192,8436,1,2,0:0:0:0:
448,192,8436,1,0,0:0:0:0:
192,192,8559,1,0,0:0:0:0:
448,192,8682,1,0,0:0:0:0:
320,192,8805,1,0,0:0:0:0:
192,192,8928,1,8,0:0:0:0:
448,192,8928,1,0,0:0:0:0:
320,192,9050,1,0,0:0:0:0:
192,192,9173,1,0,0:0:0:0:
320,192,9296,1,0,0:0:0:0:
448,192,9419,128,0,9665:0:0:0:0:
64,192,9542,1,0,0:0:0:0:
192,192,9665,128,2,9911:0:0:0:0:
320,192,9665,1,0,0:0:0:0:
448,192,9788,1,0,0:0:0:0:
64,192,9911,1,8,0:0:0:0:
320,192,9911,128,0,10157:0:0:0:0:
448,192,10034,1,0,0:0:0:0:
64,192,10157,128,0,10403:0:0:0:0:
192,192,10280,1,0,0:0:0:0:
320,192,10403,1,2,0:0:0:0:
448,192,10403,1,0,0:0:0:0:
192,192,10526,1,0,0:0:0:0:
448,192,10649,128,0,10895:0:0:0:0:
320,192,10772,1,0,0:0:0:0:
64,192,10895,128,8,11141:0:0:0:0:
192,192,10895,1,0,0:0:0:0:
320,192,11018,1,0,0:0:0:0:
448,192,11141,128,0,11387:0:0:0:0:
192,192,11264,1,2,0:0:0:0:
320,192,11387,1,0,0:0:0:0:
192,192,11509,1,0,0:0:0:0:
64,192,11632,128,2,11878:0:0:0:0:
448,192,11632,1,0,0:0:0:0:
320,192,11755,1,0,0:0:0:0:
192,192,11878,1,8,0:0:0:0:
448,192,11878,128,0,12124:0:0:0:0:
320,192,12001,1,0,0:0:0:0:
64,192,12124,128,8,12370:0:0:0:0:
192,192,12124,1,4,0:0:0:0:
320,192,12370,1,2,0:0:0:0:
448,192,12370,1,0,0:0:0:0:
192,192,12493,1,8,0:0:0:0:
64,192,12616,1,0,0:0:0:50:Tom 4.wav
448,192,12616,1,0,0:0:0:0:
320,192,12739,1,8,0:0:0:0:
64,192,12862,1,8,0:0:0:0:
192,192,12862,1,0,0:0:0:0:
448,192,12862,1,0,0:0:0:0:
64,192,13108,1,2,0:0:0:0:
192,192,13108,1,4,0:0:0:0:
320,192,13231,1,8,0:0:0:0:
448,192,13231,1,0,0:0:0:0:
320,192,13477,1,8,0:0:0:0:
448,192,13477,1,0,0:0:0:0:
64,192,13600,1,0,0:0:0:60:Tom 1.wav
192,192,13600,1,0,0:0:0:0:
320,192,13723,1,8,0:0:0:0:
448,192,13723,1,0,0:0:0:0:
64,192,13846,1,8,0:0:0:0:
192,192,13846,1,0,0:0:0:0:
320,192,13969,1,0,0:0:0:60:Tom 1.wav
64,192,14091,1,0,0:0:0:60:Tom 2.wav
448,192,14091,1,0,0:0:0:0:
192,192,14214,1,0,0:0:0:60:Tom 3.wav
64,192,14337,1,2,0:0:0:0:
320,192,14337,1,4,0:0:0:0:
448,192,14337,128,0,14583:0:0:0:0:
192,192,14583,1,0,0:0:0:0:
64,192,14829,1,8,0:0:0:0:
320,192,14829,1,0,0:0:0:0:
448,192,14829,1,0,0:0:0:0:
192,192,15075,128,0,15321:0:0:0:0:
64,192,15321,1,2,0:0:0:0:
448,192,15321,1,0,0:0:0:0:
192,192,15444,1,8,0:0:0:0:
320,192,15444,1,0,0:0:0:0:
64,192,15567,1,8,0:0:0:0:
448,192,15567,1,0,0:0:0:0:
192,192,15813,128,0,16059:0:0:0:0:
64,192,16059,1,8,0:0:0:0:
320,192,16059,1,0,0:0:0:0:
448,192,16059,1,0,0:0:0:0:
192,192,16305,1,2,0:0:0:0:
448,192,16305,128,0,16550:0:0:0:0:
64,192,16550,1,2,0:0:0:0:
320,192,16550,1,0,0:0:0:0:
64,192,16796,1,8,0:0:0:0:
192,192,16796,1,0,0:0:0:0:
448,192,16796,1,0,0:0:0:0:
320,192,17042,128,2,17288:0:0:0:0:
64,192,17288,1,2,0:0:0:0:
448,192,17288,1,0,0:0:0:0:
192,192,17411,1,8,0:0:0:0:
320,192,17411,1,0,0:0:0:0:
64,192,17534,1,8,0:0:0:0:
448,192,17534,1,0,0:0:0:0:
320,192,17780,128,0,18026:0:0:0:0:
64,192,18026,1,8,0:0:0:0:
192,192,18026,1,0,0:0:0:0:
448,192,18026,1,0,0:0:0:0:
64,192,18272,128,2,18518:0:0:0:0:
320,192,18272,1,0,0:0:0:0:
192,192,18518,1,0,0:0:0:0:
64,192,18764,1,8,0:0:0:0:
320,192,18764,1,0,0:0:0:0:
448,192,18764,1,0,0:0:0:0:
192,192,19009,128,2,19255:0:0:0:0:
320,192,19255,1,2,0:0:0:0:
448,192,19255,1,0,0:0:0:0:
64,192,19378,1,8,0:0:0:0:
192,192,19378,1,0,0:0:0:0:
320,192,19501,1,8,0:0:0:0:
448,192,19501,1,0,0:0:0:0:
192,192,19747,128,0,19993:0:0:0:0:
64,192,19993,1,8,0:0:0:0:
320,192,19993,1,0,0:0:0:0:
448,192,19993,1,0,0:0:0:0:
192,192,20239,1,2,0:0:0:0:
448,192,20239,128,0,20485:0:0:0:0:
320,192,20485,1,0,0:0:0:0:
64,192,20731,1,8,0:0:0:0:
192,192,20731,1,0,0:0:0:0:
448,192,20731,1,0,0:0:0:0:
320,192,20977,128,2,21223:0:0:0:0:
64,192,21223,1,2,0:0:0:0:
192,192,21223,1,0,0:0:0:0:
320,192,21346,1,8,0:0:0:0:
448,192,21346,1,0,0:0:0:0:
64,192,21469,1,8,0:0:0:0:
192,192,21469,1,0,0:0:0:0:
320,192,21714,128,0,21960:0:0:0:0:
64,192,21960,1,8,0:0:0:0:
192,192,21960,1,0,0:0:0:0:
448,192,21960,1,0,0:0:0:0:
64,192,22206,128,2,22452:0:0:0:0:
448,192,22206,1,0,0:0:0:0:
320,192,22452,1,0,0:0:0:0:
64,192,22698,1,8,0:0:0:0:
192,192,22698,1,0,0:0:0:0:
448,192,22698,1,0,0:0:0:0:
320,192,22944,128,2,23190:0:0:0:0:
64,192,23190,1,2,0:0:0:0:
448,192,23190,1,0,0:0:0:0:
192,192,23313,1,8,0:0:0:0:
320,192,23313,1,0,0:0:0:0:
64,192,23436,1,8,0:0:0:0:
448,192,23436,1,0,0:0:0:0:
320,192,23682,128,0,23928:0:0:0:0:
64,192,23928,1,8,0:0:0:0:
192,192,23928,1,0,0:0:0:0:
448,192,23928,1,0,0:0:0:0:
64,192,24173,128,2,24419:0:0:0:0:
320,192,24173,1,0,0:0:0:0:
192,192,24419,1,2,0:0:0:0:
448,192,24419,1,0,0:0:0:0:
64,192,24665,1,8,0:0:0:0:
320,192,24665,1,0,0:0:0:0:
448,192,24665,1,0,0:0:0:0:
192,192,24911,128,2,25157:0:0:0:0:
64,192,25157,1,2,0:0:0:0:
448,192,25157,1,0,0:0:0:0:
192,192,25280,1,8,0:0:0:0:
320,192,25280,1,0,0:0:0:0:
64,192,25403,1,8,0:0:0:0:
448,192,25403,1,0,0:0:0:0:
192,192,25649,128,0,25895:0:0:0:0:
64,192,25895,1,8,0:0:0:0:
320,192,25895,1,0,0:0:0:0:
448,192,25895,1,0,0:0:0:0:
192,192,26141,1,2,0:0:0:0:
448,192,26141,128,0,26379:0:0:0:0:
320,192,26379,1,0,0:0:0:0:
64,192,26617,1,8,0:0:0:0:
192,192,26617,1,0,0:0:0:0:
448,192,26617,1,0,0:0:0:0:
320,192,26855,128,2,27093:0:0:0:0:
64,192,27093,1,2,0:0:0:0:
192,192,27093,1,0,0:0:0:0:
320,192,27202,1,8,0:0:0:0:
448,192,27202,1,0,0:0:0:0:
64,192,27322,1,8,0:0:0:0:
192,192,27322,1,0,0:0:0:0:
320,192,27593,128,0,27836:0:0:0:0:
64,192,27836,1,8,0:0:0:0:
192,192,27836,1,0,0:0:0:40:LR_CymbalSSF.wav
448,192,27836,1,0,0:0:0:0:
64,192,28080,1,2,0:0:0:0:
320,192,28080,1,0,0:0:0:0:
192,192,28332,1,8,0:0:0:0:
320,192,28332,1,0,0:0:0:0:
448,192,28332,1,0,0:0:0:0:
64,192,28584,1,8,0:0:0:0:
192,192,28584,1,0,0:0:0:0:
448,192,28584,1,0,0:0:0:0:
64,192,28836,1,8,0:0:0:0:
192,192,28836,1,0,0:0:0:0:
320,192,28836,1,0,0:0:0:0:
64,192,29088,1,8,0:0:0:0:
320,192,29088,1,0,0:0:0:40:LR_CymbalSSF.wav
448,192,29088,1,0,0:0:0:0:
192,192,29331,1,0,0:0:0:0:
320,192,29453,1,8,0:0:0:0:
448,192,29453,1,0,0:0:0:0:
64,192,29575,1,8,0:0:0:0:
192,192,29575,1,0,0:0:0:0:
320,192,29816,1,0,0:0:0:60:Tom 1.wav
448,192,29816,1,0,0:0:0:0:
192,192,29929,1,0,0:0:0:60:Tom 2.wav
320,192,30076,1,2,0:0:0:0:
64,192,30321,1,8,0:0:0:0:
192,192,30321,1,0,0:0:0:50:LR_CymbalSSF.wav
448,192,30321,1,0,0:0:0:35:LR_Chm Fast.wav
64,192,30567,1,8,0:0:0:0:
192,192,30567,1,0,0:0:0:50:LR_CymbalSSF.wav
448,192,30567,1,0,0:0:0:0:
320,192,30813,1,0,0:0:0:60:Tom 2.wav
192,192,30936,1,0,0:0:0:60:Tom 3.wav
64,192,31059,1,2,0:0:0:0:
448,192,31059,1,0,0:0:0:0:
64,192,31305,1,8,0:0:0:0:
320,192,31305,1,0,0:0:0:50:LR_CymbalSSF.wav
448,192,31305,1,0,0:0:0:35:LR_Chm Fast.wav
64,192,31551,1,8,0:0:0:0:
320,192,31551,1,0,0:0:0:50:LR_CymbalSSF.wav
448,192,31551,1,0,0:0:0:0:
192,192,31797,1,8,0:0:0:0:
320,192,31920,1,8,0:0:0:0:
64,192,32043,1,2,0:0:0:0:
448,192,32043,1,0,0:0:0:0:
64,192,32289,1,8,0:0:0:0:
192,192,32289,1,0,0:0:0:50:LR_CymbalSSF.wav
448,192,32289,1,0,0:0:0:35:LR_Chm Fast.wav
64,192,32535,1,8,0:0:0:0:
192,192,32535,1,0,0:0:0:50:LR_CymbalSSF.wav
448,192,32535,1,0,0:0:0:0:
320,192,32780,1,0,0:0:0:60:Tom 3.wav
192,192,32903,1,8,0:0:0:0:
64,192,33026,128,8,33272:0:0:0:0:
448,192,33026,1,0,0:0:0:35:LR_Chm Fast.wav
320,192,33272,1,2,0:0:0:0:
448,192,33272,128,0,33518:0:0:0:0:
64,192,33518,128,8,33764:0:0:0:0:
192,192,33518,1,0,0:0:0:35:LR_Chm Fast.wav
320,192,33518,1,0,0:0:0:0:
192,192,33764,1,2,0:0:0:0:
448,192,33764,128,0,34010:0:0:0:0:
64,192,34010,1,2,0:0:0:0:
320,192,34010,1,0,0:0:0:0:
64,192,34256,1,8,0:0:0:0:
192,192,34256,1,0,0:0:0:50:LR_CymbalSSF.wav
448,192,34256,1,0,0:0:0:35:LR_Chm Fast.wav
64,192,34502,1,8,0:0:0:0:
192,192,34502,1,0,0:0:0:50:LR_CymbalSSF.wav
448,192,34502,1,0,0:0:0:0:
320,192,34748,1,8,0:0:0:0:
192,192,34871,1,8,0:0:0:0:
64,192,34994,1,2,0:0:0:0:
448,192,34994,1,0,0:0:0:0:
64,192,35239,1,8,0:0:0:0:
320,192,35239,1,0,0:0:0:50:LR_CymbalSSF.wav
448,192,35239,1,0,0:0:0:35:LR_Chm Fast.wav
64,192,35485,1,8,0:0:0:0:
320,192,35485,1,0,0:0:0:50:LR_CymbalSSF.wav
448,192,35485,1,0,0:0:0:0:
192,192,35731,1,0,0:0:0:60:Tom 2.wav
320,192,35854,1,0,0:0:0:60:Tom 3.wav
64,192,35977,128,4,37821:0:0:0:0:
192,192,35977,1,2,0:0:0:0:
448,192,35977,1,0,0:0:0:0:
320,192,36469,1,2,0:0:0:0:
448,192,36469,1,0,0:0:0:0:
320,192,36961,1,2,0:0:0:0:
448,192,36961,1,0,0:0:0:0:
320,192,37453,1,2,0:0:0:0:
448,192,37453,1,0,0:0:0:0:
192,192,37698,1,0,0:0:0:60:Tom 1.wav
320,192,37821,1,0,0:0:0:60:Tom 2.wav
64,192,37944,1,2,0:0:0:0:
192,192,37944,128,4,38436:0:0:0:0:
448,192,37944,1,0,0:0:0:0:
320,192,38436,1,2,0:0:0:0:
448,192,38436,1,0,0:0:0:0:
64,192,38682,1,2,0:0:0:0:
320,192,38682,1,0,0:0:0:0:
64,192,38928,1,2,0:0:0:0:
448,192,38928,1,0,0:0:0:0:
192,192,39174,1,2,0:0:0:0:
448,192,39174,1,0,0:0:0:0:
192,192,39420,1,2,0:0:0:0:
320,192,39420,1,0,0:0:0:0:
64,192,39666,1,8,0:0:0:0:
320,192,39666,1,0,0:0:0:60:LR_CymbalSSF.wav
448,192,39666,1,0,0:0:0:0:
64,192,39912,1,2,0:0:0:0:
192,192,39912,1,0,0:0:0:0:
192,192,40157,1,8,0:0:0:0:
320,192,40157,1,2,0:0:0:0:
448,192,40157,1,0,0:0:0:0:
64,192,40403,1,2,0:0:0:0:
320,192,40403,1,8,0:0:0:0:
448,192,40403,1,0,0:0:0:0:
64,192,40649,1,8,0:0:0:0:
192,192,40649,1,2,0:0:0:0:
448,192,40649,1,0,0:0:0:0:
64,192,40895,1,2,0:0:0:0:
192,192,40895,1,8,0:0:0:0:
320,192,40895,128,0,41141:0:0:0:60:LR_CymbalSSF.wav
448,192,41141,128,0,41387:0:0:0:0:
192,192,41387,128,0,41633:0:0:0:0:
320,192,41633,128,0,41879:0:0:0:0:
64,192,41879,128,2,42248:0:0:0:0:
192,192,41879,1,4,0:0:0:0:
448,192,41879,1,0,0:0:0:0:
320,192,42248,128,0,42616:0:0:0:0:
64,192,42371,1,8,0:0:0:0:
192,192,42371,1,0,0:0:0:20:LR_Chm Fast.wav
448,192,42371,1,0,0:0:0:0:
192,192,42616,128,0,42862:0:0:0:0:
320,192,42862,1,2,0:0:0:0:
448,192,42862,128,0,43108:0:0:0:0:
64,192,43108,1,2,0:0:0:0:
192,192,43108,1,0,0:0:0:0:
320,192,43231,128,0,43600:0:0:0:0:
64,192,43354,1,8,0:0:0:0:
192,192,43354,1,0,0:0:0:20:LR_Chm Fast.wav
448,192,43354,1,0,0:0:0:0:
64,192,43600,1,2,0:0:0:0:
192,192,43600,128,0,43846:0:0:0:0:
320,192,43846,128,2,44092:0:0:0:0:
448,192,43846,1,0,0:0:0:0:
64,192,44092,1,0,0:0:0:0:
448,192,44215,128,0,44584:0:0:0:0:
64,192,44338,1,8,0:0:0:0:
192,192,44338,1,0,0:0:0:20:LR_Chm Fast.wav
320,192,44338,1,0,0:0:0:0:
192,192,44584,128,0,44830:0:0:0:0:
64,192,44830,1,2,0:0:0:0:
320,192,44830,128,0,45076:0:0:0:0:
64,192,45076,128,2,45321:0:0:0:0:
448,192,45076,1,0,0:0:0:0:
192,192,45321,128,8,45567:0:0:0:0:
320,192,45321,1,0,0:0:0:20:LR_Chm Fast.wav
448,192,45321,1,0,0:0:0:0:
320,192,45567,128,0,46059:0:0:0:0:
64,192,45813,1,2,0:0:0:0:
448,192,45813,1,0,0:0:0:0:
192,192,46059,1,0,0:0:0:0:
64,192,46305,1,8,0:0:0:0:
320,192,46305,1,0,0:0:0:20:LR_Chm Fast.wav
448,192,46305,1,0,0:0:0:0:
448,192,46551,128,0,46674:0:0:0:0:
64,192,46674,1,8,0:0:0:0:
192,192,46674,1,0,0:0:0:0:
320,192,46797,1,2,0:0:0:0:
448,192,46797,128,0,47043:0:0:0:0:
64,192,46920,1,8,0:0:0:0:
192,192,47043,128,2,47289:0:0:0:0:
64,192,47289,1,8,0:0:0:0:
320,192,47289,1,0,0:0:0:0:
448,192,47289,128,0,47535:0:0:0:0:
64,192,47535,128,2,48026:0:0:0:0:
192,192,47535,1,4,0:0:0:0:
320,192,47535,1,0,0:0:0:0:
448,192,47780,1,0,0:0:0:0:
192,192,48026,1,2,0:0:0:0:
320,192,48026,128,0,48272:0:0:0:0:
64,192,48272,1,8,0:0:0:0:
192,192,48272,1,0,0:0:0:20:LR_Chm Fast.wav
448,192,48272,1,0,0:0:0:0:
448,192,48518,128,0,49010:0:0:0:0:
64,192,48764,1,2,0:0:0:0:
192,192,48764,1,0,0:0:0:0:
64,192,49010,1,2,0:0:0:0:
320,192,49010,1,0,0:0:0:0:
192,192,49133,1,8,0:0:0:0:
320,192,49256,1,8,0:0:0:0:
448,192,49256,1,0,0:0:0:20:LR_Chm Fast.wav
64,192,49379,1,8,0:0:0:0:
448,192,49502,1,0,0:0:0:50:Tom 4.wav
192,192,49625,1,0,0:0:0:0:
64,192,49748,1,2,0:0:0:0:
320,192,49748,1,4,0:0:0:0:
448,192,49748,1,0,0:0:0:0:
320,192,49994,1,2,0:0:0:0:
192,192,50116,1,0,0:0:0:0:
64,192,50239,1,8,0:0:0:0:
320,192,50239,128,0,50731:0:0:0:20:LR_Chm Fast.wav
448,192,50239,1,0,0:0:0:0:
192,192,50485,1,0,0:0:0:0:
448,192,50608,1,8,0:0:0:0:
64,192,50731,128,2,50977:0:0:0:0:
192,192,50731,1,0,0:0:0:0:
192,192,50977,128,2,51223:0:0:0:0:
320,192,50977,1,0,0:0:0:0:
64,192,51223,1,8,0:0:0:0:
320,192,51223,128,0,51469:0:0:0:20:LR_Chm Fast.wav
448,192,51223,1,0,0:0:0:0:
64,192,51469,1,8,0:0:0:0:
192,192,51469,1,4,0:0:0:0:
448,192,51469,128,0,51961:0:0:0:0:
320,192,51715,1,2,0:0:0:0:
64,192,51961,128,0,52084:0:0:0:0:
192,192,51961,128,0,52084:0:0:0:0:
320,192,52084,1,8,0:0:0:0:
448,192,52084,1,0,0:0:0:0:
64,192,52207,128,8,52453:0:0:0:0:
192,192,52207,128,0,52453:0:0:0:0:
448,192,52453,1,2,0:0:0:0:
64,192,52576,1,8,0:0:0:0:
192,192,52576,1,0,0:0:0:0:
320,192,52698,1,2,0:0:0:0:
448,192,52698,1,0,0:0:0:0:
64,192,52821,1,8,0:0:0:0:
192,192,52821,1,0,0:0:0:0:
320,192,52944,1,2,0:0:0:0:
448,192,52944,1,0,0:0:0:0:
64,192,53190,1,8,0:0:0:0:
192,192,53190,1,0,0:0:0:20:LR_Chm Fast.wav
320,192,53190,1,0,0:0:0:0:
64,192,53436,1,8,0:0:0:0:
448,192,53436,1,0,0:0:0:0:
192,192,53559,1,8,0:0:0:0:
64,192,53682,128,2,54051:0:0:0:0:
320,192,53682,1,4,0:0:0:0:
448,192,53682,1,0,0:0:0:0:
320,192,54051,128,0,54420:0:0:0:0:
64,192,54174,1,8,0:0:0:0:
192,192,54174,1,0,0:0:0:20:LR_Chm Fast.wav
448,192,54174,1,0,0:0:0:0:
192,192,54420,128,0,54666:0:0:0:0:
64,192,54543,1,8,0:0:0:0:
320,192,54666,1,2,0:0:0:0:
448,192,54666,128,0,54912:0:0:0:0:
64,192,54912,1,2,0:0:0:0:
192,192,54912,1,0,0:0:0:0:
320,192,55035,128,0,55403:0:0:0:0:
64,192,55157,1,8,0:0:0:0:
192,192,55157,1,0,0:0:0:20:LR_Chm Fast.wav
448,192,55157,1,0,0:0:0:0:
64,192,55403,1,2,0:0:0:0:
192,192,55403,128,0,55649:0:0:0:0:
320,192,55649,128,2,55895:0:0:0:0:
448,192,55649,1,0,0:0:0:0:
64,192,55895,1,0,0:0:0:0:
192,192,56018,128,0,56387:0:0:0:0:
64,192,56141,1,8,0:0:0:0:
320,192,56141,1,0,0:0:0:20:LR_Chm Fast.wav
448,192,56141,1,0,0:0:0:0:
320,192,56387,128,0,56633:0:0:0:0:
448,192,56510,1,8,0:0:0:0:
64,192,56633,1,2,0:0:0:0:
192,192,56633,128,0,56879:0:0:0:0:
320,192,56879,1,2,0:0:0:0:
448,192,56879,1,0,0:0:0:0:
64,192,57002,128,0,57371:0:0:0:0:
192,192,57125,1,8,0:0:0:0:
320,192,57125,1,0,0:0:0:20:LR_Chm Fast.wav
448,192,57125,1,0,0:0:0:0:
320,192,57371,128,0,57862:0:0:0:0:
64,192,57616,1,2,0:0:0:0:
448,192,57616,1,0,0:0:0:0:
192,192,57862,1,0,0:0:0:0:
64,192,58108,1,8,0:0:0:0:
320,192,58108,1,0,0:0:0:20:LR_Chm Fast.wav
448,192,58108,1,0,0:0:0:0:
192,192,58354,1,0,0:0:0:0:
320,192,58477,1,0,0:0:0:0:
64,192,58600,1,2,0:0:0:0:
448,192,58600,128,0,58846:0:0:0:0:
192,192,58846,128,2,59092:0:0:0:0:
320,192,58846,1,0,0:0:0:0:
64,192,59092,1,8,0:0:0:0:
320,192,59092,1,0,0:0:0:20:LR_Chm Fast.wav
448,192,59092,128,0,59338:0:0:0:0:
64,192,59338,128,2,59830:0:0:0:0:
192,192,59338,1,4,0:0:0:0:
320,192,59338,1,0,0:0:0:0:
448,192,59584,1,0,0:0:0:0:
192,192,59830,1,2,0:0:0:0:
320,192,59830,128,0,60076:0:0:0:0:
64,192,60076,1,8,0:0:0:0:
192,192,60076,1,0,0:0:0:20:LR_Chm Fast.wav
448,192,60076,1,0,0:0:0:0:
448,192,60321,128,0,60813:0:0:0:0:
192,192,60444,1,8,0:0:0:0:
64,192,60567,1,2,0:0:0:0:
320,192,60567,1,0,0:0:0:0:
192,192,60690,1,8,0:0:0:0:
64,192,60813,1,0,0:0:0:50:Tom 4.wav
320,192,60813,1,0,0:0:0:0:
192,192,60936,1,8,0:0:0:0:
320,192,61059,1,8,0:0:0:0:
448,192,61059,1,0,0:0:0:0:
64,192,61182,1,8,0:0:0:0:
448,192,61305,1,0,0:0:0:60:Tom 3.wav
192,192,61428,1,0,0:0:0:0:
64,192,61551,1,4,0:0:0:0:
320,192,61551,1,8,0:0:0:0:
448,192,61551,1,0,0:0:0:0:
192,192,61797,1,2,0:0:0:0:
448,192,61797,1,0,0:0:0:0:
64,192,62043,1,8,0:0:0:0:
192,192,62043,1,0,0:0:0:0:
320,192,62043,1,0,0:0:0:0:
64,192,62289,1,2,0:0:0:0:
448,192,62289,1,0,0:0:0:0:
192,192,62535,1,8,0:0:0:0:
320,192,62535,1,0,0:0:0:0:
448,192,62535,1,0,0:0:0:0:
64,192,62780,1,2,0:0:0:0:
320,192,62780,1,0,0:0:0:0:
64,192,63026,1,8,0:0:0:0:
192,192,63026,1,0,0:0:0:0:
448,192,63026,1,0,0:0:0:0:
320,192,63272,1,2,0:0:0:0:
448,192,63272,1,0,0:0:0:0:
192,192,63395,1,0,0:0:0:0:
64,192,63518,1,8,0:0:0:0:
320,192,63518,1,0,0:0:0:0:
448,192,63518,1,0,0:0:0:0:
64,192,63764,1,2,0:0:0:0:
192,192,63764,1,0,0:0:0:0:
192,192,64010,1,8,0:0:0:0:
320,192,64010,1,0,0:0:0:0:
448,192,64010,1,0,0:0:0:0:
64,192,64256,1,2,0:0:0:0:
448,192,64256,1,0,0:0:0:0:
64,192,64502,1,8,0:0:0:0:
192,192,64502,1,0,0:0:0:0:
320,192,64502,1,0,0:0:0:0:
320,192,64748,1,2,0:0:0:0:
448,192,64748,1,0,0:0:0:0:
64,192,64994,1,8,0:0:0:0:
192,192,64994,1,0,0:0:0:0:
448,192,64994,1,0,0:0:0:0:
64,192,65239,1,2,0:0:0:0:
320,192,65239,1,0,0:0:0:0:
192,192,65362,1,0,0:0:0:0:
64,192,65485,1,8,0:0:0:0:
320,192,65485,1,0,0:0:0:0:
448,192,65485,1,0,0:0:0:0:
192,192,65731,1,2,0:0:0:0:
448,192,65731,1,0,0:0:0:0:
64,192,65977,1,8,0:0:0:0:
192,192,65977,1,0,0:0:0:0:
320,192,65977,1,0,0:0:0:0:
64,192,66223,1,2,0:0:0:0:
448,192,66223,1,0,0:0:0:0:
192,192,66469,1,8,0:0:0:0:
320,192,66469,1,0,0:0:0:0:
448,192,66469,1,0,0:0:0:0:
64,192,66592,1,0,0:0:0:0:
320,192,66715,1,2,0:0:0:0:
448,192,66715,1,0,0:0:0:0:
192,192,66838,1,0,0:0:0:0:
64,192,66961,1,8,0:0:0:0:
320,192,66961,1,0,0:0:0:0:
448,192,66961,1,0,0:0:0:0:
64,192,67207,1,2,0:0:0:0:
192,192,67207,1,0,0:0:0:0:
192,192,67453,1,8,0:0:0:0:
320,192,67453,1,0,0:0:0:0:
448,192,67453,1,0,0:0:0:0:
64,192,67698,1,2,0:0:0:0:
448,192,67698,1,0,0:0:0:0:
64,192,67944,1,8,0:0:0:0:
192,192,67944,1,0,0:0:0:0:
320,192,67944,1,0,0:0:0:0:
320,192,68190,1,2,0:0:0:0:
448,192,68190,1,0,0:0:0:0:
64,192,68436,1,8,0:0:0:0:
192,192,68436,1,0,0:0:0:0:
448,192,68436,1,0,0:0:0:0:
64,192,68682,1,2,0:0:0:0:
320,192,68682,1,0,0:0:0:0:
192,192,68928,1,8,0:0:0:0:
320,192,68928,1,0,0:0:0:0:
448,192,68928,1,0,0:0:0:0:
64,192,69174,1,2,0:0:0:0:
448,192,69174,128,0,69420:0:0:0:0:
64,192,69420,1,8,0:0:0:0:
192,192,69420,1,4,0:0:0:0:
320,192,69420,1,0,0:0:0:0:
320,192,69666,1,2,0:0:0:0:
448,192,69666,1,0,0:0:0:0:
64,192,69912,1,8,0:0:0:0:
192,192,69912,1,0,0:0:0:0:
448,192,69912,1,0,0:0:0:0:
64,192,70157,1,2,0:0:0:0:
320,192,70157,1,0,0:0:0:0:
192,192,70403,1,8,0:0:0:0:
320,192,70403,1,0,0:0:0:0:
448,192,70403,1,0,0:0:0:0:
64,192,70649,1,2,0:0:0:0:
192,192,70649,1,0,0:0:0:0:
64,192,70895,1,8,0:0:0:0:
320,192,70895,1,0,0:0:0:0:
448,192,70895,1,0,0:0:0:0:
192,192,71141,1,2,0:0:0:0:
448,192,71141,128,0,71387:0:0:0:0:
64,192,71387,1,8,0:0:0:0:
192,192,71387,1,0,0:0:0:0:
320,192,71387,1,0,0:0:0:0:
320,192,71633,1,2,0:0:0:0:
448,192,71633,1,0,0:0:0:0:
64,192,71879,1,8,0:0:0:0:
192,192,71879,1,0,0:0:0:0:
448,192,71879,1,0,0:0:0:0:
320,192,72125,1,0,0:0:0:30:LR_CymbalSSF.wav
64,192,72248,1,8,0:0:0:0:
192,192,72248,1,0,0:0:0:0:
320,192,72371,1,0,0:0:0:50:Tom 4.wav
448,192,72371,1,0,0:0:0:0:
192,192,72494,1,0,0:0:0:0:
64,192,72616,1,8,0:0:0:0:
448,192,72616,1,0,0:0:0:0:
192,192,72739,1,8,0:0:0:0:
320,192,72739,1,0,0:0:0:0:
64,192,72862,1,10,0:0:0:0:
320,192,72985,1,8,0:0:0:0:
448,192,72985,1,0,0:0:0:0:
64,192,73108,1,0,0:0:0:60:Tom 2.wav
192,192,73108,1,0,0:0:0:0:
448,192,73231,128,0,73354:0:0:0:60:Tom 3.wav
64,192,73354,128,2,73600:0:0:0:0:
192,192,73354,1,4,0:0:0:0:
320,192,73354,1,0,0:0:0:0:
320,192,73600,128,0,73723:0:0:0:0:
192,192,73723,128,0,73846:0:0:0:0:
64,192,73846,1,2,0:0:0:0:
448,192,73846,1,0,0:0:0:0:
320,192,73969,128,0,74092:0:0:0:0:
192,192,74092,1,0,0:0:0:0:
64,192,74215,128,0,74338:0:0:0:0:
192,192,74338,128,2,74584:0:0:0:0:
448,192,74338,1,0,0:0:0:0:
320,192,74584,128,0,74707:0:0:0:0:
448,192,74707,128,0,74830:0:0:0:0:
64,192,74830,1,8,0:0:0:0:
192,192,74830,1,0,0:0:0:60:LR_CymbalSSF.wav
320,192,74953,128,0,75076:0:0:0:0:
64,192,75076,128,0,75198:0:0:0:40:Tom 3.wav
448,192,75076,1,0,0:0:0:0:
192,192,75198,1,0,0:0:0:40:Tom 2.wav
64,192,75321,1,2,0:0:0:0:
320,192,75321,1,4,0:0:0:0:
448,192,75321,128,0,75690:0:0:0:0:
192,192,75690,128,0,75813:0:0:0:0:
64,192,75813,1,2,0:0:0:0:
448,192,75813,1,0,0:0:0:0:
320,192,75936,128,0,76182:0:0:0:0:
192,192,76182,128,0,76305:0:0:0:0:
64,192,76305,128,2,76551:0:0:0:0:
448,192,76305,1,0,0:0:0:0:
320,192,76551,128,0,76797:0:0:0:0:
64,192,76797,1,2,0:0:0:0:
192,192,76797,128,0,77043:0:0:0:0:
64,192,77043,1,8,0:0:0:0:
320,192,77043,1,0,0:0:0:60:LR_CymbalSSF.wav
448,192,77043,128,0,77535:0:0:0:0:
64,192,77535,1,8,0:0:0:0:
192,192,77535,1,0,0:0:0:0:
320,192,77535,1,0,0:0:0:0:
64,192,77780,1,8,0:0:0:0:
192,192,77780,1,0,0:0:0:0:
320,192,77780,1,0,0:0:0:0:
64,192,78026,1,8,0:0:0:0:
192,192,78026,1,0,0:0:0:0:
320,192,78026,1,0,0:0:0:0:
64,192,78272,1,8,0:0:0:0:
320,192,78272,1,0,0:0:0:0:
448,192,78272,1,0,0:0:0:0:
192,192,78518,1,8,0:0:0:0:
448,192,78518,1,0,0:0:0:0:
64,192,78641,1,8,0:0:0:0:
320,192,78641,1,0,0:0:0:0:
192,192,78764,1,2,0:0:0:0:
320,192,78887,1,8,0:0:0:0:
448,192,78887,1,0,0:0:0:0:
64,192,79010,1,8,0:0:0:0:
192,192,79010,1,0,0:0:0:0:
448,192,79133,1,8,0:0:0:0:
64,192,79256,1,4,0:0:0:0:
192,192,79256,1,2,0:0:0:0:
320,192,79256,1,0,0:0:0:0:
448,192,79502,128,0,79748:0:0:0:0:
64,192,79748,128,8,79994:0:0:0:0:
192,192,79748,1,0,0:0:0:0:
320,192,79748,1,0,0:0:0:0:
448,192,79994,128,0,80239:0:0:0:0:
192,192,80116,1,2,0:0:0:0:
320,192,80239,1,0,0:0:0:0:
192,192,80362,1,0,0:0:0:0:
64,192,80485,128,2,80731:0:0:0:0:
448,192,80485,1,0,0:0:0:0:
320,192,80608,1,0,0:0:0:0:
192,192,80731,1,8,0:0:0:0:
448,192,80731,128,0,80977:0:0:0:0:
320,192,80854,1,0,0:0:0:0:
64,192,80977,128,0,81961:0:0:0:0:
192,192,81100,1,0,0:0:0:0:
320,192,81223,1,2,0:0:0:0:
448,192,81223,1,0,0:0:0:0:
192,192,81346,1,0,0:0:0:0:
448,192,81469,1,0,0:0:0:0:
320,192,81592,1,0,0:0:0:0:
192,192,81715,1,8,0:0:0:0:
448,192,81715,1,0,0:0:0:0:
320,192,81838,1,0,0:0:0:0:
192,192,81961,1,0,0:0:0:0:
320,192,82084,1,0,0:0:0:0:
448,192,82207,128,0,82453:0:0:0:0:
64,192,82330,1,0,0:0:0:0:
192,192,82453,128,2,82698:0:0:0:0:
320,192,82453,1,0,0:0:0:0:
448,192,82576,1,0,0:0:0:0:
64,192,82698,1,8,0:0:0:0:
320,192,82698,128,0,82944:0:0:0:0:
448,192,82821,1,0,0:0:0:0:
64,192,82944,128,0,83190:0:0:0:45:LR_CymbalSSF.wav
192,192,83067,1,0,0:0:0:0:
320,192,83190,1,2,0:0:0:0:
448,192,83190,1,4,0:0:0:0:
192,192,83313,1,0,0:0:0:0:
448,192,83436,128,0,83682:0:0:0:0:
320,192,83559,1,0,0:0:0:0:
64,192,83682,128,8,83928:0:0:0:0:
192,192,83682,1,0,0:0:0:0:
320,192,83805,1,0,0:0:0:0:
448,192,83928,128,0,84174:0:0:0:0:
192,192,84051,1,2,0:0:0:0:
320,192,84174,1,0,0:0:0:0:
192,192,84297,1,0,0:0:0:0:
64,192,84420,128,2,84666:0:0:0:0:
448,192,84420,1,0,0:0:0:0:
320,192,84543,1,0,0:0:0:0:
192,192,84666,1,8,0:0:0:0:
448,192,84666,128,0,84912:0:0:0:0:
320,192,84789,1,0,0:0:0:0:
64,192,84912,128,0,85135:0:0:0:45:LR_CymbalSSF.wav
192,192,84912,1,0,0:0:0:0:
320,192,85135,1,2,0:0:0:0:
448,192,85135,1,0,0:0:0:0:
192,192,85260,1,8,0:0:0:0:
64,192,85385,1,0,0:0:0:60:Tom 3.wav
448,192,85385,1,0,0:0:0:0:
320,192,85510,1,8,0:0:0:0:
64,192,85635,1,8,0:0:0:0:
192,192,85635,1,0,0:0:0:0:
320,192,85760,1,8,0:0:0:0:
448,192,85760,1,0,0:0:0:0:
64,192,85885,1,0,0:0:0:60:Tom 2.wav
192,192,85885,1,0,0:0:0:0:
320,192,86130,1,2,0:0:0:0:
448,192,86130,1,0,0:0:0:0:
64,192,86376,1,8,0:0:0:0:
192,192,86376,1,0,0:0:0:0:
448,192,86376,1,0,0:0:0:0:
64,192,86630,1,8,0:0:0:0:
192,192,86630,1,0,0:0:0:0:
320,192,86630,1,0,0:0:0:0:
64,192,86884,1,8,0:0:0:0:
320,192,86884,1,0,0:0:0:0:
448,192,86884,1,0,0:0:0:0:
