osu file format v14

[General]
AudioFilename: audio.ogg
AudioLeadIn: 0
PreviewTime: 40885
Countdown: 0
SampleSet: Normal
StackLeniency: 0.7
Mode: 1
LetterboxInBreaks: 0
WidescreenStoryboard: 1

[Editor]
DistanceSpacing: 0.8
BeatDivisor: 4
GridSize: 32
TimelineZoom: 2.2

[Metadata]
Title:Nani ga Warui (TV Size)
TitleUnicode:なにが悪い (TV Size)
Artist:kessoku band
ArtistUnicode:結束バンド
Creator:MTNTWarz
Version:Kantan
Source:ぼっち・ざ・ろっく!
Tags:taikoseania bocchi the rock! 伊地知虹夏 Ijichi Nijika 鈴代紗弓 Suzushiro Sayumi 北澤ゆうほ yuuho kitazawa 三井律郎 ritsuro mitsui what is what's wrong with ending song ed 3 anime japanese j pop j-pop jpop j-rock jrock rock
BeatmapID:3940583
BeatmapSetID:1900602

[Difficulty]
HPDrainRate:8
CircleSize:5
OverallDifficulty:3
ApproachRate:5
SliderMultiplier:1.4
SliderTickRate:1

[Events]
//Background and Video events
0,0,"nijika.jpg",0,90
//Break Periods
//Storyboard Layer 0 (Background)
//Storyboard Layer 1 (Fail)
//Storyboard Layer 2 (Pass)
//Storyboard Layer 3 (Foreground)
//Storyboard Layer 4 (Overlay)
//Storyboard Sound Samples

[TimingPoints]
558,491.803278688525,4,1,0,60,1,0
558,-100,4,1,0,60,0,0
6459,491.803278688525,4,1,0,70,1,0
6459,-100,4,1,0,70,0,0
14327,-100,4,1,0,60,0,0
35967,491.803278688525,4,1,0,70,1,0
35967,-100,4,1,0,70,0,0
41868,491.803278688525,4,1,0,80,1,1
41868,-100,4,1,0,80,0,1
53671,491.803278688525,4,1,0,80,1,1
53671,-100,4,1,0,80,0,1
73343,491.803278688525,4,1,0,60,1,0
73343,-100,4,1,0,60,0,0
79244,491.803278688525,4,1,0,70,1,0
79244,-100,4,1,0,70,0,0
87112,-100,4,1,0,50,0,0

[HitObjects]
256,192,558,5,4,0:0:0:0:
256,192,2033,1,8,0:0:0:0:
256,192,2525,1,4,0:0:0:0:
256,192,4246,1,12,0:0:0:0:
256,192,5476,1,8,0:0:0:0:
256,192,5967,1,8,0:0:0:0:
256,192,6459,1,4,0:0:0:0:
256,192,6950,1,8,0:0:0:0:
256,192,7934,1,8,0:0:0:0:
256,192,8426,1,0,0:0:0:0:
256,192,8918,1,8,0:0:0:0:
256,192,9901,1,8,0:0:0:0:
256,192,10393,1,0,0:0:0:0:
256,192,10885,1,8,0:0:0:0:
256,192,12114,1,8,0:0:0:0:
256,192,12606,1,0,0:0:0:0:
256,192,13098,1,12,0:0:0:0:
256,192,14327,1,4,0:0:0:0:
256,192,14819,1,0,0:0:0:0:
256,192,15188,1,8,0:0:0:0:
256,192,16295,1,8,0:0:0:0:
256,192,16786,1,0,0:0:0:0:
256,192,17155,1,8,0:0:0:0:
256,192,18262,1,0,0:0:0:0:
256,192,18754,1,8,0:0:0:0:
256,192,19122,1,0,0:0:0:0:
256,192,20229,1,8,0:0:0:0:
256,192,20721,1,8,0:0:0:0:
256,192,21090,1,0,0:0:0:0:
256,192,22196,1,0,0:0:0:0:
256,192,22688,1,0,0:0:0:0:
256,192,23057,1,8,0:0:0:0:
256,192,24163,1,8,0:0:0:0:
256,192,24655,1,0,0:0:0:0:
256,192,25024,1,8,0:0:0:0:
256,192,26131,1,0,0:0:0:0:
256,192,26622,1,8,0:0:0:0:
256,192,27114,1,0,0:0:0:0:
256,192,28098,1,8,0:0:0:0:
256,192,28590,1,0,0:0:0:0:
256,192,29081,1,8,0:0:0:0:
256,192,29573,1,0,0:0:0:0:
256,192,30311,1,12,0:0:0:0:
256,192,31295,1,12,0:0:0:0:
256,192,32278,1,4,0:0:0:0:
256,192,33016,1,8,0:0:0:0:
256,192,33508,1,0,0:0:0:0:
256,192,34245,1,12,0:0:0:0:
256,192,35229,1,12,0:0:0:0:
256,192,35967,1,4,0:0:0:0:
256,192,37934,1,4,0:0:0:0:
256,192,38917,1,0,0:0:0:0:
256,192,39655,1,12,0:0:0:0:
256,192,40885,5,12,0:0:0:0:
256,192,41868,5,4,0:0:0:0:
256,192,42236,1,0,0:0:0:0:
256,192,42851,1,8,0:0:0:0:
256,192,43220,1,8,0:0:0:0:
256,192,43835,1,0,0:0:0:0:
256,192,44204,1,8,0:0:0:0:
256,192,44818,1,8,0:0:0:0:
256,192,45310,1,8,0:0:0:0:
256,192,45802,1,0,0:0:0:0:
256,192,46294,1,8,0:0:0:0:
256,192,47523,1,4,0:0:0:0:
256,192,48261,1,8,0:0:0:0:
256,192,48753,1,0,0:0:0:0:
256,192,49245,1,8,0:0:0:0:
256,192,49736,1,4,0:0:0:0:
256,192,50720,1,8,0:0:0:0:
256,192,51458,1,4,0:0:0:0:
256,192,52195,1,8,0:0:0:0:
256,192,52687,1,0,0:0:0:0:
256,192,53179,1,8,0:0:0:0:
256,192,53671,1,4,0:0:0:0:
256,192,54039,1,0,0:0:0:0:
256,192,54654,1,8,0:0:0:0:
256,192,55023,1,8,0:0:0:0:
256,192,55638,1,0,0:0:0:0:
256,192,56007,1,8,0:0:0:0:
256,192,56621,1,8,0:0:0:0:
256,192,56990,1,0,0:0:0:0:
256,192,57359,1,0,0:0:0:0:
256,192,58097,1,8,0:0:0:0:
256,192,59326,1,4,0:0:0:0:
256,192,60064,1,8,0:0:0:0:
256,192,60556,1,0,0:0:0:0:
256,192,61048,1,8,0:0:0:0:
256,192,61539,1,4,0:0:0:0:
256,192,62523,1,8,0:0:0:0:
256,192,63507,1,0,0:0:0:0:
256,192,63998,1,0,0:0:0:0:
256,192,64490,1,8,0:0:0:0:
256,192,65474,1,8,0:0:0:0:
256,192,66457,1,0,0:0:0:0:
256,192,67441,1,8,0:0:0:0:
256,192,67933,1,8,0:0:0:0:
256,192,68425,1,0,0:0:0:0:
256,192,69408,1,12,0:0:0:0:
256,192,70392,1,0,0:0:0:0:
256,192,70884,1,8,0:0:0:0:
256,192,71375,1,0,0:0:0:0:
256,192,72359,1,8,0:0:0:0:
256,192,72851,1,8,0:0:0:0:
256,192,73343,1,4,0:0:0:0:
256,192,74818,1,8,0:0:0:0:
256,192,75310,1,4,0:0:0:0:
256,192,77031,1,12,0:0:0:0:
256,192,78261,1,8,0:0:0:0:
256,192,78752,1,8,0:0:0:0:
256,192,79244,1,4,0:0:0:0:
256,192,79735,1,8,0:0:0:0:
256,192,80719,1,8,0:0:0:0:
256,192,81211,1,0,0:0:0:0:
256,192,81703,1,8,0:0:0:0:
256,192,82686,1,8,0:0:0:0:
256,192,83178,1,4,0:0:0:0:
256,192,83670,1,8,0:0:0:0:
256,192,84653,1,8,0:0:0:0:
256,192,85145,1,0,0:0:0:0:
256,192,85883,1,8,0:0:0:0:
256,192,86621,1,8,0:0:0:0:
256,192,87112,12,0,93014,0:0:0:0:
